osu file format v14

[General]
AudioFilename: audio.mp3
AudioLeadIn: 1300
PreviewTime: 57320
Countdown: 0
SampleSet: Soft
StackLeniency: 0.2
Mode: 0
LetterboxInBreaks: 0
WidescreenStoryboard: 1

[Editor]
Bookmarks: 33057
DistanceSpacing: 0.5
BeatDivisor: 4
GridSize: 32
TimelineZoom: 2.4

[Metadata]
Title:Kimi no Matsu Sekai (TV Size)
TitleUnicode:君の待つ世界 (TVサイズ)
Artist:LAGOON
ArtistUnicode:LAGOON
Creator:marcuddles
Version:Expert
Source:まじっく快斗1412
Tags:opening Kuroba Kaito 1412
BeatmapID:1803022
BeatmapSetID:861922

[Difficulty]
HPDrainRate:6
CircleSize:4
OverallDifficulty:8.3
ApproachRate:9.1
SliderMultiplier:1.8
SliderTickRate:1

[Events]
//Background and Video events
0,0,"710662.jpg",0,0
//Break Periods
//Storyboard Layer 0 (Background)
//Storyboard Layer 1 (Fail)
//Storyboard Layer 2 (Pass)
//Storyboard Layer 3 (Foreground)
//Storyboard Sound Samples

[TimingPoints]
100,338.983050847458,4,2,1,50,1,0
100,-133.333333333333,4,2,1,50,0,0
3913,-133.333333333333,4,2,1,5,0,0
3998,-133.333333333333,4,2,1,50,0,0
5184,-133.333333333333,4,2,1,25,0,0
5354,327.868852459016,4,2,1,50,1,0
5517,327.868852459016,4,2,1,80,1,0
5517,-100,4,2,1,40,0,0
5680,-100,4,2,1,80,0,0
6828,-100,4,2,1,40,0,0
6991,-100,4,2,1,80,0,0
8139,-100,4,2,1,40,0,0
8302,-100,4,2,1,80,0,0
9451,-100,4,2,1,40,0,0
9614,-100,4,2,1,80,0,0
11254,-100,4,2,1,40,0,0
11417,-100,4,2,1,80,0,0
12074,-100,4,2,1,40,0,0
12237,-100,4,2,1,80,0,0
13385,-100,4,2,1,40,0,0
13548,-100,4,2,1,80,0,0
14041,-100,4,2,1,40,0,0
14204,-100,4,2,1,80,0,0
16008,-105.263157894737,4,2,1,80,0,0
21090,-100,4,2,1,80,0,0
21746,-100,4,2,1,40,0,0
21909,-100,4,2,1,80,0,0
22566,-100,4,2,1,40,0,0
22729,-100,4,2,1,80,0,0
23877,-100,4,2,1,40,0,0
24040,-100,4,2,1,80,0,0
25189,-100,4,2,1,40,0,0
25352,-100,4,2,1,80,0,0
26500,-105.263157894737,4,2,1,80,0,0
31582,-100,4,2,1,80,0,0
32238,-100,4,2,1,40,0,0
32401,-100,4,2,1,80,0,0
33057,-100,4,2,1,40,0,0
33220,-100,4,2,1,80,0,0
34369,-100,4,2,1,40,0,0
34532,-100,4,2,1,80,0,0
35680,-100,4,2,1,40,0,0
35843,-100,4,2,1,80,0,0
36008,-100,4,2,1,40,0,0
36171,-100,4,2,1,80,0,0
36828,-111.111111111111,4,2,1,80,0,0
38795,-111.111111111111,4,2,1,40,0,0
38959,-111.111111111111,4,2,1,80,0,0
40107,-111.111111111111,4,2,1,40,0,0
40271,-111.111111111111,4,2,1,80,0,0
42238,-111.111111111111,4,2,1,40,0,0
42402,-111.111111111111,4,2,1,80,0,0
43549,-111.111111111111,4,2,1,40,0,0
43713,-111.111111111111,4,2,1,80,0,0
45353,-111.111111111111,4,2,1,40,0,0
45517,-111.111111111111,4,2,1,80,0,0
46008,-111.111111111111,4,2,1,40,0,0
46172,-111.111111111111,4,2,1,80,0,0
51910,-111.111111111111,4,2,1,40,0,0
52074,-111.111111111111,4,2,1,80,0,0
57484,-500,4,2,1,80,0,0
57730,-500,4,2,1,5,0,0
57812,-100,4,2,1,80,0,1
58959,-166.666666666667,4,2,1,80,0,1
59205,-166.666666666667,4,2,1,5,0,1
59287,-100,4,2,1,80,0,1
61746,-100,4,2,1,40,0,1
61910,-100,4,2,1,80,0,1
62320,-100,4,2,1,80,0,1
64369,-100,4,2,1,40,0,1
64533,-100,4,2,1,80,0,1
65844,-100,4,2,1,40,0,1
66008,-100,4,2,1,80,0,1
66500,-100,4,2,1,40,0,1
66664,-100,4,2,1,80,0,1
67156,-100,4,2,1,40,0,1
67320,-100,4,2,1,80,0,1
67976,-100,4,2,1,80,0,0
68303,-100,4,2,1,80,0,1
73057,-100,4,2,1,20,0,1
73221,-100,4,2,1,80,0,1
73385,-100,4,2,1,20,0,1
73549,-100,4,2,1,80,0,1
75189,-100,4,2,1,40,0,1
75353,-100,4,2,1,80,0,1
75680,-100,4,2,1,20,0,1
75844,-100,4,2,1,80,0,1
76008,-100,4,2,1,20,0,1
76172,-100,4,2,1,80,0,1
78303,-100,4,2,1,40,0,1
78467,-142.857142857143,4,2,1,80,0,1
78713,-142.857142857143,4,2,1,5,0,1
78795,-100,4,2,1,80,0,0
79451,-100,4,2,1,40,0,0
79614,-100,4,2,1,80,0,0
80271,-100,4,2,1,40,0,0
80434,-100,4,2,1,80,0,0
81582,-100,4,2,1,40,0,0
81745,-100,4,2,1,80,0,0
82238,-100,4,2,1,40,0,0
82401,-100,4,2,1,80,0,0
82894,-100,4,2,1,40,0,0
83057,-100,4,2,1,80,0,0
85516,-100,4,2,1,40,0,0
85679,-100,4,2,1,80,0,0
85844,-200,4,2,1,80,0,0
86172,-200,4,2,1,5,0,0

[Colours]
Combo1 : 255,128,128
Combo2 : 141,235,202
Combo3 : 226,91,46
Combo4 : 30,174,236

[HitObjects]
169,120,100,5,0,0:0:0:0:
84,138,269,2,0,P|120:140|155:131,1,67.5000025749207
260,72,608,2,0,L|237:213,1,135.000005149841
209,348,1116,1,0,0:0:0:0:
67,297,1286,6,0,B|134:290|125:343|190:338,1,135.000005149841
317,213,1794,1,0,0:0:0:0:
353,353,1964,2,0,P|370:300|335:232,1,135.000005149841
279,304,2472,1,0,0:0:0:0:
279,304,2811,5,0,0:0:0:0:
326,217,2980,1,0,0:0:0:0:
296,123,3149,1,0,0:0:0:0:
296,123,3320,2,0,B|224:113|246:169|172:160,1,135.000005149841
64,96,3828,2,0,L|73:133,1,33.7500012874604
93,245,3998,1,0,0:0:0:0:
256,192,4083,12,0,5184,0:0:0:0:
397,191,5354,6,0,P|355:169|309:167,1,90
72,251,5680,1,0,0:0:0:0:
198,288,5844,2,0,L|178:106,1,180
333,265,6336,1,0,0:0:0:0:
384,190,6500,1,0,0:0:0:0:
319,22,6664,6,0,P|316:66|331:109,1,90
478,276,6992,1,0,0:0:0:0:
403,361,7156,2,0,L|217:329,1,180
102,152,7648,1,0,0:0:0:0:
125,267,7812,1,0,0:0:0:0:
186,59,7976,6,0,P|224:56|277:79,1,90
295,308,8303,1,0,0:0:0:0:
210,180,8467,2,0,B|306:162|289:240|382:227,1,180
441,106,8959,1,0,0:0:0:0:
473,318,9123,1,0,0:0:0:0:
441,106,9287,6,0,B|446:72|463:49|463:49|442:63|426:66,1,90
210,180,9615,2,0,B|205:146|188:123|188:123|209:137|212:136,1,90
346,280,9943,2,0,B|351:246|368:223|368:223|347:237|331:240,1,90
85,191,10271,5,0,0:0:0:0:
333,133,10435,1,0,0:0:0:0:
333,133,10598,6,0,P|378:93|289:58,1,180
263,202,11090,2,0,P|296:227|347:236,1,90
482,188,11418,1,0,0:0:0:0:
378,249,11581,1,0,0:0:0:0:
352,366,11745,1,0,0:0:0:0:
169,306,11910,6,0,L|258:290,1,90
482,188,12238,1,0,0:0:0:0:
376,131,12402,2,0,B|246:156|246:156|285:187,1,180
378,249,12894,1,0,0:0:0:0:
479,58,13057,1,0,0:0:0:0:
278,40,13221,6,0,L|180:32,1,90
93,268,13549,1,0,0:0:0:0:
51,116,13713,1,0,0:0:0:0:
296,58,13877,6,0,L|198:50,1,90
111,286,14205,1,0,0:0:0:0:
69,134,14369,1,0,0:0:0:0:
273,339,14533,6,0,B|405:327|405:327|382:316|365:299,1,180
222,233,15025,1,0,0:0:0:0:
472,50,15189,2,0,L|435:235,1,180
304,112,15680,1,0,0:0:0:0:
222,233,15844,1,0,0:0:0:0:
288,364,16008,5,0,0:0:0:0:
207,127,16172,1,0,0:0:0:0:
114,209,16336,2,0,P|114:252|130:292,1,85.4999977169037
143,305,16582,1,0,0:0:0:0:
158,317,16664,1,0,0:0:0:0:
249,232,16827,1,0,0:0:0:0:
373,244,16992,1,0,0:0:0:0:
421,176,17155,1,0,0:0:0:0:
404,95,17320,5,0,0:0:0:0:
460,253,17484,2,0,B|476:310|476:310|454:297,1,85.4999977169037
338,170,17812,2,0,L|254:152,1,85.4999977169037
235,161,18057,1,0,0:0:0:0:
218,171,18139,1,0,0:0:0:0:
63,83,18303,1,0,0:0:0:0:
109,188,18467,6,0,P|113:229|83:291,1,85.4999977169037
303,331,18795,1,0,0:0:0:0:
227,253,18959,2,0,P|213:212|217:170,1,85.4999977169037
227,155,19205,1,0,0:0:0:0:
244,143,19287,1,0,0:0:0:0:
402,178,19451,2,0,P|359:182|312:210,1,85.4999977169037
215,360,19779,1,0,0:0:0:0:
207,251,19943,5,0,0:0:0:0:
326,364,20107,2,0,L|414:346,1,85.4999977169037
487,133,20435,2,0,P|451:100|407:184,1,170.999995433807
473,223,20926,1,0,0:0:0:0:
398,13,21090,6,0,P|323:60|294:145,1,180
393,316,21582,2,0,L|303:294,1,90
161,177,21910,1,0,0:0:0:0:
176,277,22073,1,0,0:0:0:0:
192,377,22237,1,0,0:0:0:0:
272,162,22402,6,0,P|255:121|223:91,1,90
458,152,22730,1,0,0:0:0:0:
423,47,22894,2,0,P|363:101|374:225,1,180
449,299,23385,1,0,0:0:0:0:
260,269,23549,1,0,0:0:0:0:
348,373,23713,6,0,L|367:278,1,90
153,250,24041,1,0,0:0:0:0:
184,146,24205,2,0,P|221:166|261:251,1,135
260,269,24533,1,0,0:0:0:0:
91,176,24697,1,0,0:0:0:0:
264,82,24861,1,0,0:0:0:0:
264,82,25025,6,0,B|324:69|324:69|290:113,1,90
91,176,25353,2,0,B|31:189|31:189|48:166,1,90
260,269,25680,2,0,B|320:256|320:256|286:300,1,90
213,374,26008,5,0,0:0:0:0:
434,269,26172,2,0,P|431:222|398:172,1,90
389,175,26418,1,0,0:0:0:0:
365,168,26500,5,0,0:0:0:0:
171,131,26664,1,0,0:0:0:0:
271,71,26828,2,0,L|279:156,1,85.4999977169037
281,177,27074,1,0,0:0:0:0:
284,198,27156,1,0,0:0:0:0:
171,131,27320,1,0,0:0:0:0:
47,163,27484,1,0,0:0:0:0:
126,208,27648,1,0,0:0:0:0:
171,131,27812,5,0,0:0:0:0:
193,274,27976,2,0,P|160:299|113:309,1,85.4999977169037
171,131,28303,2,0,P|212:140|246:164,1,85.4999977169037
261,180,28549,1,0,0:0:0:0:
273,198,28631,1,0,0:0:0:0:
349,66,28795,1,0,0:0:0:0:
406,282,28959,6,0,L|494:260,1,85.4999977169037
488,261,29287,1,0,0:0:0:0:
345,150,29451,2,0,L|427:170,1,85.4999977169037
448,176,29697,1,0,0:0:0:0:
469,182,29779,1,0,0:0:0:0:
356,233,29943,1,0,0:0:0:0:
332,355,30107,1,0,0:0:0:0:
272,279,30271,1,0,0:0:0:0:
356,233,30435,5,0,0:0:0:0:
243,375,30598,2,0,L|160:358,1,85.4999977169037
29,226,30926,2,0,B|60:221|88:215|88:215|110:224|129:238|129:238|165:227|204:223,1,170.999995433807
191,224,31418,1,0,0:0:0:0:
300,113,31582,6,0,P|282:175|331:275,1,180
483,212,32074,2,0,P|447:185|404:177,1,90
208,287,32402,1,0,0:0:0:0:
330,274,32566,1,0,0:0:0:0:
404,177,32730,1,0,0:0:0:0:
227,84,32894,6,0,P|245:125|254:170,1,90
431,81,33221,1,0,0:0:0:0:
326,18,33385,2,0,B|230:3|257:81|160:66,1,180
289,145,33877,1,0,0:0:0:0:
330,265,34041,1,0,0:0:0:0:
134,284,34205,6,0,P|166:253|209:239,1,90
437,187,34533,1,0,0:0:0:0:
348,101,34697,2,0,B|309:144|309:144|332:278,1,180
448,91,35189,1,0,0:0:0:0:
292,24,35353,1,0,0:0:0:0:
437,187,35516,6,0,L|453:276,1,90
240,106,35844,2,0,L|224:195,1,90
224,194,36172,1,0,0:0:0:0:
124,274,36336,5,0,0:0:0:0:
332,243,36500,2,0,L|370:266,2,45
218,74,36828,6,0,B|305:56|288:127|368:115,1,161.999995056153
236,176,37320,1,0,0:0:0:0:
140,142,37484,1,0,0:0:0:0:
316,112,37648,1,0,0:0:0:0:
333,207,37811,1,0,0:0:0:0:
264,276,37975,1,0,0:0:0:0:
412,153,38139,6,0,B|517:132|517:132|493:153|485:191,1,161.999995056153
264,276,38631,2,0,L|181:260,1,80.9999975280763
71,178,38959,1,0,0:0:0:0:
88,277,39122,1,0,0:0:0:0:
106,377,39286,1,0,0:0:0:0:
170,124,39451,6,0,B|147:86|105:77|105:77|131:33|123:-6,1,161.999995056153
268,128,39943,2,0,P|263:168|235:204,1,80.9999975280763
88,277,40271,1,0,0:0:0:0:
188,262,40434,1,0,0:0:0:0:
288,247,40598,1,0,0:0:0:0:
343,68,40762,6,0,P|291:47|279:137,1,161.999995056153
346,160,41254,1,0,0:0:0:0:
346,160,41582,5,0,0:0:0:0:
384,293,41746,1,0,0:0:0:0:
251,260,41910,1,0,0:0:0:0:
251,260,42074,6,0,P|215:264|165:293,1,80.9999975280763
102,362,42402,1,0,0:0:0:0:
61,126,42566,2,0,L|39:286,1,161.999995056153
147,185,43057,1,0,0:0:0:0:
273,217,43221,1,0,0:0:0:0:
273,217,43385,6,0,P|310:207|345:180,1,80.9999975280763
343,181,43713,1,0,0:0:0:0:
326,89,43877,1,0,0:0:0:0:
434,214,44041,1,0,0:0:0:0:
475,63,44205,1,0,0:0:0:0:
343,181,44369,1,0,0:0:0:0:
234,53,44533,1,0,0:0:0:0:
208,242,44697,6,0,B|205:216|201:189|201:189|223:150|223:150|217:117|216:85,1,161.999995056153
276,311,45189,2,0,P|244:339|202:348,1,80.9999975280763
85,193,45516,1,0,0:0:0:0:
208,242,45680,1,0,0:0:0:0:
276,135,45844,2,0,P|319:117|379:123,1,80.9999975280763
415,213,46172,5,0,0:0:0:0:
398,113,46335,1,0,0:0:0:0:
382,13,46500,1,0,0:0:0:0:
415,213,46664,1,0,0:0:0:0:
412,226,46745,1,0,0:0:0:0:
410,239,46828,5,0,0:0:0:0:
149,367,46992,1,0,0:0:0:0:
149,59,47156,1,0,0:0:0:0:
287,127,47320,6,0,B|206:119|236:187|143:183,1,161.999995056153
282,238,47812,5,0,0:0:0:0:
332,26,47976,1,0,0:0:0:0:
509,291,48139,5,0,0:0:0:0:
459,79,48303,2,0,P|421:86|378:113,1,80.9999975280763
348,320,48631,6,0,P|280:343|199:298,1,161.999995056153
231,82,49123,5,0,0:0:0:0:
282,238,49287,1,0,0:0:0:0:
337,27,49451,5,0,0:0:0:0:
187,274,49615,2,0,P|152:271|108:253,1,80.9999975280763
379,117,49943,6,0,B|346:201|416:192|381:274,1,161.999995056153
478,154,50435,5,0,0:0:0:0:
282,238,50598,1,0,0:0:0:0:
225,58,50762,5,0,0:0:0:0:
213,322,50926,2,0,P|245:341|288:346,1,80.9999975280763
158,162,51254,6,0,B|103:172|103:172|74:209|74:209|15:219,1,161.999995056153
233,231,51746,2,0,P|258:193|262:157,1,80.9999975280763
183,60,52074,5,0,0:0:0:0:
262,158,52238,1,0,0:0:0:0:
385,177,52402,1,0,0:0:0:0:
183,60,52566,1,0,0:0:0:0:
141,169,52730,5,0,0:0:0:0:
284,54,52894,2,0,P|319:71|349:103,1,80.9999975280763
276,237,53221,2,0,L|261:154,1,80.9999975280763
243,256,53549,1,0,0:0:0:0:
226,356,53713,1,0,0:0:0:0:
77,322,53877,6,0,L|155:298,1,80.9999975280763
295,257,54205,1,0,0:0:0:0:
123,188,54369,1,0,0:0:0:0:
123,188,54533,2,0,P|150:153|157:113,1,80.9999975280763
81,19,54861,1,0,0:0:0:0:
279,117,55025,1,0,0:0:0:0:
361,51,55189,1,0,0:0:0:0:
457,93,55353,5,0,0:0:0:0:
279,216,55516,2,0,P|241:206|205:178,1,80.9999975280763
71,338,55844,6,0,P|103:313|142:303,1,80.9999975280763
342,361,56172,1,0,0:0:0:0:
219,146,56336,5,0,0:0:0:0:
248,334,56500,1,0,0:0:0:0:
245,343,56581,1,0,0:0:0:0:
243,353,56664,5,0,0:0:0:0:
27,78,56828,1,0,0:0:0:0:
357,13,56992,1,0,0:0:0:0:
357,13,57320,5,0,0:0:0:0:
377,118,57484,2,0,L|371:151,1,27
391,173,57812,6,0,P|324:154|331:253,1,180
459,257,58303,2,0,P|492:215|492:171,1,90
486,163,58549,1,0,0:0:0:0:
475,149,58631,1,0,0:0:0:0:
323,288,58795,1,0,0:0:0:0:
265,102,58959,2,0,L|177:91,1,80.9999975280763
166,91,59287,5,0,0:0:0:0:
313,191,59451,1,0,0:0:0:0:
409,49,59615,1,0,0:0:0:0:
414,152,59779,1,0,0:0:0:0:
321,16,59943,1,0,0:0:0:0:
393,259,60107,2,0,P|439:256|485:223,1,90
313,191,60435,1,0,0:0:0:0:
313,191,60598,6,0,B|197:175|197:175|227:195|234:227,1,180
233,224,61090,1,0,0:0:0:0:
281,322,61254,5,0,0:0:0:0:
325,160,61418,1,0,0:0:0:0:
201,73,61582,2,0,P|161:67|120:36,1,90
351,251,61910,5,0,0:0:0:0:
307,63,62074,1,0,0:0:0:0:
171,198,62238,2,0,L|82:216,1,90
63,211,62484,1,0,0:0:0:0:
44,208,62566,1,0,0:0:0:0:
224,290,62730,2,0,P|258:258|269:207,1,90
155,109,63057,6,0,L|171:203,1,90
170,197,63385,1,0,0:0:0:0:
368,293,63549,2,0,L|383:204,1,90
387,182,63795,1,0,0:0:0:0:
392,160,63877,1,0,0:0:0:0:
268,117,64041,1,0,0:0:0:0:
170,197,64205,2,0,P|128:217|78:217,1,90
164,77,64533,5,0,0:0:0:0:
274,224,64697,2,0,P|261:268|251:333,1,90
478,179,65025,2,0,P|427:176|385:154,1,90
295,60,65353,5,0,0:0:0:0:
385,183,65516,1,0,0:0:0:0:
358,334,65680,2,0,P|325:308|298:258,1,90
217,60,66008,5,0,0:0:0:0:
126,183,66171,1,0,0:0:0:0:
153,334,66335,2,0,P|187:308|214:258,1,90
99,63,66664,5,0,0:0:0:0:
254,193,66828,1,0,0:0:0:0:
413,63,66992,2,0,L|506:82,1,90
390,204,67320,1,0,0:0:0:0:
285,71,67484,1,0,0:0:0:0:
316,274,67648,5,0,0:0:0:0:
313,285,67730,1,0,0:0:0:0:
311,296,67812,1,0,0:0:0:0:
255,0,67976,1,0,0:0:0:0:
255,0,68303,6,0,B|160:19|221:78|122:110,1,180
257,203,68795,2,0,P|285:166|287:122,1,90
281,101,69041,1,0,0:0:0:0:
269,82,69123,1,0,0:0:0:0:
366,167,69286,1,0,0:0:0:0:
492,135,69451,2,0,P|464:98|462:54,1,90
468,34,69697,1,0,0:0:0:0:
480,15,69779,5,0,0:0:0:0:
439,247,69943,2,0,P|401:273|348:280,1,90
201,217,70271,2,0,P|218:258|225:322,1,90
366,167,70598,2,0,P|373:122|390:81,1,90
134,33,70926,1,0,0:0:0:0:
84,144,71090,6,0,B|185:126|161:203|256:181,1,180
295,19,71582,2,0,P|261:48|231:103,1,90
259,207,71910,1,0,0:0:0:0:
368,284,72073,1,0,0:0:0:0:
512,28,72238,5,0,0:0:0:0:
507,43,72320,1,0,0:0:0:0:
503,55,72402,2,0,B|414:51|441:126|343:125,1,180
127,62,72894,2,0,P|144:106|154:161,1,90
371,231,73221,2,0,P|354:272|345:316,1,90
38,252,73549,6,0,B|98:236|98:236|143:261|143:261|213:244,1,180
280,59,74041,2,0,P|227:57|152:161,1,180
255,160,74533,1,0,0:0:0:0:
378,18,74697,1,0,0:0:0:0:
444,186,74861,5,0,0:0:0:0:
444,186,74943,1,0,0:0:0:0:
444,186,75025,2,0,P|406:165|353:153,1,90
218,300,75353,1,0,0:0:0:0:
338,356,75516,6,0,L|358:265,1,90
112,230,75844,2,0,L|92:142,1,90
248,17,76172,6,0,P|311:22|383:122,1,180
245,228,76664,2,0,P|237:184|253:142,1,90
267,124,76910,1,0,0:0:0:0:
285,111,76992,1,0,0:0:0:0:
351,254,77156,5,0,0:0:0:0:
242,265,77319,1,0,0:0:0:0:
181,355,77483,1,0,0:0:0:0:
181,355,77566,1,0,0:0:0:0:
181,355,77648,5,0,0:0:0:0:
436,174,77812,1,0,0:0:0:0:
163,40,77976,1,0,0:0:0:0:
361,268,78139,6,0,P|346:304|328:371,1,90
212,175,78467,2,0,P|227:211|245:281,1,94.499997116089
241,264,78795,6,0,P|248:216|352:137,1,180
447,281,79287,2,0,P|403:284|355:264,1,90
275,41,79615,1,0,0:0:0:0:
257,152,79778,1,0,0:0:0:0:
240,263,79942,1,0,0:0:0:0:
64,221,80107,6,0,L|151:198,1,90
371,173,80435,1,0,0:0:0:0:
273,56,80598,2,0,B|184:44|207:122|106:114,1,180
257,152,81090,1,0,0:0:0:0:
364,22,81254,1,0,0:0:0:0:
426,171,81418,6,0,L|520:184,1,90
273,56,81746,1,0,0:0:0:0:
270,257,81910,1,0,0:0:0:0:
411,195,82074,6,0,L|505:208,1,90
258,80,82402,1,0,0:0:0:0:
255,281,82566,1,0,0:0:0:0:
372,90,82730,6,0,P|369:44|339:5,1,90
161,167,83057,1,0,0:0:0:0:
356,237,83221,1,0,0:0:0:0:
163,62,83385,6,0,P|101:82|54:186,1,180
53,180,83795,1,0,0:0:0:0:
53,180,83877,1,0,0:0:0:0:
161,167,84041,1,0,0:0:0:0:
234,236,84205,5,0,0:0:0:0:
393,99,84369,1,0,0:0:0:0:
445,309,84533,1,0,0:0:0:0:
243,76,84697,5,0,0:0:0:0:
314,346,84861,1,0,0:0:0:0:
506,146,85025,1,0,0:0:0:0:
234,236,85189,5,0,0:0:0:0:
336,10,85353,2,0,L|356:106,1,90
92,156,85680,5,0,0:0:0:0:
99,275,85844,2,0,L|117:186,1,90
