osu file format v14

[General]
AudioFilename: audio.mp3
AudioLeadIn: 0
PreviewTime: 57320
Countdown: 0
SampleSet: Normal
StackLeniency: 0.7
Mode: 1
LetterboxInBreaks: 0
WidescreenStoryboard: 0

[Editor]
DistanceSpacing: 0.3
BeatDivisor: 2
GridSize: 16
TimelineZoom: 1.1

[Metadata]
Title:Kimi no Matsu Sekai (TV Size)
TitleUnicode:君の待つ世界 (TVサイズ)
Artist:LAGOON
ArtistUnicode:LAGOON
Creator:-Sh1n1-
Version:Volta's Futsuu
Source:まじっく快斗1412
Tags:opening op Kuroba Kaito shini Flying_Pan Volta Akiyuki Tateyama MIZUE Sony Music The World Where You Are Waiting J-rock
BeatmapID:1206469
BeatmapSetID:569057

[Difficulty]
HPDrainRate:6
CircleSize:5
OverallDifficulty:4
ApproachRate:5
SliderMultiplier:1.4
SliderTickRate:1

[Events]
//Background and Video events
0,0,"LAGOON - Kimi no Matsu Sekai (TV Size).jpg",0,0
//Break Periods
//Storyboard Layer 0 (Background)
//Storyboard Layer 1 (Fail)
//Storyboard Layer 2 (Pass)
//Storyboard Layer 3 (Foreground)
//Storyboard Sound Samples

[TimingPoints]
100,338.983050847458,4,1,0,70,1,0
5354,327.868852459016,4,1,0,90,1,8
5517,327.868852459016,4,1,0,90,1,0
57812,-100,4,1,0,90,0,1
78795,-100,4,1,0,90,0,0

[HitObjects]
240,176,100,5,8,0:0:0:0:
240,128,608,1,8,0:0:0:0:
240,160,1286,1,8,0:0:0:0:
224,144,1964,1,8,0:0:0:0:
240,160,2811,1,8,0:0:0:0:
224,144,3320,1,8,0:0:0:0:
240,176,3998,1,12,0:0:0:0:
256,176,5354,1,4,0:0:0:0:
240,112,5844,1,8,0:0:0:0:
192,160,6172,1,0,0:0:0:0:
208,192,6336,1,0,0:0:0:0:
192,160,6664,1,0,0:0:0:0:
208,112,7156,1,8,0:0:0:0:
224,144,7484,1,0,0:0:0:0:
192,192,7648,1,0,0:0:0:0:
224,144,7976,1,0,0:0:0:0:
208,112,8467,1,8,0:0:0:0:
224,144,8795,1,0,0:0:0:0:
192,192,8959,1,0,0:0:0:0:
240,128,9287,1,12,0:0:0:0:
64,112,9615,1,12,0:0:0:0:
208,112,9943,1,12,0:0:0:0:
240,128,10598,1,4,0:0:0:0:
176,256,11090,1,8,0:0:0:0:
288,112,11418,1,0,0:0:0:0:
192,192,11582,1,0,0:0:0:0:
288,112,11910,1,0,0:0:0:0:
160,256,12402,1,8,0:0:0:0:
96,128,12730,1,0,0:0:0:0:
192,192,12894,1,0,0:0:0:0:
128,192,13221,1,12,0:0:0:0:
144,160,13549,1,0,0:0:0:0:
240,176,13877,1,12,0:0:0:0:
240,176,14533,1,12,0:0:0:0:
192,176,14861,1,0,0:0:0:0:
240,128,15189,1,12,0:0:0:0:
64,176,16008,1,0,0:0:0:0:
160,176,16664,1,0,0:0:0:0:
256,176,17320,1,0,0:0:0:0:
160,176,17812,1,8,0:0:0:0:
224,208,18139,1,0,0:0:0:0:
224,224,18303,1,8,0:0:0:0:
256,176,18631,5,0,0:0:0:0:
160,160,19287,1,0,0:0:0:0:
256,176,19943,1,0,0:0:0:0:
160,160,20435,1,8,0:0:0:0:
256,160,20762,1,8,0:0:0:0:
272,128,21090,5,4,0:0:0:0:
240,112,21582,1,8,0:0:0:0:
272,128,21910,1,0,0:0:0:0:
192,192,22074,1,0,0:0:0:0:
272,128,22402,1,0,0:0:0:0:
208,128,22894,1,8,0:0:0:0:
272,128,23221,1,0,0:0:0:0:
192,192,23385,1,0,0:0:0:0:
272,128,23713,1,0,0:0:0:0:
208,128,24205,1,8,0:0:0:0:
272,128,24533,1,0,0:0:0:0:
192,192,24697,1,0,0:0:0:0:
272,128,25025,1,12,0:0:0:0:
240,160,25353,1,12,0:0:0:0:
208,128,25680,1,12,0:0:0:0:
224,96,26500,1,0,0:0:0:0:
192,160,27156,1,0,0:0:0:0:
160,144,27812,1,0,0:0:0:0:
256,160,28303,1,8,0:0:0:0:
128,160,28631,1,0,0:0:0:0:
256,128,28795,1,8,0:0:0:0:
160,144,29123,1,0,0:0:0:0:
256,144,29779,1,0,0:0:0:0:
288,144,30435,1,0,0:0:0:0:
224,160,30926,1,8,0:0:0:0:
288,144,31254,1,8,0:0:0:0:
288,112,31582,1,4,0:0:0:0:
208,128,32074,1,8,0:0:0:0:
288,160,32402,1,0,0:0:0:0:
192,192,32566,1,0,0:0:0:0:
288,160,32894,1,0,0:0:0:0:
208,128,33385,1,8,0:0:0:0:
288,160,33713,1,0,0:0:0:0:
176,192,33877,1,0,0:0:0:0:
288,160,34205,1,0,0:0:0:0:
208,128,34697,1,8,0:0:0:0:
288,160,35025,1,0,0:0:0:0:
176,192,35189,1,0,0:0:0:0:
288,160,35516,1,12,0:0:0:0:
192,128,35844,1,12,0:0:0:0:
224,128,36172,1,12,0:0:0:0:
320,176,36828,1,0,0:0:0:0:
224,96,37320,1,8,0:0:0:0:
174,143,37648,1,0,0:0:0:0:
304,192,38139,1,8,0:0:0:0:
208,112,38631,1,0,0:0:0:0:
178,143,38959,1,8,0:0:0:0:
288,160,39451,1,8,0:0:0:0:
112,144,39943,1,0,0:0:0:0:
179,140,40271,1,8,0:0:0:0:
256,160,40762,1,0,0:0:0:0:
181,135,41582,1,0,0:0:0:0:
256,176,42074,1,0,0:0:0:0:
128,144,42566,1,8,0:0:0:0:
181,136,42894,1,0,0:0:0:0:
256,176,43385,1,8,0:0:0:0:
128,144,43877,1,0,0:0:0:0:
181,135,44205,1,8,0:0:0:0:
256,176,44697,1,8,0:0:0:0:
208,176,45189,1,8,0:0:0:0:
144,176,45844,1,8,0:0:0:0:
192,112,46172,1,0,0:0:0:0:
224,96,46336,1,0,0:0:0:0:
160,176,46500,1,8,0:0:0:0:
288,160,46828,5,8,0:0:0:0:
288,160,47320,1,0,0:0:0:0:
112,144,47812,1,8,0:0:0:0:
224,96,48139,1,0,0:0:0:0:
176,192,48631,1,0,0:0:0:0:
144,128,49123,1,8,0:0:0:0:
224,96,49451,1,0,0:0:0:0:
192,192,49943,1,8,0:0:0:0:
144,128,50435,1,0,0:0:0:0:
112,80,50762,1,8,0:0:0:0:
256,144,51254,1,8,0:0:0:0:
288,144,52074,1,0,0:0:0:0:
176,176,52402,1,0,0:0:0:0:
176,128,52566,1,0,0:0:0:0:
208,192,52730,1,8,0:0:0:0:
240,128,53057,1,0,0:0:0:0:
128,160,53385,1,8,0:0:0:0:
208,192,54041,1,8,0:0:0:0:
192,192,54369,1,8,0:0:0:0:
128,224,54533,1,8,0:0:0:0:
208,192,54697,1,0,0:0:0:0:
208,192,55025,1,0,0:0:0:0:
288,192,55353,5,8,0:0:0:0:
80,160,55680,1,0,0:0:0:0:
304,192,55844,1,8,0:0:0:0:
128,144,56172,1,0,0:0:0:0:
192,192,56336,1,8,0:0:0:0:
96,144,56664,1,8,0:0:0:0:
48,208,56992,1,8,0:0:0:0:
304,192,57812,1,12,0:0:0:0:
192,128,58303,1,8,0:0:0:0:
208,128,58631,1,0,0:0:0:0:
208,128,58795,1,0,0:0:0:0:
192,144,58959,1,8,0:0:0:0:
192,144,59287,1,0,0:0:0:0:
208,144,59615,1,8,0:0:0:0:
208,144,59943,1,8,0:0:0:0:
208,144,60107,1,8,0:0:0:0:
192,144,60271,1,0,0:0:0:0:
192,144,60598,1,12,0:0:0:0:
192,144,61090,1,12,0:0:0:0:
240,160,61910,1,0,0:0:0:0:
240,160,62238,1,8,0:0:0:0:
224,144,62566,1,0,0:0:0:0:
240,160,62730,1,0,0:0:0:0:
272,144,63057,1,8,0:0:0:0:
176,128,63549,1,8,0:0:0:0:
176,128,63877,1,0,0:0:0:0:
176,128,64041,1,0,0:0:0:0:
224,112,64205,1,8,0:0:0:0:
272,144,64533,1,0,0:0:0:0:
224,112,64861,1,8,0:0:0:0:
272,144,65189,1,8,0:0:0:0:
224,128,65353,1,0,0:0:0:0:
272,144,65680,1,12,0:0:0:0:
240,128,66008,1,0,0:0:0:0:
272,144,66336,1,12,0:0:0:0:
256,128,66664,1,8,0:0:0:0:
272,144,66992,1,4,0:0:0:0:
144,160,67812,1,0,0:0:0:0:
144,176,67976,1,0,0:0:0:0:
272,112,68303,1,12,0:0:0:0:
288,144,68795,1,8,0:0:0:0:
288,144,69123,1,0,0:0:0:0:
288,160,69287,1,0,0:0:0:0:
272,112,69451,1,8,0:0:0:0:
272,112,69779,1,0,0:0:0:0:
192,112,70107,1,8,0:0:0:0:
192,112,70435,1,8,0:0:0:0:
192,112,70598,1,8,0:0:0:0:
192,128,70762,1,0,0:0:0:0:
272,112,71090,1,12,0:0:0:0:
272,112,71582,1,12,0:0:0:0:
272,112,72402,1,8,0:0:0:0:
192,128,72730,1,0,0:0:0:0:
272,128,72894,1,0,0:0:0:0:
192,128,73221,1,0,0:0:0:0:
272,128,73549,1,12,0:0:0:0:
48,160,74369,1,8,0:0:0:0:
208,128,74697,1,0,0:0:0:0:
208,192,75025,1,8,0:0:0:0:
192,128,75353,1,0,0:0:0:0:
208,192,75516,1,0,0:0:0:0:
160,160,75844,1,0,0:0:0:0:
80,128,76172,1,12,0:0:0:0:
192,128,76992,1,0,0:0:0:0:
192,128,77156,1,0,0:0:0:0:
192,128,77320,1,0,0:0:0:0:
192,128,77648,1,8,0:0:0:0:
160,176,77976,1,8,0:0:0:0:
192,128,78139,1,8,0:0:0:0:
128,128,78467,1,8,0:0:0:0:
192,128,78795,1,4,0:0:0:0:
224,160,79287,1,8,0:0:0:0:
192,128,79615,1,0,0:0:0:0:
0,160,79779,1,0,0:0:0:0:
192,128,80107,1,0,0:0:0:0:
224,128,80598,1,8,0:0:0:0:
192,128,80926,1,0,0:0:0:0:
48,144,81090,1,0,0:0:0:0:
208,112,81418,1,12,0:0:0:0:
224,128,81746,1,0,0:0:0:0:
192,96,82074,1,12,0:0:0:0:
192,96,82730,1,12,0:0:0:0:
208,128,83057,1,0,0:0:0:0:
208,144,83385,1,12,0:0:0:0:
224,96,84205,5,4,0:0:0:0:
192,144,84697,1,4,0:0:0:0:
192,144,85189,1,4,0:0:0:0:
192,128,85353,1,4,0:0:0:0:
208,144,85680,5,4,0:0:0:0:
208,144,85844,1,4,0:0:0:0:
