osu file format v14

[General]
AudioFilename: audio.mp3
AudioLeadIn: 0
PreviewTime: 57320
Countdown: 0
SampleSet: Normal
StackLeniency: 0.7
Mode: 1
LetterboxInBreaks: 0
WidescreenStoryboard: 0

[Editor]
Bookmarks: 36828,51254
DistanceSpacing: 0.4
BeatDivisor: 4
GridSize: 16
TimelineZoom: 1.5

[Metadata]
Title:Kimi no Matsu Sekai (TV Size)
TitleUnicode:君の待つ世界 (TVサイズ)
Artist:LAGOON
ArtistUnicode:LAGOON
Creator:-Sh1n1-
Version:Muzukashii
Source:まじっく快斗1412
Tags:opening op Kuroba Kaito shini Flying_Pan Volta Akiyuki Tateyama MIZUE Sony Music The World Where You Are Waiting J-rock
BeatmapID:1206467
BeatmapSetID:569057

[Difficulty]
HPDrainRate:5
CircleSize:5
OverallDifficulty:5
ApproachRate:5
SliderMultiplier:1.4
SliderTickRate:1

[Events]
//Background and Video events
0,0,"LAGOON - Kimi no Matsu Sekai (TV Size).jpg",0,0
//Break Periods
//Storyboard Layer 0 (Background)
//Storyboard Layer 1 (Fail)
//Storyboard Layer 2 (Pass)
//Storyboard Layer 3 (Foreground)
//Storyboard Sound Samples

[TimingPoints]
100,338.983050847458,4,1,0,70,1,0
5354,327.868852459016,4,1,0,90,1,8
5517,327.868852459016,4,1,0,90,1,0
57812,-100,4,1,0,90,0,1
78795,-100,4,1,0,90,0,0

[HitObjects]
256,192,100,5,8,0:0:0:0:
256,192,438,1,8,0:0:0:0:
256,192,608,1,8,0:0:0:0:
256,192,947,1,0,0:0:0:0:
256,192,1286,1,8,0:0:0:0:
256,192,1625,1,0,0:0:0:0:
256,192,1794,1,8,0:0:0:0:
256,192,1964,1,8,0:0:0:0:
256,192,2303,1,0,0:0:0:0:
256,192,2472,1,8,0:0:0:0:
256,192,2811,1,8,0:0:0:0:
256,192,3150,1,8,0:0:0:0:
256,192,3320,1,8,0:0:0:0:
256,192,3659,1,0,0:0:0:0:
256,192,3998,1,12,0:0:0:0:
256,192,5354,1,4,0:0:0:0:
256,192,5844,1,8,0:0:0:0:
256,192,6172,1,8,0:0:0:0:
256,192,6336,1,0,0:0:0:0:
256,192,6500,1,8,0:0:0:0:
256,192,6664,1,0,0:0:0:0:
256,192,6992,1,0,0:0:0:0:
256,192,7156,1,8,0:0:0:0:
256,192,7484,1,0,0:0:0:0:
256,192,7648,1,0,0:0:0:0:
256,192,7812,1,8,0:0:0:0:
256,192,7976,1,0,0:0:0:0:
256,192,8303,1,0,0:0:0:0:
256,192,8467,1,8,0:0:0:0:
256,192,8795,1,0,0:0:0:0:
256,192,8959,1,8,0:0:0:0:
256,192,9123,1,8,0:0:0:0:
256,192,9287,1,0,0:0:0:0:
256,192,9615,1,0,0:0:0:0:
256,192,9943,1,0,0:0:0:0:
256,192,10271,1,8,0:0:0:0:
256,192,10435,1,8,0:0:0:0:
256,192,10598,1,4,0:0:0:0:
256,192,11090,1,8,0:0:0:0:
256,192,11418,1,8,0:0:0:0:
256,192,11582,1,0,0:0:0:0:
256,192,11746,1,8,0:0:0:0:
256,192,11910,1,0,0:0:0:0:
256,192,12238,1,0,0:0:0:0:
256,192,12402,1,8,0:0:0:0:
256,192,12730,1,0,0:0:0:0:
256,192,12894,1,0,0:0:0:0:
256,192,13057,1,8,0:0:0:0:
256,192,13221,1,4,0:0:0:0:
256,192,13549,1,0,0:0:0:0:
256,192,13713,1,0,0:0:0:0:
256,192,13877,1,12,0:0:0:0:
256,192,14205,1,0,0:0:0:0:
256,192,14369,1,8,0:0:0:0:
256,192,14533,1,4,0:0:0:0:
256,192,14861,1,0,0:0:0:0:
256,192,15025,1,0,0:0:0:0:
256,192,15189,1,12,0:0:0:0:
256,192,15516,1,0,0:0:0:0:
256,192,15680,1,8,0:0:0:0:
256,192,15844,1,8,0:0:0:0:
256,192,15926,1,8,0:0:0:0:
256,192,16008,1,8,0:0:0:0:
256,192,16336,1,8,0:0:0:0:
256,192,16664,1,0,0:0:0:0:
256,192,16828,1,0,0:0:0:0:
256,192,16992,1,8,0:0:0:0:
256,192,17320,1,0,0:0:0:0:
256,192,17484,1,0,0:0:0:0:
256,192,17812,1,8,0:0:0:0:
256,192,18139,1,0,0:0:0:0:
256,192,18303,1,8,0:0:0:0:
256,192,18631,1,0,0:0:0:0:
256,192,18959,1,8,0:0:0:0:
256,192,19287,1,0,0:0:0:0:
256,192,19451,1,0,0:0:0:0:
256,192,19615,1,8,0:0:0:0:
256,192,19943,1,0,0:0:0:0:
256,192,20107,1,0,0:0:0:0:
256,192,20435,1,8,0:0:0:0:
256,192,20762,1,0,0:0:0:0:
256,192,20926,1,0,0:0:0:0:
256,192,21090,1,4,0:0:0:0:
256,192,21582,1,8,0:0:0:0:
256,192,21910,1,8,0:0:0:0:
256,192,22074,1,0,0:0:0:0:
256,192,22238,1,8,0:0:0:0:
256,192,22402,1,0,0:0:0:0:
256,192,22730,1,0,0:0:0:0:
256,192,22894,1,8,0:0:0:0:
256,192,23221,1,0,0:0:0:0:
256,192,23385,1,0,0:0:0:0:
256,192,23549,1,8,0:0:0:0:
256,192,23713,1,0,0:0:0:0:
256,192,24041,1,0,0:0:0:0:
256,192,24205,1,8,0:0:0:0:
256,192,24533,1,0,0:0:0:0:
256,192,24697,1,8,0:0:0:0:
256,192,24861,1,8,0:0:0:0:
256,192,25025,1,0,0:0:0:0:
256,192,25353,1,0,0:0:0:0:
256,192,25680,1,0,0:0:0:0:
256,192,26008,1,0,0:0:0:0:
256,192,26172,1,8,0:0:0:0:
256,192,26336,1,8,0:0:0:0:
256,192,26418,1,8,0:0:0:0:
256,192,26500,1,8,0:0:0:0:
256,192,26828,1,8,0:0:0:0:
256,192,27156,1,0,0:0:0:0:
256,192,27320,1,0,0:0:0:0:
256,192,27484,1,8,0:0:0:0:
256,192,27812,1,0,0:0:0:0:
256,192,27976,1,0,0:0:0:0:
256,192,28303,1,8,0:0:0:0:
256,192,28631,1,0,0:0:0:0:
256,192,28795,1,8,0:0:0:0:
256,192,28959,1,8,0:0:0:0:
256,192,29123,1,0,0:0:0:0:
256,192,29451,1,8,0:0:0:0:
256,192,29779,1,0,0:0:0:0:
256,192,29943,1,0,0:0:0:0:
256,192,30107,1,8,0:0:0:0:
256,192,30435,1,0,0:0:0:0:
256,192,30598,1,0,0:0:0:0:
256,192,30926,1,8,0:0:0:0:
256,192,31254,1,8,0:0:0:0:
256,192,31418,1,0,0:0:0:0:
256,192,31582,1,4,0:0:0:0:
256,192,32074,1,8,0:0:0:0:
256,192,32402,1,8,0:0:0:0:
256,192,32566,1,0,0:0:0:0:
256,192,32730,1,8,0:0:0:0:
256,192,32894,1,0,0:0:0:0:
256,192,33221,1,0,0:0:0:0:
256,192,33385,1,8,0:0:0:0:
256,192,33713,1,0,0:0:0:0:
256,192,33877,1,0,0:0:0:0:
256,192,34041,1,8,0:0:0:0:
256,192,34205,1,0,0:0:0:0:
256,192,34533,1,0,0:0:0:0:
256,192,34697,1,8,0:0:0:0:
256,192,35025,1,0,0:0:0:0:
256,192,35189,1,8,0:0:0:0:
256,192,35353,1,8,0:0:0:0:
256,192,35516,1,0,0:0:0:0:
256,192,35844,1,0,0:0:0:0:
256,192,36172,1,0,0:0:0:0:
256,192,36336,1,8,0:0:0:0:
256,192,36500,1,8,0:0:0:0:
256,192,36582,1,8,0:0:0:0:
256,192,36664,1,8,0:0:0:0:
256,192,36828,1,0,0:0:0:0:
256,192,37320,1,8,0:0:0:0:
256,192,37648,1,8,0:0:0:0:
256,192,37812,1,0,0:0:0:0:
256,192,37976,1,0,0:0:0:0:
256,192,38139,1,8,0:0:0:0:
256,192,38467,1,0,0:0:0:0:
256,192,38631,1,8,0:0:0:0:
256,192,38959,1,8,0:0:0:0:
256,192,39123,1,8,0:0:0:0:
256,192,39287,1,0,0:0:0:0:
256,192,39451,1,8,0:0:0:0:
256,192,39779,1,0,0:0:0:0:
256,192,39943,1,8,0:0:0:0:
256,192,40271,1,0,0:0:0:0:
256,192,40435,1,8,0:0:0:0:
256,192,40598,1,0,0:0:0:0:
256,192,40762,1,8,0:0:0:0:
256,192,41090,1,0,0:0:0:0:
256,192,41254,1,8,0:0:0:0:
256,192,41582,1,8,0:0:0:0:
256,192,41746,1,8,0:0:0:0:
256,192,41910,1,0,0:0:0:0:
256,192,42074,1,4,0:0:0:0:
256,192,42402,1,0,0:0:0:0:
256,192,42566,1,8,0:0:0:0:
256,192,42894,1,8,0:0:0:0:
256,192,43057,1,0,0:0:0:0:
256,192,43221,1,0,0:0:0:0:
256,192,43385,1,8,0:0:0:0:
256,192,43713,1,0,0:0:0:0:
256,192,43877,1,8,0:0:0:0:
256,192,44041,1,8,0:0:0:0:
256,192,44205,1,0,0:0:0:0:
256,192,44533,1,8,0:0:0:0:
256,192,44697,1,4,0:0:0:0:
256,192,45025,1,0,0:0:0:0:
256,192,45189,1,4,0:0:0:0:
256,192,45516,1,0,0:0:0:0:
256,192,45680,1,8,0:0:0:0:
256,192,45844,1,4,0:0:0:0:
256,192,46172,1,0,0:0:0:0:
256,192,46336,1,0,0:0:0:0:
256,192,46500,1,4,0:0:0:0:
256,192,46828,1,0,0:0:0:0:
256,192,46992,1,8,0:0:0:0:
256,192,47156,1,8,0:0:0:0:
256,192,47320,1,4,0:0:0:0:
256,192,47812,1,8,0:0:0:0:
256,192,48139,1,8,0:0:0:0:
256,192,48467,1,0,0:0:0:0:
256,192,48631,1,12,0:0:0:0:
256,192,48959,1,0,0:0:0:0:
256,192,49123,1,8,0:0:0:0:
256,192,49451,1,0,0:0:0:0:
256,192,49779,1,0,0:0:0:0:
256,192,49943,1,12,0:0:0:0:
256,192,50271,1,0,0:0:0:0:
256,192,50435,1,0,0:0:0:0:
256,192,50762,1,8,0:0:0:0:
256,192,51090,1,0,0:0:0:0:
256,192,51254,1,12,0:0:0:0:
256,192,51582,1,0,0:0:0:0:
256,192,51746,1,8,0:0:0:0:
256,192,52074,1,0,0:0:0:0:
256,192,52402,1,8,0:0:0:0:
256,192,52566,1,0,0:0:0:0:
256,192,52648,1,0,0:0:0:0:
256,192,52730,1,0,0:0:0:0:
256,192,52894,1,0,0:0:0:0:
256,192,53057,1,8,0:0:0:0:
256,192,53221,1,0,0:0:0:0:
256,192,53549,1,0,0:0:0:0:
256,192,53713,1,8,0:0:0:0:
256,192,53877,1,8,0:0:0:0:
256,192,54041,1,0,0:0:0:0:
256,192,54369,1,8,0:0:0:0:
256,192,54533,1,0,0:0:0:0:
256,192,54861,1,0,0:0:0:0:
256,192,55025,1,8,0:0:0:0:
256,192,55353,1,4,0:0:0:0:
256,192,55680,1,0,0:0:0:0:
256,192,55844,1,4,0:0:0:0:
256,192,56172,1,0,0:0:0:0:
256,192,56336,1,4,0:0:0:0:
256,192,56664,1,12,0:0:0:0:
256,192,56828,1,12,0:0:0:0:
256,192,56992,1,12,0:0:0:0:
256,192,57812,1,4,0:0:0:0:
256,192,58303,1,8,0:0:0:0:
256,192,58467,1,0,0:0:0:0:
256,192,58549,1,0,0:0:0:0:
256,192,58631,1,0,0:0:0:0:
256,192,58795,1,0,0:0:0:0:
256,192,58959,1,8,0:0:0:0:
256,192,59287,1,0,0:0:0:0:
256,192,59451,1,0,0:0:0:0:
256,192,59615,1,8,0:0:0:0:
256,192,59779,1,8,0:0:0:0:
256,192,59943,1,0,0:0:0:0:
256,192,60107,1,0,0:0:0:0:
256,192,60271,1,8,0:0:0:0:
256,192,60598,1,0,0:0:0:0:
256,192,60926,1,8,0:0:0:0:
256,192,61254,1,0,0:0:0:0:
256,192,61418,1,0,0:0:0:0:
256,192,61582,1,8,0:0:0:0:
256,192,61910,1,8,0:0:0:0:
256,192,62074,1,0,0:0:0:0:
256,192,62238,1,8,0:0:0:0:
256,192,62566,1,8,0:0:0:0:
256,192,62730,1,8,0:0:0:0:
256,192,63057,1,0,0:0:0:0:
256,192,63385,1,0,0:0:0:0:
256,192,63549,1,8,0:0:0:0:
256,192,63713,1,0,0:0:0:0:
256,192,63877,1,8,0:0:0:0:
256,192,64205,1,8,0:0:0:0:
256,192,64533,1,0,0:0:0:0:
256,192,64697,1,8,0:0:0:0:
256,192,64861,1,8,0:0:0:0:
256,192,65025,1,0,0:0:0:0:
256,192,65353,1,8,0:0:0:0:
256,192,65516,1,8,0:0:0:0:
256,192,65680,1,4,0:0:0:0:
256,192,66008,1,0,0:0:0:0:
256,192,66172,1,0,0:0:0:0:
256,192,66336,1,12,0:0:0:0:
256,192,66664,1,8,0:0:0:0:
256,192,66828,1,8,0:0:0:0:
256,192,66992,1,4,0:0:0:0:
256,192,67320,1,0,0:0:0:0:
256,192,67484,1,0,0:0:0:0:
256,192,67812,1,8,0:0:0:0:
256,192,67976,1,8,0:0:0:0:
256,192,68303,1,4,0:0:0:0:
256,192,68795,1,8,0:0:0:0:
256,192,68959,1,0,0:0:0:0:
256,192,69041,1,0,0:0:0:0:
256,192,69123,1,0,0:0:0:0:
256,192,69287,1,0,0:0:0:0:
256,192,69451,1,8,0:0:0:0:
256,192,69779,1,0,0:0:0:0:
256,192,69943,1,0,0:0:0:0:
256,192,70107,1,8,0:0:0:0:
256,192,70271,1,8,0:0:0:0:
256,192,70599,1,8,0:0:0:0:
256,192,70763,1,0,0:0:0:0:
256,192,70926,1,8,0:0:0:0:
256,192,71090,1,0,0:0:0:0:
256,192,71418,1,8,0:0:0:0:
256,192,71746,1,8,0:0:0:0:
256,192,71910,1,0,0:0:0:0:
256,192,72074,1,0,0:0:0:0:
256,192,72238,1,8,0:0:0:0:
256,192,72320,1,8,0:0:0:0:
256,192,72402,1,8,0:0:0:0:
256,192,72730,1,8,0:0:0:0:
256,192,72894,1,0,0:0:0:0:
256,192,73221,1,0,0:0:0:0:
256,192,73549,1,12,0:0:0:0:
256,192,73877,1,0,0:0:0:0:
256,192,74041,1,8,0:0:0:0:
256,192,74205,1,0,0:0:0:0:
256,192,74369,1,8,0:0:0:0:
256,192,74533,1,0,0:0:0:0:
256,192,74697,1,8,0:0:0:0:
256,192,74861,1,8,0:0:0:0:
256,192,75025,1,0,0:0:0:0:
256,192,75353,1,8,0:0:0:0:
256,192,75516,1,0,0:0:0:0:
256,192,75844,1,0,0:0:0:0:
256,192,76172,1,12,0:0:0:0:
256,192,76500,1,0,0:0:0:0:
256,192,76664,1,8,0:0:0:0:
256,192,76828,1,0,0:0:0:0:
256,192,76910,1,0,0:0:0:0:
256,192,76992,1,0,0:0:0:0:
256,192,77156,1,0,0:0:0:0:
256,192,77320,1,8,0:0:0:0:
256,192,77484,1,8,0:0:0:0:
256,192,77566,1,8,0:0:0:0:
256,192,77648,1,8,0:0:0:0:
256,192,77812,1,0,0:0:0:0:
256,192,77976,1,8,0:0:0:0:
256,192,78139,1,0,0:0:0:0:
256,192,78467,1,0,0:0:0:0:
256,192,78795,1,4,0:0:0:0:
256,192,79287,1,8,0:0:0:0:
256,192,79615,1,8,0:0:0:0:
256,192,79779,1,0,0:0:0:0:
256,192,79943,1,8,0:0:0:0:
256,192,80107,1,0,0:0:0:0:
256,192,80435,1,0,0:0:0:0:
256,192,80599,1,8,0:0:0:0:
256,192,80926,1,0,0:0:0:0:
256,192,81090,1,0,0:0:0:0:
256,192,81254,1,8,0:0:0:0:
256,192,81418,1,4,0:0:0:0:
256,192,81746,1,0,0:0:0:0:
256,192,81910,1,0,0:0:0:0:
256,192,82074,1,12,0:0:0:0:
256,192,82402,1,0,0:0:0:0:
256,192,82566,1,8,0:0:0:0:
256,192,82730,1,4,0:0:0:0:
256,192,83057,1,0,0:0:0:0:
256,192,83221,1,0,0:0:0:0:
256,192,83385,1,12,0:0:0:0:
256,192,83713,1,0,0:0:0:0:
256,192,83877,1,0,0:0:0:0:
256,192,84205,1,8,0:0:0:0:
256,192,84369,1,0,0:0:0:0:
256,192,84533,1,0,0:0:0:0:
256,192,84697,1,8,0:0:0:0:
256,192,84779,1,8,0:0:0:0:
256,192,84861,1,8,0:0:0:0:
256,192,85025,1,8,0:0:0:0:
256,192,85189,1,4,0:0:0:0:
256,192,85353,1,4,0:0:0:0:
256,192,85680,1,0,0:0:0:0:
256,192,85844,1,12,0:0:0:0:
