osu file format v14

[General]
AudioFilename: audio.mp3
AudioLeadIn: 0
PreviewTime: 208400
Countdown: 1
SampleSet: Soft
StackLeniency: 0.7
Mode: 0
LetterboxInBreaks: 0
WidescreenStoryboard: 0

[Editor]
Bookmarks: 1807,4014,21698,23119,35782,45379,50179,57379,59779,69379,77779,78979,88582,95779,98179,107782,113600,114800,116000,130400,135200,142400,144800,154400,158000,159200,188000,206000,207200,208400,225200,256400
DistanceSpacing: 3.4
BeatDivisor: 8
GridSize: 4
TimelineZoom: 2.5

[Metadata]
Title:Renge Chance!
TitleUnicode:蓮華チャンス!
Artist:LADYBABY
ArtistUnicode:LADYBABY
Creator:Kofja
Version:Ramen (AR 10)
Source:
Tags:Ladybaby Lady Baby Renge Chance Ramen Japan Metal Kofja RitzierJunk
BeatmapID:933906
BeatmapSetID:433225

[Difficulty]
HPDrainRate:6
CircleSize:4.2
OverallDifficulty:7
ApproachRate:10
SliderMultiplier:1.6
SliderTickRate:2

[Events]
//Background and Video events
0,0,"abe807e46ad763bd252c20ee998341c1.jpg",0,0
//Break Periods
2,135400,141950
2,249400,255950
//Storyboard Layer 0 (Background)
//Storyboard Layer 1 (Fail)
//Storyboard Layer 2 (Pass)
//Storyboard Layer 3 (Foreground)
//Storyboard Sound Samples

[TimingPoints]
4014,1263.15789473684,4,2,0,50,1,0
21698,1420.97142857143,4,2,0,45,1,0
23116,1686.76666666666,4,2,0,40,1,0
27860,1838.86666666666,4,2,0,35,1,0
31537,-100,4,2,0,5,0,0
33379,300,4,1,0,100,1,0
35779,-90.9090909090909,4,1,0,100,0,0
45454,-90.9090909090909,4,2,0,50,0,0
50179,-80,4,1,0,100,0,0
88579,600,4,2,0,75,1,0
95779,300,4,1,0,100,1,0
98179,-80,4,1,0,100,0,0
107782,727.272727272727,4,1,0,100,1,0
107782,-133.333333333333,4,2,0,50,0,0
113600,300,4,1,0,100,1,0
113600,-133.333333333333,4,1,0,100,0,0
113900,-100,4,1,0,100,0,0
114200,-80,4,1,0,100,0,0
114500,-66.6666666666667,4,1,0,100,0,0
114800,-100,4,1,0,100,0,0
116000,-76.9230769230769,4,1,0,100,0,1
130400,-76.9230769230769,4,1,0,100,0,0
154400,600,4,2,0,75,1,0
188000,1200,4,2,0,75,1,0
197600,600,4,2,0,75,1,0
202400,300,4,2,0,75,1,0
208400,-76.9230769230769,4,1,0,100,0,1
222800,-76.9230769230769,4,1,0,100,0,0
225200,-76.9230769230769,4,1,0,100,0,1
239562,-76.9230769230769,4,1,0,100,0,0
239600,-76.9230769230769,4,1,0,100,0,1
239637,-76.9230769230769,4,1,0,100,0,0
242000,-76.9230769230769,4,1,0,100,0,1
242037,-76.9230769230769,4,1,0,100,0,0
244400,-76.9230769230769,4,1,0,100,0,1
244437,-76.9230769230769,4,1,0,100,0,0

[HitObjects]
364,108,4014,6,0,L|307:126,1,60,4|0,0:0|0:0,0:0:0:0:
256,96,4645,2,2,P|224:120|200:160,1,80,2|0,0:0|0:0,0:0:0:0:
260,240,5592,1,0,0:0:0:0:
300,168,5908,2,2,P|344:172|412:224,1,120,2|0,0:0|0:0,0:0:0:0:
376,288,7171,6,2,P|328:292|288:296,1,80,2|0,0:0|0:0,0:0:0:0:
192,272,8119,1,0,0:0:0:0:
100,192,8435,1,2,0:0:0:0:
92,172,8592,1,0,0:0:0:0:
96,152,8750,1,2,0:0:0:0:
104,136,8908,1,0,0:0:0:0:
120,124,9066,2,2,P|156:84|152:56,1,80,10|0,0:0|0:0,0:0:0:0:
324,84,10013,6,0,L|292:92,1,20,2|0,0:0|0:0,0:0:0:0:
372,92,10329,2,2,P|392:112|400:152,1,60,2|0,0:0|0:0,0:0:0:0:
372,224,10961,2,2,P|340:200|304:196,1,60,2|0,0:0|0:0,0:0:0:0:
320,268,11592,2,2,P|268:280|216:256,1,100,2|0,0:0|0:0,0:0:0:0:
220,184,12540,2,0,L|188:188,1,20,2|0,0:0|0:0,0:0:0:0:
264,112,12856,2,2,P|184:92|132:148,1,160,2|8,0:0|0:0,0:0:0:0:
212,184,14750,5,2,0:0:0:0:
300,184,15066,1,2,0:0:0:0:
300,184,15224,1,0,0:0:0:0:
300,184,15382,2,2,P|360:152|376:148,1,80,2|0,0:0|0:0,0:0:0:0:
424,260,16329,1,2,0:0:0:0:
424,260,16487,1,0,0:0:0:0:
314,242,16645,2,2,P|332:252|344:268,1,40,2|0,0:0|0:0,0:0:0:0:
280,324,17119,2,0,P|268:308|256:296,1,20,2|0,0:0|0:0,0:0:0:0:
192,308,17435,2,2,P|156:300|140:292,1,40,2|0,0:0|0:0,0:0:0:0:
88,248,17908,6,2,P|84:208|88:192,1,40,2|0,0:0|0:0,0:0:0:0:
144,88,18382,2,2,P|148:128|144:144,1,40,2|0,0:0|0:0,0:0:0:0:
160,220,18856,2,2,P|256:220|304:192,1,140,2|0,0:0|0:0,0:0:0:0:
396,116,20119,1,2,0:0:0:0:
388,104,20277,1,0,0:0:0:0:
380,96,20435,2,2,P|304:76|296:80,1,80,2|0,0:0|0:0,0:0:0:0:
220,72,21224,2,2,L|192:92,2,20,2|0|0,0:0|0:0|0:0,0:0:0:0:
256,184,21698,6,2,P|320:204|332:224,1,80,10|0,0:0|0:0,0:0:0:0:
176,204,22763,1,0,0:0:0:0:
80,136,23116,6,2,P|124:96|144:84,1,80,2|0,0:0|0:0,0:0:0:0:
268,176,24381,1,0,0:0:0:0:
384,84,24802,6,2,P|288:88|248:120,1,140,2|0,0:0|0:0,0:0:0:0:
240,212,26489,6,2,P|298:208|336:164,1,120,10|0,0:0|0:0,0:0:0:0:
252,128,27860,6,2,P|208:124|240:304,1,320,10|0,0:0|0:0,0:0:0:0:
256,192,31767,12,0,33146,0:0:0:0:
404,136,33379,5,8,0:0:0:0:
380,100,33454,1,8,0:0:0:0:
340,80,33529,1,8,0:0:0:0:
296,76,33604,1,8,0:0:0:0:
256,92,33679,1,8,0:0:0:0:
112,196,33979,6,2,L|108:280,1,80,2|0,0:0|0:0,0:0:0:0:
192,351,34279,2,2,L|196:272,1,80,2|0,0:0|0:0,0:0:0:0:
372,128,34579,5,8,0:0:0:0:
352,148,34654,1,8,0:0:0:0:
332,168,34729,1,8,0:0:0:0:
312,192,34804,1,8,0:0:0:0:
292,216,34879,1,8,0:0:0:0:
155,119,35179,6,2,L|152:40,1,80,2|0,0:0|0:0,0:0:0:0:
291,215,35479,2,2,L|295:295,1,80,2|0,0:0|0:0,0:0:0:0:
108,275,35779,6,0,P|144:299|187:306,1,88.000002685547,4|0,0:0|0:0,0:0:0:0:
374,186,36079,2,0,L|352:272,1,88.000002685547,8|0,0:0|0:0,0:0:0:0:
240,68,36379,2,0,L|280:146,1,88.000002685547,2|0,0:0|0:0,0:0:0:0:
452,319,36679,2,0,P|467:279|464:235,1,88.000002685547,8|0,0:0|0:0,0:0:0:0:
324,77,36979,6,0,P|367:84|404:109,1,88.000002685547,4|0,0:0|0:0,0:0:0:0:
160,112,37279,2,0,L|137:197,1,88.000002685547,8|0,0:0|0:0,0:0:0:0:
260,273,37579,2,0,L|272:316,1,44.0000013427735,2|0,0:0|0:0,0:0:0:0:
148,239,37729,2,0,L|137:197,1,44.0000013427735,2|0,0:0|0:0,0:0:0:0:
59,64,37879,2,0,P|44:104|47:148,1,88.000002685547,8|0,0:0|0:0,0:0:0:0:
168,52,38179,5,4,0:0:0:0:
348,36,38329,1,0,0:0:0:0:
176,68,38479,1,8,0:0:0:0:
340,20,38629,1,0,0:0:0:0:
457,107,38779,2,0,B|471:99|472:68|471:23,1,88.000002685547,2|0,0:0|0:0,0:0:0:0:
272,104,39079,2,0,B|272:149|273:180|284:190,1,88.000002685547,8|0,0:0|0:0,0:0:0:0:
463,209,39379,2,0,B|463:253|462:284|350:323,1,176.000005371094,4|8,0:0|0:0,0:0:0:0:
256,304,39829,1,0,0:0:0:0:
161,323,39979,2,0,B|49:284|48:253|48:209,1,176.000005371094,2|8,0:0|0:0,0:0:0:0:
172,56,40429,5,0,0:0:0:0:
340,56,40579,2,0,P|297:47|261:22,1,88.000002685547,6|0,0:0|0:0,0:0:0:0:
360,127,40879,2,0,P|388:160|428:180,1,88.000002685547,8|0,0:0|0:0,0:0:0:0:
456,320,41179,2,0,P|423:291|404:251,1,88.000002685547,2|0,0:0|0:0,0:0:0:0:
340,56,41479,2,0,P|379:75|407:108,1,88.000002685547,8|0,0:0|0:0,0:0:0:0:
172,328,41779,6,0,P|214:336|250:361,1,88.000002685547,4|0,0:0|0:0,0:0:0:0:
151,256,42079,2,0,P|123:223|84:204,1,88.000002685547,8|0,0:0|0:0,0:0:0:0:
56,64,42379,1,2,0:0:0:0:
96,72,42454,1,0,0:0:0:0:
136,72,42529,1,2,0:0:0:0:
176,68,42604,1,0,0:0:0:0:
216,52,42679,2,0,P|255:71|283:104,1,88.000002685547,8|0,0:0|0:0,0:0:0:0:
296,306,42979,6,0,P|365:255|451:259,1,176.000005371094,4|8,0:0|0:0,0:0:0:0:
256,192,43429,1,0,0:0:0:0:
215,306,43579,2,0,P|146:255|60:259,2,176.000005371094,2|8|4,0:0|0:0|0:0,0:0:0:0:
256,340,44254,5,0,0:0:0:0:
256,308,44329,1,0,0:0:0:0:
256,276,44404,1,0,0:0:0:0:
256,244,44479,2,0,L|218:221,1,44.0000013427735,8|0,0:0|0:0,0:0:0:0:
336,144,44629,2,0,L|377:130,1,44.0000013427735
292,140,44779,5,2,0:0:0:0:
252,132,44854,1,0,0:0:0:0:
208,132,44929,1,0,0:0:0:0:
164,140,45004,1,0,0:0:0:0:
128,156,45079,2,0,L|114:114,1,44.0000013427735,8|0,0:0|0:0,0:0:0:0:
208,48,45229,1,0,0:0:0:0:
208,48,45304,1,0,0:0:0:0:
208,48,45379,6,0,L|284:40,7,44.0000013427735,4|0|0|0|8|0|0|0,0:0|0:0|0:0|0:0|0:0|0:0|0:0|0:0,0:0:0:0:
336,96,45979,6,0,L|388:84,1,44.0000013427735,2|0,0:0|0:0,0:0:0:0:
486,150,46129,2,0,L|444:160,1,44.0000013427735
311,299,46279,2,0,L|321:342,1,44.0000013427735,8|0,0:0|0:0,0:0:0:0:
385,234,46430,2,0,L|376:192,1,44.0000013427735
240,208,46579,6,0,L|235:164,7,44.0000013427735,4|0|0|0|8|0|0|0,0:0|0:0|0:0|0:0|0:0|0:0|0:0|0:0,0:0:0:0:
176,96,47179,6,0,L|124:84,1,44.0000013427735,2|0,0:0|0:0,0:0:0:0:
25,150,47329,2,0,L|68:160,1,44.0000013427735
200,299,47479,2,0,L|191:342,1,44.0000013427735,8|0,0:0|0:0,0:0:0:0:
126,234,47630,2,0,L|136:192,1,44.0000013427735
272,208,47779,6,0,L|276:164,3,44.0000013427735,6|0|0|0,0:0|0:0|0:0|0:0,0:0:0:0:
352,80,48079,2,0,L|395:84,3,44.0000013427735,12|0|0|0,0:0|0:0|0:0|0:0,0:0:0:0:
468,156,48379,2,0,L|463:199,3,44.0000013427735,6|0|0|0,0:0|0:0|0:0|0:0,0:0:0:0:
388,284,48679,2,0,L|344:279,3,44.0000013427735,12|0|0|0,0:0|0:0|0:0|0:0,0:0:0:0:
208,288,48979,6,0,L|160:304,1,44.0000013427735,6|0,0:0|0:0,0:0:0:0:
176,228,49129,2,0,L|132:231,1,44.0000013427735,6|0,0:0|0:0,0:0:0:0:
176,156,49279,2,0,L|132:152,1,44.0000013427735,12|0,0:0|0:0,0:0:0:0:
208,96,49429,2,0,L|166:82,1,44.0000013427735,6|0,0:0|0:0,0:0:0:0:
336,68,49579,5,10,0:0:0:0:
368,84,49654,1,10,0:0:0:0:
396,104,49729,1,10,0:0:0:0:
416,132,49804,1,10,0:0:0:0:
432,164,49879,1,10,0:0:0:0:
436,200,49954,1,10,0:0:0:0:
428,232,50029,1,10,0:0:0:0:
404,260,50104,1,10,0:0:0:0:
225,323,50179,6,0,P|176:312|136:284,1,100,4|0,0:0|0:0,0:0:0:0:
444,119,50479,2,0,L|368:184,1,100,8|0,0:0|0:0,0:0:0:0:
80,117,50779,2,0,P|130:121|180:120,1,100,2|0,0:0|0:0,0:0:0:0:
360,32,51079,2,0,P|404:54|438:90,1,100,8|0,0:0|0:0,0:0:0:0:
348,311,51379,6,0,P|376:271|387:222,1,100,2|0,0:0|0:0,0:0:0:0:
183,3,51679,2,0,L|248:80,1,100,8|0,0:0|0:0,0:0:0:0:
185,317,51979,6,8,L|181:367,1,50,2|8,0:0|0:0,0:0:0:0:
180,188,52129,1,8,0:0:0:0:
180,188,52204,1,8,0:0:0:0:
180,188,52279,6,8,L|183:138,1,50
285,323,52429,1,8,0:0:0:0:
285,323,52504,1,8,0:0:0:0:
285,323,52579,6,0,P|334:312|375:284,1,100,4|0,0:0|0:0,0:0:0:0:
67,119,52879,2,0,L|144:184,1,100,8|0,0:0|0:0,0:0:0:0:
431,117,53179,2,0,P|381:121|332:120,1,100,2|0,0:0|0:0,0:0:0:0:
151,32,53479,2,0,P|107:54|73:90,1,100,8|0,0:0|0:0,0:0:0:0:
163,311,53779,6,0,P|135:271|124:222,1,100,2|0,0:0|0:0,0:0:0:0:
328,3,54079,2,0,L|264:80,1,100,8|0,0:0|0:0,0:0:0:0:
326,317,54379,2,8,L|330:367,3,50,2|8|8|8,0:0|0:0|0:0|0:0,0:0:0:0:
332,188,54679,2,8,L|328:138,3,50
226,323,54979,5,6,0:0:0:0:
188,312,55054,1,0,0:0:0:0:
148,304,55129,1,0,0:0:0:0:
108,300,55204,1,0,0:0:0:0:
28,332,55279,5,8,0:0:0:0:
28,288,55354,1,0,0:0:0:0:
33,244,55429,1,0,0:0:0:0:
42,200,55504,1,0,0:0:0:0:
20,116,55579,5,2,0:0:0:0:
68,120,55654,1,0,0:0:0:0:
115,130,55729,1,0,0:0:0:0:
163,144,55804,1,0,0:0:0:0:
232,96,55879,5,8,0:0:0:0:
238,151,55954,1,0,0:0:0:0:
236,206,56029,1,0,0:0:0:0:
229,263,56104,1,0,0:0:0:0:
320,320,56179,6,0,L|358:353,1,50,6|0,0:0|0:0,0:0:0:0:
376,276,56329,2,0,L|436:296,1,50
392,212,56479,2,0,L|448:212,2,50,8|0|0,0:0|0:0|0:0,0:0:0:0:
373,109,56704,1,0,0:0:0:0:
373,109,56779,6,0,L|421:93,1,50
317,65,56929,2,0,L|356:32,1,50,2|0,0:0|0:0,0:0:0:0:
195,65,57079,2,0,L|156:32,1,50,10|0,0:0|0:0,0:0:0:0:
139,109,57230,2,0,L|91:93,1,50,2|0,0:0|0:0,0:0:0:0:
208,152,57379,6,0,P|205:201|183:246,1,100,6|2,0:0|0:0,0:0:0:0:
183,246,57829,1,4,0:0:0:0:
329,246,58429,5,4,0:0:0:0:
415,87,58729,2,0,P|319:87|264:166,1,200,4|2,0:0|0:0,0:0:0:0:
256,378,59179,5,2,0:0:0:0:
384,206,59329,1,2,0:0:0:0:
180,266,59479,1,8,0:0:0:0:
388,338,59629,1,2,0:0:0:0:
264,166,59779,1,12,0:0:0:0:
64,72,60079,6,0,L|160:46,1,100,8|0,0:0|0:0,0:0:0:0:
408,8,60379,1,2,0:0:0:0:
375,104,60529,2,0,P|291:154|193:148,1,200
392,224,60979,2,0,L|421:319,1,100,2|0,0:0|0:0,0:0:0:0:
292,232,61279,2,0,L|321:327,1,100,8|0,0:0|0:0,0:0:0:0:
200,316,61504,1,0,0:0:0:0:
190,327,61579,2,0,L|220:232,1,100,2|0,0:0|0:0,0:0:0:0:
112,120,61879,1,8,0:0:0:0:
192,60,62029,1,0,0:0:0:0:
424,103,62179,6,0,P|418:57|372:56,1,100,2|0,0:0|0:0,0:0:0:0:
352,228,62479,2,0,P|358:273|404:275,1,100,8|0,0:0|0:0,0:0:0:0:
320,140,62779,2,0,P|276:155|282:200,1,100,2|0,0:0|0:0,0:0:0:0:
455,190,63079,2,0,P|499:176|493:130,1,100,8|0,0:0|0:0,0:0:0:0:
371,232,63379,2,0,P|291:287|192:286,1,200,2|8,0:0|0:0,0:0:0:0:
128,188,63829,1,0,0:0:0:0:
132,168,63904,1,0,0:0:0:0:
140,151,63979,2,0,P|220:96|319:97,2,200,2|8|2,0:0|0:0|0:0,0:0:0:0:
72,280,64729,5,0,0:0:0:0:
153,236,64879,2,0,P|120:272|72:280,1,100,8|0,0:0|0:0,0:0:0:0:
256,192,65179,1,2,0:0:0:0:
380,165,65329,1,0,0:0:0:0:
440,93,65479,2,0,P|396:123|380:174,1,100,8|0,0:0|0:0,0:0:0:0:
399,336,65779,2,0,P|307:369|211:346,2,200,2|8|2,0:0|0:0|0:0,0:0:0:0:
300,37,66529,1,0,0:0:0:0:
128,156,66679,1,8,0:0:0:0:
172,40,66829,1,0,0:0:0:0:
380,196,66979,5,2,0:0:0:0:
449,337,67129,1,0,0:0:0:0:
419,243,67279,2,0,P|440:289|450:338,1,100,8|0,0:0|0:0,0:0:0:0:
256,196,67579,1,2,0:0:0:0:
185,53,67729,1,0,0:0:0:0:
216,148,67879,2,0,P|195:102|185:53,1,100,8|0,0:0|0:0,0:0:0:0:
139,267,68179,2,0,P|187:283|228:311,1,100,2|0,0:0|0:0,0:0:0:0:
372,116,68479,2,0,P|324:100|283:72,1,100,8|0,0:0|0:0,0:0:0:0:
364,260,68779,5,2,0:0:0:0:
368,288,68854,1,0,0:0:0:0:
364,316,68929,1,0,0:0:0:0:
348,340,69004,1,0,0:0:0:0:
320,348,69079,1,8,0:0:0:0:
292,344,69154,1,0,0:0:0:0:
264,332,69229,1,0,0:0:0:0:
236,332,69304,1,0,0:0:0:0:
207,344,69379,6,0,P|159:355|109:353,1,100,4|0,0:0|0:0,0:0:0:0:
144,136,69679,2,0,P|155:184|153:234,1,100,8|0,0:0|0:0,0:0:0:0:
304,176,69979,2,0,L|387:231,1,100,2|0,0:0|0:0,0:0:0:0:
276,48,70279,1,8,0:0:0:0:
376,300,70429,1,0,0:0:0:0:
356,36,70579,1,2,0:0:0:0:
304,272,70729,1,0,0:0:0:0:
432,28,70879,1,8,0:0:0:0:
236,240,71029,1,0,0:0:0:0:
460,144,71179,2,0,P|361:137|273:182,1,200,2|8,0:0|0:0,0:0:0:0:
100,320,71629,1,0,0:0:0:0:
100,320,71779,6,0,P|67:282|54:234,1,100,2|0,0:0|0:0,0:0:0:0:
172,52,72079,2,0,L|130:142,1,100,8|0,0:0|0:0,0:0:0:0:
300,324,72379,2,0,L|213:274,1,100,2|0,0:0|0:0,0:0:0:0:
411,63,72679,2,0,P|444:101|457:149,1,100,8|0,0:0|0:0,0:0:0:0:
256,188,72979,1,2,0:0:0:0:
75,113,73129,1,0,0:0:0:0:
210,63,73279,1,8,0:0:0:0:
122,241,73429,1,0,0:0:0:0:
312,84,73579,2,0,P|384:152|368:272,1,200,2|8,0:0|0:0,0:0:0:0:
144,292,74029,1,0,0:0:0:0:
144,292,74104,1,0,0:0:0:0:
144,292,74179,6,0,P|111:254|71:224,2,100,2|0|8,0:0|0:0|0:0,0:0:0:0:
256,192,74629,1,0,0:0:0:0:
367,292,74779,2,0,P|400:254|440:224,2,100,2|0|8,0:0|0:0|0:0,0:0:0:0:
256,120,75229,1,0,0:0:0:0:
64,110,75379,2,0,P|113:107|152:76,1,100,2|0,0:0|0:0,0:0:0:0:
360,76,75679,1,8,0:0:0:0:
359,75,75829,2,0,P|502:176|376:296,1,400,2|0,0:0|0:0,0:0:0:0:
80,252,76579,5,2,0:0:0:0:
80,252,76729,1,0,0:0:0:0:
128,60,76879,2,0,L|165:152,1,100,2|0,0:0|0:0,0:0:0:0:
280,88,77179,5,8,0:0:0:0:
300,53,77254,1,8,0:0:0:0:
332,29,77329,1,8,0:0:0:0:
368,17,77404,1,8,0:0:0:0:
424,72,77479,5,2,0:0:0:0:
459,92,77554,1,8,0:0:0:0:
483,124,77629,1,8,0:0:0:0:
495,160,77704,1,8,0:0:0:0:
463,224,77779,6,0,P|301:331|109:296,1,400,12|12,0:0|0:0,0:0:0:0:
52,252,78454,5,8,0:0:0:0:
32,184,78529,1,8,0:0:0:0:
40,116,78604,1,8,0:0:0:0:
88,64,78679,2,8,L|136:40,1,50,2|8,0:0|0:0,0:0:0:0:
268,84,78829,2,8,L|212:116,1,50
352,192,78979,6,0,P|399:178|446:194,1,100,12|0,0:0|0:0,0:0:0:0:
256,288,79279,2,0,P|269:335|253:382,1,100,2|0,0:0|0:0,0:0:0:0:
258,1,79579,2,0,P|242:48|256:96,1,100,8|0,0:0|0:0,0:0:0:0:
65,189,79880,2,0,P|112:205|160:192,1,100,2|0,0:0|0:0,0:0:0:0:
416,76,80179,5,4,0:0:0:0:
448,212,80329,1,0,0:0:0:0:
278,346,80479,1,2,0:0:0:0:
313,196,80629,1,0,0:0:0:0:
145,78,80779,6,8,L|96:76,1,50
140,152,80929,2,8,L|90:152,1,50
140,232,81079,2,8,L|90:232,1,50,2|8,0:0|0:0,0:0:0:0:
145,305,81229,2,8,L|96:308,1,50
304,356,81379,6,0,P|345:328|373:287,1,100,4|0,0:0|0:0,0:0:0:0:
420,144,81679,2,0,P|392:102|351:74,1,100,2|0,0:0|0:0,0:0:0:0:
160,309,81979,2,0,P|119:281|92:240,1,100,8|0,0:0|0:0,0:0:0:0:
138,96,82279,2,0,P|166:55|208:28,1,100,2|0,0:0|0:0,0:0:0:0:
416,204,82579,2,0,L|464:328,2,100,8|0|2,0:0|0:0|0:0,0:0:0:0:
112,48,83029,1,0,0:0:0:0:
416,204,83179,6,0,L|511:296,1,100,8|0,0:0|0:0,0:0:0:0:
111,48,83479,2,0,P|70:137|82:235,1,200,2|8,0:0|0:0,0:0:0:0:
176,340,83929,1,0,0:0:0:0:
417,282,84079,2,0,L|336:340,1,100,2|0,0:0|0:0,0:0:0:0:
432,148,84379,1,8,0:0:0:0:
336,44,84529,1,0,0:0:0:0:
94,101,84679,2,0,L|176:44,1,100,2|0,0:0|0:0,0:0:0:0:
428,152,84979,2,0,L|343:205,1,100
56,324,85279,2,0,L|140:270,1,100,2|0,0:0|0:0,0:0:0:0:
248,96,85579,5,8,0:0:0:0:
268,156,85654,1,8,0:0:0:0:
236,208,85729,1,8,0:0:0:0:
256,268,85804,1,8,0:0:0:0:
243,327,85879,2,0,P|293:329|342:316,1,100,2|0,0:0|0:0,0:0:0:0:
435,127,86179,6,0,P|345:85|247:95,1,200,4|2,0:0|0:0,0:0:0:0:
136,180,86629,1,0,0:0:0:0:
464,216,86779,6,0,P|388:152|290:136,1,200,4|2,0:0|0:0,0:0:0:0:
136,180,87229,1,0,0:0:0:0:
456,344,87379,6,0,P|406:258|320:210,1,200,4|2,0:0|0:0,0:0:0:0:
264,200,87754,5,8,0:0:0:0:
240,192,87829,1,8,0:0:0:0:
220,176,87904,1,8,0:0:0:0:
216,152,87979,1,8,0:0:0:0:
228,128,88054,1,8,0:0:0:0:
252,120,88129,1,8,0:0:0:0:
276,124,88204,1,8,0:0:0:0:
300,124,88279,2,8,L|368:100,1,50,2|8,0:0|0:0,0:0:0:0:
452,144,88429,2,8,L|384:160,1,50
340,180,88579,5,4,0:0:0:0:
268,216,88729,1,0,0:0:0:0:
208,268,88879,2,0,L|183:299,1,40,8|0,0:0|0:0,0:0:0:0:
104,192,89179,2,0,P|103:152|117:115,1,80,2|0,0:0|0:0,0:0:0:0:
309,247,89779,2,0,P|271:259|232:256,1,80,2|0,0:0|0:0,0:0:0:0:
340,144,90229,1,0,0:0:0:0:
339,144,90379,2,0,P|394:138|403:191,1,120,8|0,0:0|0:0,0:0:0:0:
160,176,90979,5,2,0:0:0:0:
196,104,91129,1,0,0:0:0:0:
176,28,91279,2,0,L|136:24,1,40
336,28,91579,2,0,L|375:24,1,40,2|0,0:0|0:0,0:0:0:0:
307,120,91879,2,0,P|291:156|258:177,1,80,0|8,0:0|0:0,0:0:0:0:
128,192,92329,1,0,0:0:0:0:
136,272,92479,1,0,0:0:0:0:
196,328,92629,1,0,0:0:0:0:
276,319,92779,2,0,P|326:288|385:275,1,120,2|0,0:0|0:0,0:0:0:0:
391,41,93379,6,0,P|425:61|444:96,1,80,2|0,0:0|0:0,0:0:0:0:
300,152,93979,1,8,0:0:0:0:
243,55,94129,1,0,0:0:0:0:
320,75,94279,1,0,0:0:0:0:
223,132,94429,1,0,0:0:0:0:
142,189,94579,2,0,P|177:207|200:240,1,80,2|0,0:0|0:0,0:0:0:0:
312,239,95029,2,0,P|334:207|369:189,1,80,2|2,0:0|0:0,0:0:0:0:
256,188,95479,1,0,0:0:0:0:
256,188,95629,1,0,0:0:0:0:
88,44,95779,5,12,0:0:0:0:
424,44,96079,1,12,0:0:0:0:
424,340,96379,1,12,0:0:0:0:
316,192,96529,1,2,0:0:0:0:
256,296,96679,1,12,0:0:0:0:
148,148,96829,1,2,0:0:0:0:
88,252,96979,2,0,L|46:320,1,80,12|4,0:0|0:0,0:0:0:0:
316,192,97279,2,0,L|395:179,1,80,12|4,0:0|0:0,0:0:0:0:
360,108,97579,5,12,0:0:0:0:
324,88,97654,1,8,0:0:0:0:
284,76,97729,1,8,0:0:0:0:
244,72,97804,1,8,0:0:0:0:
204,76,97879,5,12,0:0:0:0:
224,124,97954,1,8,0:0:0:0:
232,176,98029,1,8,0:0:0:0:
228,228,98104,1,8,0:0:0:0:
211,276,98179,6,0,P|199:321|236:350,1,100,4|0,0:0|0:0,0:0:0:0:
444,250,98479,2,0,L|348:276,1,100,8|0,0:0|0:0,0:0:0:0:
124,340,98779,1,2,0:0:0:0:
180,140,98929,1,0,0:0:0:0:
348,276,99079,2,0,L|444:250,1,100,8|0,0:0|0:0,0:0:0:0:
191,105,99379,2,0,L|220:200,1,100,2|0,0:0|0:0,0:0:0:0:
60,364,99679,2,0,L|31:269,1,100,8|0,0:0|0:0,0:0:0:0:
392,160,99979,1,2,0:0:0:0:
375,143,100129,2,8,P|287:97|189:80,1,200,0|0,0:0|0:0,0:0:0:0:
149,338,100579,6,0,L|69:277,1,100,2|0,0:0|0:0,0:0:0:0:
109,85,100879,2,0,L|170:5,1,100,8|0,0:0|0:0,0:0:0:0:
362,45,101179,2,0,L|442:106,1,100,2|0,0:0|0:0,0:0:0:0:
402,298,101479,2,0,L|341:378,1,100,8|0,0:0|0:0,0:0:0:0:
256,164,101779,1,2,0:0:0:0:
48,64,101929,1,0,0:0:0:0:
64,288,102079,1,8,0:0:0:0:
256,164,102229,1,0,0:0:0:0:
448,36,102379,2,0,P|472:129|437:222,1,200,2|8,0:0|0:0,0:0:0:0:
256,368,102829,1,0,0:0:0:0:
256,368,102979,5,2,0:0:0:0:
132,172,103129,1,0,0:0:0:0:
348,247,103279,2,0,P|273:244|236:228,1,100,8|0,0:0|0:0,0:0:0:0:
292,84,103504,1,0,0:0:0:0:
292,84,103579,2,0,P|305:131|304:181,1,100,2|0,0:0|0:0,0:0:0:0:
288,340,103879,2,0,P|244:310|228:259,1,100,8|0,0:0|0:0,0:0:0:0:
75,92,104179,2,0,P|150:87|192:96,1,100,2|0,0:0|0:0,0:0:0:0:
304,181,104479,2,0,P|305:131|292:84,1,100,8|0,0:0|0:0,0:0:0:0:
435,292,104779,2,0,P|336:288|249:241,1,200,2|8,0:0|0:0,0:0:0:0:
76,92,105229,1,0,0:0:0:0:
304,60,105379,5,2,0:0:0:0:
96,160,105529,1,0,0:0:0:0:
324,128,105679,2,0,P|345:174|355:223,1,100,8|0,0:0|0:0,0:0:0:0:
146,322,105979,5,2,0:0:0:0:
354,222,106129,1,0,0:0:0:0:
126,254,106279,2,0,P|105:208|95:159,1,100,8|0,0:0|0:0,0:0:0:0:
256,324,106579,2,0,P|304:340|345:368,1,100,2|0,0:0|0:0,0:0:0:0:
256,60,106879,2,0,P|208:44|167:16,1,100,8|0,0:0|0:0,0:0:0:0:
180,116,107179,5,8,0:0:0:0:
230,118,107254,1,8,0:0:0:0:
274,143,107329,1,8,0:0:0:0:
306,179,107404,1,8,0:0:0:0:
321,225,107479,1,2,0:0:0:0:
318,276,107554,1,8,0:0:0:0:
293,320,107629,1,8,0:0:0:0:
258,352,107704,1,8,0:0:0:0:
212,364,107782,6,0,P|181:361|152:355,1,60.0000022888184,4|0,0:0|0:0,0:0:0:0:
85,263,108509,2,0,P|114:264|143:271,1,60.0000022888184,8|0,0:0|0:0,0:0:0:0:
256,228,109236,2,0,P|272:224|288:224,1,30.0000011444092,2|0,0:0|0:0,0:0:0:0:
364,288,109600,2,0,P|348:292|332:292,1,30.0000011444092,2|0,0:0|0:0,0:0:0:0:
192,304,109963,2,0,P|144:272|116:216,1,120.000004577637,8|2,0:0|0:0,0:0:0:0:
176,92,111054,1,0,0:0:0:0:
303,40,111418,6,0,P|332:30|361:25,1,60.0000022888184,8|0,0:0|0:0,0:0:0:0:
460,84,112145,2,0,P|431:93|402:98,1,60.0000022888184,2|0,0:0|0:0,0:0:0:0:
256,156,112872,2,0,P|240:160|224:160,1,30.0000011444092,8|0,0:0|0:0,0:0:0:0:
148,96,113236,2,0,P|164:92|180:92,1,30.0000011444092,8|0,0:0|0:0,0:0:0:0:
286,61,113600,6,0,L|312:32,3,30.0000011444092,6|8|8|8,0:0|0:0|0:0|0:0,0:0:0:0:
292,160,113900,6,0,L|258:181,3,40,12|8|8|8,0:0|0:0|0:0|0:0,0:0:0:0:
408,196,114200,6,0,L|456:180,3,50,6|8|8|8,0:0|0:0|0:0|0:0,0:0:0:0:
320,300,114500,6,0,L|260:302,3,60.0000022888184,12|8|8|8,0:0|0:0|0:0|0:0,0:0:0:0:
320,300,114800,5,6,0:0:0:0:
140,92,115025,1,6,0:0:0:0:
36,348,115250,1,6,0:0:0:0:
172,256,115400,6,8,L|204:220,3,40
256,108,115700,2,0,P|294:100|334:107,1,80,6|8,0:0|0:0,0:0:0:0:
448,220,115925,1,8,0:0:0:0:
446,218,116000,6,0,P|370:202|300:169,1,155.999992858887,12|0,0:0|0:0,0:0:0:0:
256,88,116300,2,0,P|306:98|354:118,1,103.999995239258,2|0,0:0|0:0,0:0:0:0:
180,88,116600,1,8,0:0:0:0:
244,168,116750,1,0,0:0:0:0:
152,216,116900,6,0,P|228:232|298:265,1,155.999992858887,2|0,0:0|0:0,0:0:0:0:
201,69,117200,6,0,P|184:145|151:215,1,155.999992858887,12|0,0:0|0:0,0:0:0:0:
70,259,117500,2,0,P|80:208|100:160,1,103.999995239258,2|0,0:0|0:0,0:0:0:0:
70,335,117800,1,8,0:0:0:0:
150,271,117950,1,0,0:0:0:0:
198,363,118100,6,0,P|214:286|247:216,1,155.999992858887,2|0,0:0|0:0,0:0:0:0:
440,286,118400,6,0,P|338:262|246:215,1,207.999990478516,12|2,0:0|0:0,0:0:0:0:
112,80,118850,1,0,0:0:0:0:
384,76,119000,2,0,L|280:64,1,103.999995239258,8|0,0:0|0:0,0:0:0:0:
128,144,119300,2,0,L|179:149,1,51.999997619629,10|0,0:0|0:0,0:0:0:0:
100,222,119450,2,0,P|60:189|48:140,1,103.999995239258,2|8,0:0|0:0,0:0:0:0:
256,156,119750,1,0,0:0:0:0:
324,236,119900,6,0,P|275:251|224:242,1,103.999995239258,2|0,0:0|0:0,0:0:0:0:
75,343,120200,2,0,P|49:299|44:248,1,103.999995239258,8|0,0:0|0:0,0:0:0:0:
80,92,120425,1,0,0:0:0:0:
80,92,120500,2,0,P|147:168|248:180,1,207.999990478516,2|12,0:0|0:0,0:0:0:0:
460,56,120950,1,0,0:0:0:0:
460,56,121100,6,0,P|472:128|460:216,1,155.999992858887,2|0,0:0|0:0,0:0:0:0:
420,304,121400,2,0,P|389:262|389:211,1,103.999995239258,8|0,0:0|0:0,0:0:0:0:
52,328,121700,2,0,P|40:256|52:168,1,155.999992858887,2|0,0:0|0:0,0:0:0:0:
92,80,122000,6,0,P|122:121|122:172,1,103.999995239258,8|0,0:0|0:0,0:0:0:0:
164,344,122300,1,2,0:0:0:0:
224,192,122450,1,0,0:0:0:0:
408,101,122600,2,0,P|369:135|320:148,1,103.999995239258,8|0,0:0|0:0,0:0:0:0:
103,101,122900,2,0,P|142:135|192:148,1,103.999995239258,2|0,0:0|0:0,0:0:0:0:
256,56,123200,1,12,0:0:0:0:
256,204,123350,1,0,0:0:0:0:
367,359,123500,6,0,P|290:369|214:355,1,155.999992858887,2|0,0:0|0:0,0:0:0:0:
136,319,123800,2,0,P|179:291|230:287,1,103.999995239258,8|0,0:0|0:0,0:0:0:0:
144,24,124100,2,0,P|221:14|297:28,1,155.999992858887,2|0,0:0|0:0,0:0:0:0:
375,64,124400,6,0,P|332:92|281:96,1,103.999995239258,8|0,0:0|0:0,0:0:0:0:
130,116,124700,1,2,0:0:0:0:
129,116,124850,2,0,P|82:204|84:228,1,103.999995239258,0|8,0:0|0:0,0:0:0:0:
204,280,125075,1,8,0:0:0:0:
204,280,125150,1,8,0:0:0:0:
204,280,125225,5,8,0:0:0:0:
256,276,125300,1,2,0:0:0:0:
304,260,125375,1,8,0:0:0:0:
344,228,125450,1,8,0:0:0:0:
380,188,125525,1,8,0:0:0:0:
404,92,125600,6,0,P|348:108|304:136,1,103.999995239258,6|0,0:0|0:0,0:0:0:0:
128,213,125900,2,0,P|180:212|232:204,1,103.999995239258,8|0,0:0|0:0,0:0:0:0:
384,152,126200,1,2,0:0:0:0:
452,232,126350,1,0,0:0:0:0:
408,324,126500,2,0,P|360:348|308:332,1,103.999995239258,8|0,0:0|0:0,0:0:0:0:
198,335,126800,2,0,P|149:347|104:324,2,103.999995239258,2|0|8,0:0|0:0|0:0,0:0:0:0:
256,40,127250,2,0,L|256:248,1,207.999990478516
256,352,127700,1,8,0:0:0:0:
256,352,127850,1,0,0:0:0:0:
102,167,128000,6,0,P|77:213|68:264,1,103.999995239258,2|0,0:0|0:0,0:0:0:0:
196,128,128300,2,0,P|220:82|230:31,1,103.999995239258,8|0,0:0|0:0,0:0:0:0:
194,214,128600,2,0,P|169:260|159:311,1,103.999995239258,2|0,0:0|0:0,0:0:0:0:
288,176,128900,2,0,P|312:130|322:79,1,103.999995239258,8|0,0:0|0:0,0:0:0:0:
288,176,129200,2,0,P|276:208|396:284,1,207.999990478516,2|8,0:0|0:0,0:0:0:0:
412,184,129650,1,0,0:0:0:0:
412,184,129800,1,2,0:0:0:0:
248,100,129950,1,0,0:0:0:0:
248,100,130100,1,8,0:0:0:0:
28,320,130400,5,12,0:0:0:0:
340,320,130550,2,0,L|132:320,1,207.999990478516,4|4,0:0|0:0,0:0:0:0:
172,64,131150,2,0,L|380:64,1,207.999990478516,4|4,0:0|0:0,0:0:0:0:
256,228,131750,1,4,0:0:0:0:
356,160,131900,2,0,P|253:143|151:158,1,207.999990478516,12|4,0:0|0:0,0:0:0:0:
152,72,132500,2,0,B|254:88|254:88|356:73,1,207.999990478516,4|6,0:0|0:0,0:0:0:0:
256,28,132875,5,8,0:0:0:0:
256,52,132950,1,8,0:0:0:0:
256,76,133025,1,8,0:0:0:0:
256,100,133100,1,8,0:0:0:0:
256,124,133175,1,8,0:0:0:0:
256,148,133250,1,8,0:0:0:0:
256,172,133325,1,8,0:0:0:0:
256,196,133400,2,8,L|256:248,1,51.999997619629,2|8,0:0|0:0,0:0:0:0:
232,308,133550,1,8,0:0:0:0:
208,296,133625,1,8,0:0:0:0:
188,280,133700,2,8,P|132:252|88:244,1,103.999995239258
256,192,134000,12,12,135200,0:0:0:0:
303,231,142400,6,0,P|307:180|335:136,1,103.999995239258,6|2,0:0|0:0,0:0:0:0:
335,136,142850,1,4,0:0:0:0:
177,136,143450,5,4,0:0:0:0:
89,301,143750,2,0,P|189:299|248:218,1,207.999990478516,4|2,0:0|0:0,0:0:0:0:
256,6,144200,5,2,0:0:0:0:
128,178,144350,1,2,0:0:0:0:
332,118,144500,1,8,0:0:0:0:
124,46,144650,1,2,0:0:0:0:
248,218,144800,1,12,0:0:0:0:
447,311,144950,5,0,0:0:0:0:
345,331,145100,2,0,L|447:311,1,103.999995239258,8|0,0:0|0:0,0:0:0:0:
104,376,145400,1,2,0:0:0:0:
137,279,145549,2,0,P|225:228|328:235,1,207.999990478516
89,60,146000,2,0,L|120:160,1,103.999995239258,2|0,0:0|0:0,0:0:0:0:
191,327,146300,2,0,L|220:224,1,103.999995239258,8|0,0:0|0:0,0:0:0:0:
312,68,146525,1,0,0:0:0:0:
322,57,146600,2,0,L|292:156,1,103.999995239258,2|0,0:0|0:0,0:0:0:0:
244,360,146900,1,8,0:0:0:0:
244,360,147050,1,0,0:0:0:0:
400,224,147200,6,0,L|483:161,1,103.999995239258,2|0,0:0|0:0,0:0:0:0:
288,84,147500,2,0,L|205:146,1,103.999995239258,8|0,0:0|0:0,0:0:0:0:
316,286,147800,2,0,L|399:223,1,103.999995239258,2|0,0:0|0:0,0:0:0:0:
204,146,148100,2,0,L|121:208,1,103.999995239258,8|0,0:0|0:0,0:0:0:0:
232,348,148400,2,0,L|315:285,2,103.999995239258,2|0|8,0:0|0:0|0:0,0:0:0:0:
121,208,148850,1,0,0:0:0:0:
32,68,149000,2,0,B|85:64|129:44|129:44|177:73|228:85,2,207.999990478516,2|8|0,0:0|0:0|0:0,0:0:0:0:
121,208,149750,5,0,0:0:0:0:
350,147,149900,2,0,P|388:112|439:103,1,103.999995239258,8|0,0:0|0:0,0:0:0:0:
460,268,150200,1,2,0:0:0:0:
300,308,150350,1,0,0:0:0:0:
60,284,150500,2,0,P|77:235|120:207,1,103.999995239258,8|0,0:0|0:0,0:0:0:0:
256,108,150800,2,0,B|176:72|103:103|103:103|64:71,2,207.999990478516,2|8|2,0:0|0:0|0:0,0:0:0:0:
192,264,151550,1,0,0:0:0:0:
396,148,151700,1,8,0:0:0:0:
296,284,151850,1,0,0:0:0:0:
256,108,152000,5,2,0:0:0:0:
400,288,152150,1,0,0:0:0:0:
293,203,152300,2,0,P|267:158|256:108,1,103.999995239258,8|0,0:0|0:0,0:0:0:0:
404,28,152600,1,2,0:0:0:0:
376,192,152750,1,0,0:0:0:0:
152,32,152900,2,0,P|173:79|183:130,1,103.999995239258,8|0,0:0|0:0,0:0:0:0:
256,280,153200,2,0,P|207:264|164:236,1,103.999995239258,2|0,0:0|0:0,0:0:0:0:
92,83,153500,2,0,P|141:99|183:130,1,103.999995239258,8|0,0:0|0:0,0:0:0:0:
384,264,153800,5,2,0:0:0:0:
364,304,153875,1,0,0:0:0:0:
324,328,153950,1,0,0:0:0:0:
280,340,154025,1,0,0:0:0:0:
232,340,154100,1,8,0:0:0:0:
188,328,154175,1,0,0:0:0:0:
148,304,154250,1,0,0:0:0:0:
128,264,154325,1,0,0:0:0:0:
256,192,154400,12,4,158000,0:0:0:0:
300,144,158600,5,4,0:0:0:0:
212,240,159200,6,8,L|197:254,4,20
328,268,159800,6,0,L|300:240,1,40,8|0,0:0|0:0,0:0:0:0:
176,104,160250,1,0,0:0:0:0:
256,60,160400,1,8,0:0:0:0:
336,104,160550,2,0,P|369:126|405:143,1,80
336,280,161000,1,8,0:0:0:0:
256,324,161150,1,0,0:0:0:0:
175,279,161300,2,0,P|142:257|106:240,1,80,0|8,0:0|0:0,0:0:0:0:
20,204,161750,5,0,0:0:0:0:
54,77,161900,2,0,L|44:116,1,40
140,113,162200,1,8,0:0:0:0:
105,239,162350,2,0,L|115:200,1,40
239,123,162650,2,0,L|256:112,2,20,0|0|8,0:0|0:0|0:0,0:0:0:0:
384,244,162950,2,0,P|344:245|309:227,1,80
140,113,163400,2,0,L|108:88,3,40,8|0|0|0,0:0|0:0|0:0|0:0,0:0:0:0:
300,144,164000,5,8,0:0:0:0:
324,160,164075,1,8,0:0:0:0:
344,180,164150,1,8,0:0:0:0:
364,204,164225,1,8,0:0:0:0:
376,232,164300,2,0,L|384:272,1,40,8|0,0:0|0:0,0:0:0:0:
256,344,164600,6,0,L|248:304,1,40,8|0,0:0|0:0,0:0:0:0:
216,152,164900,1,0,0:0:0:0:
256,84,165050,1,0,0:0:0:0:
288,60,165125,1,0,0:0:0:0:
324,44,165200,1,8,0:0:0:0:
288,196,165350,2,0,P|255:218|219:235,1,80
144,264,165800,1,8,0:0:0:0:
44,192,165950,1,0,0:0:0:0:
213,80,166100,2,0,P|177:97|144:120,1,80,0|8,0:0|0:0,0:0:0:0:
248,180,166550,5,0,0:0:0:0:
336,304,166700,2,0,L|325:266,1,40
260,324,166925,1,0,0:0:0:0:
260,324,167000,1,8,0:0:0:0:
368,152,167150,2,0,L|379:190,1,40
444,132,167375,1,0,0:0:0:0:
444,132,167450,2,0,L|460:120,2,20,0|0|8,0:0|0:0|0:0,0:0:0:0:
328,64,167750,2,0,L|308:61,1,20
250,118,167900,2,0,L|230:115,1,20
300,185,168050,2,0,L|319:182,1,20
378,239,168200,2,0,L|418:235,3,40,8|0|0|0,0:0|0:0|0:0|0:0,0:0:0:0:
296,96,168800,6,2,P|244:92|204:76,1,80,8|0,0:0|0:0,0:0:0:0:
69,215,169250,1,0,0:0:0:0:
69,215,169400,2,2,P|108:226|148:228,1,80,8|0,0:0|0:0,0:0:0:0:
294,300,169850,1,0,0:0:0:0:
294,300,170000,2,2,P|255:289|216:288,1,80,8|0,0:0|0:0,0:0:0:0:
364,155,170450,1,0,0:0:0:0:
364,155,170600,2,0,P|393:156|423:159,1,60,8|0,0:0|0:0,0:0:0:0:
312,172,170900,6,2,P|272:176|228:160,1,80,2|8,0:0|0:0,0:0:0:0:
156,140,171350,1,0,0:0:0:0:
84,104,171500,2,0,L|40:124,1,40,2|0,0:0|0:0,0:0:0:0:
12,192,171800,1,8,0:0:0:0:
12,192,171950,1,0,0:0:0:0:
200,212,172100,6,2,P|240:208|284:224,1,80,2|8,0:0|0:0,0:0:0:0:
356,244,172550,1,0,0:0:0:0:
428,280,172700,2,0,L|472:260,1,40,2|0,0:0|0:0,0:0:0:0:
448,124,173000,2,0,L|408:88,2,40,8|0|0,0:0|0:0|0:0,0:0:0:0:
372,152,173450,1,0,0:0:0:0:
216,288,173600,6,2,P|268:292|308:308,1,80,8|0,0:0|0:0,0:0:0:0:
420,340,174050,1,0,0:0:0:0:
356,224,174200,2,2,P|325:197|291:179,1,80,8|0,0:0|0:0,0:0:0:0:
168,132,174650,1,0,0:0:0:0:
296,100,174800,2,2,P|334:87|369:67,1,80,8|0,0:0|0:0,0:0:0:0:
240,40,175250,1,0,0:0:0:0:
108,44,175400,2,2,P|78:45|48:48,1,60,8|0,0:0|0:0,0:0:0:0:
80,128,175700,6,2,P|58:162|53:208,1,80,2|8,0:0|0:0,0:0:0:0:
56,332,176150,1,0,0:0:0:0:
128,188,176300,2,0,L|172:168,1,40,2|0,0:0|0:0,0:0:0:0:
288,124,176600,1,8,0:0:0:0:
180,268,176750,1,0,0:0:0:0:
372,140,176900,6,2,P|352:175|313:201,1,80,2|8,0:0|0:0,0:0:0:0:
132,328,177350,1,0,0:0:0:0:
264,332,177500,2,0,L|300:315,1,40,2|0,0:0|0:0,0:0:0:0:
424,264,177800,2,0,L|464:300,2,40,8|0|0,0:0|0:0|0:0,0:0:0:0:
288,124,178250,1,0,0:0:0:0:
208,16,178400,6,2,P|169:51|147:88,1,80,8|0,0:0|0:0,0:0:0:0:
100,200,178850,1,0,0:0:0:0:
148,328,179000,2,2,P|182:306|209:277,1,80,8|0,0:0|0:0,0:0:0:0:
288,124,179450,1,0,0:0:0:0:
420,152,179600,2,2,P|396:184|365:209,1,80,8|0,0:0|0:0,0:0:0:0:
268,288,180050,1,0,0:0:0:0:
168,196,180200,2,2,P|146:175|123:155,1,60,8|0,0:0|0:0,0:0:0:0:
80,104,180500,6,2,L|113:82,2,40,2|0|8,0:0|0:0|0:0,0:0:0:0:
256,68,180950,1,0,0:0:0:0:
393,94,181100,2,0,L|432:104,1,40,2|0,0:0|0:0,0:0:0:0:
304,144,181400,1,8,0:0:0:0:
304,144,181550,1,0,0:0:0:0:
188,216,181700,6,0,L|154:237,2,40,2|0|0,0:0|0:0|0:0,0:0:0:0:
324,232,182150,2,0,L|357:210,2,40,0|2|0,0:0|0:0|0:0,0:0:0:0:
260,352,182600,2,2,L|224:376,1,40,8|0,0:0|0:0,0:0:0:0:
340,296,182900,1,2,0:0:0:0:
448,212,183050,1,2,0:0:0:0:
440,76,183200,6,2,P|402:112|380:149,1,80,8|0,0:0|0:0,0:0:0:0:
256,168,183650,1,0,0:0:0:0:
125,134,183800,2,2,P|101:102|72:76,1,80,8|0,0:0|0:0,0:0:0:0:
180,260,184250,1,0,0:0:0:0:
332,260,184400,2,2,P|309:293|278:319,1,80,8|0,0:0|0:0,0:0:0:0:
256,184,184850,1,0,0:0:0:0:
200,60,185000,2,2,P|223:27|254:1,1,80,8|0,0:0|0:0,0:0:0:0:
364,80,185450,1,0,0:0:0:0:
148,304,185600,5,12,0:0:0:0:
256,192,185750,12,2,186800,0:0:0:0:
352,104,187100,5,2,0:0:0:0:
432,244,187400,1,2,0:0:0:0:
388,312,187550,1,2,0:0:0:0:
312,332,187700,2,0,P|272:335|232:334,1,80,2|4,0:0|0:0,0:0:0:0:
72,316,189200,5,4,0:0:0:0:
172,192,190400,5,4,0:0:0:0:
172,192,190700,5,2,0:0:0:0:
212,192,191000,1,2,0:0:0:0:
252,200,191300,1,2,0:0:0:0:
288,216,191600,1,6,0:0:0:0:
408,312,192200,1,2,0:0:0:0:
328,312,192800,5,4,0:0:0:0:
180,256,194000,5,4,0:0:0:0:
412,192,195200,5,4,0:0:0:0:
104,112,196400,6,0,L|180:88,1,80,4|0,0:0|0:0,0:0:0:0:
256,196,197150,1,2,0:0:0:0:
369,100,197300,2,0,L|332:88,1,40,2|4,0:0|0:0,0:0:0:0:
20,216,198200,1,4,0:0:0:0:
372,192,198800,5,4,0:0:0:0:
28,64,199400,1,4,0:0:0:0:
332,296,200000,5,4,0:0:0:0:
144,224,200300,6,0,L|104:208,1,40,2|0,0:0|0:0,0:0:0:0:
180,136,200600,2,0,L|168:96,1,40,6|0,0:0|0:0,0:0:0:0:
276,108,200900,2,0,L|284:68,1,40,2|0,0:0|0:0,0:0:0:0:
372,136,201200,2,0,P|399:115|484:104,1,120,6|0,0:0|0:0,0:0:0:0:
420,204,201800,2,0,P|392:224|308:236,1,120,6|0,0:0|0:0,0:0:0:0:
76,296,202400,6,8,L|110:275,3,40,4|8|8|8,0:0|0:0|0:0|0:0,0:0:0:0:
200,192,202700,2,8,L|166:213,3,40,4|8|8|8,0:0|0:0|0:0|0:0,0:0:0:0:
4,268,203000,2,8,L|30:238,3,40,4|8|8|8,0:0|0:0|0:0|0:0,0:0:0:0:
94,133,203300,2,8,L|65:161,3,40,4|8|8|8,0:0|0:0|0:0|0:0,0:0:0:0:
136,116,203600,5,4,0:0:0:0:
184,116,203675,1,8,0:0:0:0:
228,132,203750,1,8,0:0:0:0:
268,156,203825,1,8,0:0:0:0:
296,196,203900,1,4,0:0:0:0:
296,244,203975,1,8,0:0:0:0:
268,284,204050,1,8,0:0:0:0:
220,292,204125,1,8,0:0:0:0:
176,272,204200,1,4,0:0:0:0:
148,232,204275,1,8,0:0:0:0:
152,184,204350,1,8,0:0:0:0:
180,144,204425,1,8,0:0:0:0:
220,116,204500,1,4,0:0:0:0:
260,92,204575,1,8,0:0:0:0:
300,64,204650,1,8,0:0:0:0:
332,28,204725,1,8,0:0:0:0:
352,72,204800,6,12,L|364:124,1,40
328,224,204950,2,12,L|319:185,1,40
280,296,205100,2,12,L|292:348,1,40
204,252,205250,2,12,L|195:213,1,40
56,242,205400,2,12,L|48:204,1,40
228,96,205550,2,12,L|236:134,1,40
135,285,205700,2,12,L|144:324,1,40
116,140,205850,2,12,L|107:101,1,40
256,276,206000,6,0,L|320:324,1,80,14|0,0:0|0:0,0:0:0:0:
398,260,206225,2,0,L|320:244,1,80,14|0,0:0|0:0,0:0:0:0:
364,188,206450,2,0,L|441:169,1,80,14|0,0:0|0:0,0:0:0:0:
192,60,207200,6,0,L|256:108,1,80,14|0,0:0|0:0,0:0:0:0:
192,140,207425,2,0,L|113:123,1,80,14|0,0:0|0:0,0:0:0:0:
70,214,207650,2,0,L|148:196,1,80,14|8,0:0|0:0,0:0:0:0:
268,304,207875,5,8,0:0:0:0:
243,327,207950,1,8,0:0:0:0:
214,342,208025,1,8,0:0:0:0:
182,349,208100,1,8,0:0:0:0:
150,348,208175,1,8,0:0:0:0:
123,331,208250,1,8,0:0:0:0:
100,310,208325,1,8,0:0:0:0:
86,281,208400,6,0,P|152:240|206:185,1,155.999992858887,12|0,0:0|0:0,0:0:0:0:
220,94,208700,2,0,P|176:120|138:155,1,103.999995239258,2|0,0:0|0:0,0:0:0:0:
291,68,209000,1,8,0:0:0:0:
259,165,209150,1,0,0:0:0:0:
361,178,209300,6,0,P|295:220|241:274,1,155.999992858887,2|0,0:0|0:0,0:0:0:0:
265,57,209600,6,0,P|307:123|362:177,1,155.999992858887,12|0,0:0|0:0,0:0:0:0:
453,191,209900,2,0,P|426:146|391:108,1,103.999995239258,2|0,0:0|0:0,0:0:0:0:
479,262,210200,1,8,0:0:0:0:
382,229,210350,1,0,0:0:0:0:
368,332,210500,6,0,P|327:265|272:211,1,155.999992858887,2|0,0:0|0:0,0:0:0:0:
115,343,210800,6,0,P|202:285|273:210,1,207.999990478516,12|2,0:0|0:0,0:0:0:0:
353,37,211250,1,0,0:0:0:0:
96,126,211400,2,0,L|189:79,1,103.999995239258,8|0,0:0|0:0,0:0:0:0:
359,103,211700,2,0,L|313:125,1,51.999997619629,10|0,0:0|0:0,0:0:0:0:
412,166,211850,2,0,P|439:122|433:71,1,103.999995239258,2|8,0:0|0:0,0:0:0:0:
243,158,212150,1,0,0:0:0:0:
207,256,212300,6,0,P|258:253|303:228,1,103.999995239258,2|0,0:0|0:0,0:0:0:0:
477,271,212600,2,0,P|487:221|474:172,1,103.999995239258,8|0,0:0|0:0,0:0:0:0:
387,37,212825,1,0,0:0:0:0:
387,37,212900,2,0,P|350:132|259:177,1,207.999990478516,2|12,0:0|0:0,0:0:0:0:
17,133,213350,1,0,0:0:0:0:
17,133,213500,6,0,P|31:205|72:284,1,155.999992858887,2|0,0:0|0:0,0:0:0:0:
140,353,213800,2,0,P|154:303|137:255,1,103.999995239258,8|0,0:0|0:0,0:0:0:0:
494,250,214100,2,0,P|480:178|439:99,1,155.999992858887,2|0,0:0|0:0,0:0:0:0:
371,30,214400,6,0,P|357:79|375:127,1,103.999995239258,8|0,0:0|0:0,0:0:0:0:
394,303,214700,1,2,0:0:0:0:
286,181,214850,1,0,0:0:0:0:
82,158,215000,2,0,P|130:177|180:172,1,103.999995239258,8|0,0:0|0:0,0:0:0:0:
368,54,215300,2,0,P|343:99|301:128,1,103.999995239258,2|0,0:0|0:0,0:0:0:0:
209,64,215600,1,12,0:0:0:0:
260,203,215750,1,0,0:0:0:0:
208,386,215900,6,0,P|284:369|351:330,1,155.999992858887,2|0,0:0|0:0,0:0:0:0:
412,270,216200,2,0,P|362:258|312:272,1,103.999995239258,8|0,0:0|0:0,0:0:0:0:
303,0,216500,2,0,P|228:12|161:51,1,155.999992858887,2|0,0:0|0:0,0:0:0:0:
100,112,216800,6,0,P|150:124|199:110,1,103.999995239258,8|0,0:0|0:0,0:0:0:0:
348,77,217100,1,2,0:0:0:0:
349,77,217250,2,0,P|423:143|429:167,1,103.999995239258,0|8,0:0|0:0,0:0:0:0:
372,277,217475,1,8,0:0:0:0:
372,277,217550,1,8,0:0:0:0:
372,277,217625,5,8,0:0:0:0:
321,291,217700,1,2,0:0:0:0:
268,285,217775,1,8,0:0:0:0:
222,263,217850,1,8,0:0:0:0:
187,225,217925,1,8,0:0:0:0:
82,148,218000,6,0,P|140:144|191:155,1,103.999995239258,6|0,0:0|0:0,0:0:0:0:
383,167,218300,2,0,P|334:184|282:195,1,103.999995239258,8|0,0:0|0:0,0:0:0:0:
122,198,218600,1,2,0:0:0:0:
85,296,218750,1,0,0:0:0:0:
158,368,218900,2,0,P|211:374|255:341,1,103.999995239258,8|0,0:0|0:0,0:0:0:0:
359,306,219200,2,0,P|409:301|443:264,2,103.999995239258,2|0|8,0:0|0:0|0:0,0:0:0:0:
204,49,219650,2,0,L|275:244,1,207.999990478516
310,342,220100,1,8,0:0:0:0:
310,342,220250,1,0,0:0:0:0:
392,115,220400,6,0,P|431:150|457:195,1,103.999995239258,2|0,0:0|0:0,0:0:0:0:
290,111,220700,2,0,P|252:76|225:31,1,103.999995239258,8|0,0:0|0:0,0:0:0:0:
321,191,221000,2,0,P|361:226|387:270,1,103.999995239258,2|0,0:0|0:0,0:0:0:0:
220,187,221300,2,0,P|182:152|155:108,1,103.999995239258,8|0,0:0|0:0,0:0:0:0:
220,187,221600,2,0,P|242:213|155:326,1,207.999990478516,2|8,0:0|0:0,0:0:0:0:
106,237,222050,1,0,0:0:0:0:
106,237,222200,1,2,0:0:0:0:
232,102,222350,1,0,0:0:0:0:
232,102,222500,1,8,0:0:0:0:
512,224,222800,5,12,0:0:0:0:
440,268,222950,2,0,L|265:381,1,207.999990478516,4|4,0:0|0:0,0:0:0:0:
159,144,223550,2,0,L|333:30,1,207.999990478516,4|4,0:0|0:0,0:0:0:0:
319,236,224150,1,4,0:0:0:0:
366,125,224300,2,0,P|270:166|192:234,1,207.999990478516,12|4,0:0|0:0,0:0:0:0:
0,352,224750,1,0,0:0:0:0:
193,234,224900,2,0,B|234:192|253:146|251:148,1,103.999995239258,4|0,0:0|0:0,0:0:0:0:
425,102,225200,6,0,P|359:143|305:198,1,155.999992858887,12|0,0:0|0:0,0:0:0:0:
291,289,225500,2,0,P|335:263|373:228,1,103.999995239258,2|0,0:0|0:0,0:0:0:0:
220,315,225800,1,8,0:0:0:0:
252,218,225950,1,0,0:0:0:0:
150,205,226100,6,0,P|216:163|270:109,1,155.999992858887,2|0,0:0|0:0,0:0:0:0:
246,326,226400,6,0,P|204:260|149:206,1,155.999992858887,12|0,0:0|0:0,0:0:0:0:
58,192,226700,2,0,P|85:237|120:275,1,103.999995239258,2|0,0:0|0:0,0:0:0:0:
32,121,227000,1,8,0:0:0:0:
129,154,227150,1,0,0:0:0:0:
143,51,227300,6,0,P|184:118|239:172,1,155.999992858887,2|0,0:0|0:0,0:0:0:0:
396,40,227600,6,0,P|309:98|238:173,1,207.999990478516,12|2,0:0|0:0,0:0:0:0:
158,346,228050,1,0,0:0:0:0:
415,257,228200,2,0,L|322:304,1,103.999995239258,8|0,0:0|0:0,0:0:0:0:
152,280,228500,2,0,L|198:258,1,51.999997619629,10|0,0:0|0:0,0:0:0:0:
99,217,228650,2,0,P|72:261|78:312,1,103.999995239258,2|8,0:0|0:0,0:0:0:0:
268,225,228950,1,0,0:0:0:0:
304,127,229100,6,0,P|253:130|208:155,1,103.999995239258,2|0,0:0|0:0,0:0:0:0:
34,112,229400,2,0,P|24:162|37:211,1,103.999995239258,8|0,0:0|0:0,0:0:0:0:
124,346,229625,1,0,0:0:0:0:
124,346,229700,2,0,P|161:251|252:206,1,207.999990478516,2|12,0:0|0:0,0:0:0:0:
494,250,230150,1,0,0:0:0:0:
494,250,230300,6,0,P|480:178|439:99,1,155.999992858887,2|0,0:0|0:0,0:0:0:0:
371,30,230600,2,0,P|357:80|374:128,1,103.999995239258,8|0,0:0|0:0,0:0:0:0:
17,133,230900,2,0,P|31:205|72:284,1,155.999992858887,2|0,0:0|0:0,0:0:0:0:
140,353,231200,6,0,P|154:304|136:256,1,103.999995239258,8|0,0:0|0:0,0:0:0:0:
117,80,231500,1,2,0:0:0:0:
225,202,231650,1,0,0:0:0:0:
429,225,231800,2,0,P|381:206|331:211,1,103.999995239258,8|0,0:0|0:0,0:0:0:0:
143,329,232100,2,0,P|168:284|210:255,1,103.999995239258,2|0,0:0|0:0,0:0:0:0:
302,319,232400,1,12,0:0:0:0:
251,180,232550,1,0,0:0:0:0:
303,0,232700,6,0,P|227:14|160:53,1,155.999992858887,2|0,0:0|0:0,0:0:0:0:
99,113,233000,2,0,P|149:125|199:111,1,103.999995239258,8|0,0:0|0:0,0:0:0:0:
208,388,233300,2,0,P|283:371|350:332,1,155.999992858887,2|0,0:0|0:0,0:0:0:0:
411,271,233600,6,0,P|361:259|312:273,1,103.999995239258,8|0,0:0|0:0,0:0:0:0:
163,306,233900,1,2,0:0:0:0:
162,306,234050,2,0,P|88:240|82:216,1,103.999995239258,0|8,0:0|0:0,0:0:0:0:
139,106,234275,1,8,0:0:0:0:
139,106,234350,1,8,0:0:0:0:
139,106,234425,5,8,0:0:0:0:
190,92,234500,1,2,0:0:0:0:
243,98,234575,1,8,0:0:0:0:
289,120,234650,1,8,0:0:0:0:
324,158,234725,1,8,0:0:0:0:
429,235,234800,6,0,P|371:239|320:228,1,103.999995239258,6|0,0:0|0:0,0:0:0:0:
128,216,235100,2,0,P|177:199|229:188,1,103.999995239258,8|0,0:0|0:0,0:0:0:0:
389,185,235400,1,2,0:0:0:0:
426,87,235550,1,0,0:0:0:0:
353,15,235700,2,0,P|300:9|256:42,1,103.999995239258,8|0,0:0|0:0,0:0:0:0:
152,77,236000,2,0,P|102:82|68:119,2,103.999995239258,2|0|8,0:0|0:0|0:0,0:0:0:0:
307,334,236450,2,0,L|236:139,1,207.999990478516
201,41,236900,1,8,0:0:0:0:
201,41,237050,1,0,0:0:0:0:
119,268,237200,6,0,P|80:233|54:188,1,103.999995239258,2|0,0:0|0:0,0:0:0:0:
221,272,237500,2,0,P|259:307|286:352,1,103.999995239258,8|0,0:0|0:0,0:0:0:0:
190,192,237800,2,0,P|150:157|124:113,1,103.999995239258,2|0,0:0|0:0,0:0:0:0:
291,196,238100,2,0,P|329:231|356:275,1,103.999995239258,8|0,0:0|0:0,0:0:0:0:
291,196,238400,2,0,P|269:170|356:57,1,207.999990478516,2|8,0:0|0:0,0:0:0:0:
405,146,238850,1,0,0:0:0:0:
405,146,239000,1,2,0:0:0:0:
279,281,239150,1,0,0:0:0:0:
279,281,239300,1,8,0:0:0:0:
0,160,239600,5,12,0:0:0:0:
72,116,239750,2,0,L|246:2,1,207.999990478516,4|4,0:0|0:0,0:0:0:0:
353,240,240350,2,0,L|178:353,1,207.999990478516,4|4,0:0|0:0,0:0:0:0:
193,148,240950,1,4,0:0:0:0:
146,259,241100,2,0,P|241:217|319:149,1,207.999990478516,12|4,0:0|0:0,0:0:0:0:
511,31,241550,1,0,0:0:0:0:
318,149,241700,2,0,B|276:191|258:237|259:234,1,103.999995239258,4|0,0:0|0:0,0:0:0:0:
0,160,242000,5,12,0:0:0:0:
72,116,242150,2,0,L|246:2,1,207.999990478516,4|4,0:0|0:0,0:0:0:0:
353,240,242750,2,0,L|178:353,1,207.999990478516,4|4,0:0|0:0,0:0:0:0:
193,148,243350,1,4,0:0:0:0:
146,259,243500,2,0,P|241:217|319:149,1,207.999990478516,12|4,0:0|0:0,0:0:0:0:
511,31,243950,1,0,0:0:0:0:
318,149,244100,2,0,B|276:191|258:237|259:234,1,103.999995239258,4|0,0:0|0:0,0:0:0:0:
0,160,244400,5,12,0:0:0:0:
72,116,244550,2,0,L|246:2,1,207.999990478516,4|4,0:0|0:0,0:0:0:0:
353,240,245150,2,0,L|178:353,1,207.999990478516,4|4,0:0|0:0,0:0:0:0:
193,148,245750,1,4,0:0:0:0:
146,259,245900,2,0,P|241:217|264:208,1,103.999995239258,12|4,0:0|0:0,0:0:0:0:
284,220,246125,1,0,0:0:0:0:
316,248,246200,2,0,L|360:288,1,51.999997619629
460,284,246350,2,0,L|416:244,1,51.999997619629
332,160,246500,2,0,L|376:200,1,51.999997619629
476,196,246650,2,0,L|432:156,1,51.999997619629
256,192,246800,12,0,247400,0:0:0:0:
256,192,247700,12,0,249200,0:0:0:0:
209,153,256400,6,0,P|205:204|177:248,1,103.999995239258,6|2,0:0|0:0,0:0:0:0:
177,248,256850,1,4,0:0:0:0:
335,248,257450,5,4,0:0:0:0:
423,83,257750,2,0,P|323:85|264:166,1,207.999990478516,4|2,0:0|0:0,0:0:0:0:
203,377,258200,5,2,0:0:0:0:
423,83,258350,1,2,0:0:0:0:
73,186,258500,1,8,0:0:0:0:
430,309,258650,5,2,0:0:0:0:
217,14,258800,1,12,0:0:0:0:
256,192,258950,12,2,262400,0:0:0:0:
