osu file format v14

[General]
AudioFilename: audio.mp3
AudioLeadIn: 0
PreviewTime: 211611
Countdown: 0
SampleSet: None
StackLeniency: 0.7
Mode: 0
LetterboxInBreaks: 0
WidescreenStoryboard: 1

[Editor]
Bookmarks: 14192,24515,34837,45160,55482,65805,76128,86450,91611,101934,107095,112257,171611,192257,254192
DistanceSpacing: 1.7
BeatDivisor: 4
GridSize: 4
TimelineZoom: 1.8

[Metadata]
Title:Nippon Manju
TitleUnicode:ニッポン饅頭
Artist:LADYBABY
ArtistUnicode:LADYBABY
Creator:Shmiklak
Version:Anime, noodles, idols, icons!
Source:
Tags:marvollo m_a_r_v_o_l_l_o daycore themefisto rock j-rock jrock japanese idols
BeatmapID:1899764
BeatmapSetID:910392

[Difficulty]
HPDrainRate:7
CircleSize:4
OverallDifficulty:9
ApproachRate:9.3
SliderMultiplier:1.9
SliderTickRate:1

[Events]
//Background and Video events
Video,0,"meow.avi"
0,0,"aa.jpg",0,0
//Break Periods
//Storyboard Layer 0 (Background)
//Storyboard Layer 1 (Fail)
//Storyboard Layer 2 (Pass)
//Storyboard Layer 3 (Foreground)
//Storyboard Sound Samples

[TimingPoints]
2579,322.58064516129,4,3,1,80,1,0
3870,322.58064516129,4,3,1,80,1,0
3870,-250,4,3,1,80,0,0
6289,-250,4,3,1,5,0,0
6450,-250,4,3,1,80,0,0
8869,-250,4,3,1,5,0,0
9031,-125,4,3,1,80,0,0
13869,-50,4,3,1,40,0,0
14192,-100,4,3,1,80,0,0
24515,-125,4,3,1,80,0,0
25079,-125,4,3,1,5,0,0
25160,-125,4,3,1,80,0,0
27660,-125,4,3,1,5,0,0
27740,-125,4,3,1,80,0,0
30240,-125,4,3,1,5,0,0
30321,-125,4,3,1,80,0,0
32821,-125,4,3,1,5,0,0
32902,-125,4,3,1,80,0,0
34837,-100,4,3,1,80,0,0
45160,-125,4,3,1,80,0,0
45724,-125,4,3,1,5,0,0
45805,-125,4,3,1,80,0,0
47337,-125,4,3,1,5,0,0
47418,-125,4,3,1,80,0,0
50886,-125,4,3,1,5,0,0
50966,-125,4,3,1,80,0,0
55482,-100,4,3,1,80,0,0
64031,-100,4,3,1,5,0,0
64111,-100,4,3,1,80,0,0
64273,-100,4,3,1,5,0,0
64353,-100,4,3,1,80,0,0
64515,-100,4,3,1,5,0,0
64676,-100,4,3,1,80,0,0
65805,-100,4,3,1,100,0,1
67337,-100,4,3,1,5,0,1
67418,-100,4,3,1,100,0,1
71934,-133.333333333333,4,3,1,100,0,1
72176,-133.333333333333,4,3,1,5,0,1
72257,-100,4,3,1,100,0,1
73224,-133.333333333333,4,3,1,100,0,1
73466,-133.333333333333,4,3,1,5,0,1
73547,-100,4,3,1,100,0,1
76047,-100,4,3,1,100,0,0
76128,-100,4,3,1,100,0,1
77660,-100,4,3,1,5,0,1
77740,-100,4,3,1,100,0,1
82257,-133.333333333333,4,3,1,100,0,1
82499,-133.333333333333,4,3,1,5,0,1
82579,-100,4,3,1,100,0,1
83547,-133.333333333333,4,3,1,100,0,1
83789,-133.333333333333,4,3,1,5,0,1
83869,-100,4,3,1,100,0,1
86450,-100,4,3,1,100,0,0
90966,-66.6666666666667,4,3,1,100,0,0
91531,-66.6666666666667,4,3,1,5,0,0
91611,-100,4,3,1,100,0,0
107095,-125,4,3,1,100,0,0
111773,-100,4,3,1,100,0,0
122579,-100,4,3,1,100,0,1
124111,-100,4,3,1,5,0,1
124192,-100,4,3,1,100,0,1
128708,-133.333333333333,4,3,1,100,0,1
128950,-133.333333333333,4,3,1,5,0,1
129031,-100,4,3,1,100,0,1
129999,-133.333333333333,4,3,1,100,0,1
130240,-133.333333333333,4,3,1,5,0,1
130321,-100,4,3,1,100,0,1
132821,-100,4,3,1,100,0,0
132902,-100,4,3,1,100,0,1
134434,-100,4,3,1,5,0,1
134515,-100,4,3,1,100,0,1
139031,-133.333333333333,4,3,1,100,0,1
139273,-133.333333333333,4,3,1,5,0,1
139353,-100,4,3,1,100,0,1
140321,-133.333333333333,4,3,1,100,0,1
140563,-133.333333333333,4,3,1,5,0,1
140644,-100,4,3,1,100,0,1
143224,-100,4,3,1,100,0,0
148386,-133.333333333333,4,3,1,100,0,0
150321,-250,4,3,1,100,0,0
150886,-250,4,3,1,5,0,0
150966,-133.333333333333,4,3,1,100,0,0
171450,-133.333333333333,4,3,1,5,0,0
171611,-100,4,3,1,100,0,0
173144,-100,4,3,1,5,0,0
173224,-100,4,3,1,100,0,0
192257,-200,4,3,1,50,0,0
193386,-200,4,3,1,5,0,0
193547,-166.666666666667,4,3,1,50,0,0
194676,-166.666666666667,4,3,1,5,0,0
194837,-142.857142857143,4,3,1,50,0,0
195966,-142.857142857143,4,3,1,5,0,0
196128,-200,4,3,1,50,0,0
198547,-200,4,3,1,5,0,0
198708,-166.666666666667,4,3,1,50,0,0
199837,-166.666666666667,4,3,1,5,0,0
199999,-142.857142857143,4,3,1,50,0,0
201128,-142.857142857143,4,3,1,5,0,0
201289,-200,4,3,1,50,0,0
201934,-100,4,3,1,60,0,0
211773,-100,4,3,1,70,0,0
211934,-100,4,3,1,80,0,0
212095,-100,4,3,1,90,0,0
212257,-100,4,3,1,100,0,0
212902,-100,4,3,1,100,0,1
214434,-100,4,3,1,5,0,1
214515,-100,4,3,1,100,0,1
219031,-133.333333333333,4,3,1,100,0,1
219273,-133.333333333333,4,3,1,5,0,1
219353,-100,4,3,1,100,0,1
220321,-133.333333333333,4,3,1,100,0,1
220563,-133.333333333333,4,3,1,5,0,1
220644,-100,4,3,1,100,0,1
223144,-100,4,3,1,100,0,0
223224,-100,4,3,1,100,0,1
224757,-100,4,3,1,5,0,1
224837,-100,4,3,1,100,0,1
229353,-133.333333333333,4,3,1,100,0,1
229595,-133.333333333333,4,3,1,5,0,1
229676,-100,4,3,1,100,0,1
230644,-133.333333333333,4,3,1,100,0,1
230886,-133.333333333333,4,3,1,5,0,1
230966,-100,4,3,1,100,0,1
233547,-100,4,3,1,100,0,0
255482,-100,4,3,1,80,0,0
256773,-100,4,3,1,60,0,0
258063,-100,4,3,1,40,0,0
259353,-100,4,3,1,30,0,0
260644,-100,4,3,1,20,0,0
261934,-100,4,3,1,5,0,0

[Colours]
Combo1 : 240,191,100
Combo2 : 120,230,79
Combo3 : 120,198,214
Combo4 : 250,122,199

[HitObjects]
26,33,2579,5,0,0:0:0:0:
26,33,2902,1,2,0:2:0:0:
26,33,3224,1,0,0:0:0:0:
26,33,3547,1,2,0:0:0:0:
26,33,3870,6,0,B|65:51|107:35|107:35|114:72|144:104|144:104|174:82|197:35|197:35|218:155|269:167|342:160|370:127|371:72|338:38|296:55,1,570,4|0,0:1|0:0,0:0:0:0:
207,200,6450,6,0,B|174:249|223:298|282:294|303:263|310:218|310:218|336:252|380:256|406:241|406:241|438:222|522:240|513:343|460:384|402:368|384:331,1,570,4|0,0:1|0:0,0:0:0:0:
372,172,9031,6,0,P|377:133|384:96,1,76,4|0,0:1|0:0,0:0:0:0:
244,32,9353,2,0,P|250:69|255:107,1,76,4|0,0:0|0:0,0:0:0:0:
352,192,9676,2,0,P|357:153|364:116,1,76,4|0,0:0|0:0,0:0:0:0:
224,52,9998,2,0,P|230:89|235:127,1,76,4|0,0:0|0:0,0:0:0:0:
144,288,10321,6,0,B|106:277|106:277|60:288,1,76,4|0,0:0|0:0,0:0:0:0:
256,328,10644,2,0,B|294:339|294:339|340:328,1,76,4|0,0:0|0:0,0:0:0:0:
128,304,10966,2,0,B|90:293|90:293|44:304,1,76,4|0,0:0|0:0,0:0:0:0:
252,300,11289,2,0,B|290:311|290:311|336:300,1,76,4|0,0:0|0:0,0:0:0:0:
488,208,11611,5,4,0:0:0:0:
304,160,11773,1,4,0:0:0:0:
428,288,11934,5,4,0:0:0:0:
408,96,12095,1,4,0:0:0:0:
512,304,12257,5,4,0:0:0:0:
492,116,12418,1,4,0:0:0:0:
340,264,12579,5,4,0:0:0:0:
512,208,12740,1,4,0:0:0:0:
280,176,12902,5,4,0:0:0:0:
460,308,13063,1,4,0:0:0:0:
332,104,13224,5,4,0:0:0:0:
304,352,13386,1,4,0:0:0:0:
440,188,13547,5,0,0:0:0:0:
450,151,13627,1,0,0:0:0:0:
450,113,13708,1,0,0:0:0:0:
439,77,13788,1,0,0:0:0:0:
421,44,13869,6,2,B|389:53|373:80|373:80|352:80|337:64|337:64|316:69|305:88|305:88|280:60|253:48|253:48|214:73|224:112|254:107,1,285,2|0,0:1|0:0,0:2:0:0:
312,192,14192,6,0,B|319:243|319:243|306:307,1,95,4|0,0:1|0:0,0:0:0:0:
169,355,14515,2,0,B|160:307|160:307|168:261,1,95,8|0,0:0|0:0,0:0:0:0:
191,233,14757,1,0,0:0:0:0:
191,233,14837,1,4,0:0:0:0:
103,111,14999,1,0,0:0:0:0:
103,111,15079,1,0,0:0:0:0:
103,111,15160,1,8,0:0:0:0:
57,291,15321,1,0,0:0:0:0:
4,180,15482,5,4,0:0:0:0:
188,208,15644,1,0,0:0:0:0:
188,208,15724,1,0,0:0:0:0:
188,208,15805,2,0,B|236:196|236:196|297:209,1,95,8|0,0:0|0:0,0:0:0:0:
412,308,16128,1,4,0:0:0:0:
352,128,16289,1,0,0:0:0:0:
332,352,16450,1,8,0:0:0:0:
424,192,16611,1,0,0:0:0:0:
260,292,16773,6,0,B|213:303|213:303|161:285,1,95,4|0,0:0|0:0,0:0:0:0:
4,224,17095,1,8,0:0:0:0:
84,356,17257,1,0,0:0:0:0:
84,356,17337,1,0,0:0:0:0:
84,356,17418,1,4,0:0:0:0:
120,172,17579,1,0,0:0:0:0:
0,328,17740,1,8,0:0:0:0:
160,260,17902,1,0,0:0:0:0:
0,248,18063,5,4,0:0:0:0:
164,348,18225,1,0,0:0:0:0:
164,348,18305,1,0,0:0:0:0:
164,348,18386,2,0,B|208:337|208:337|276:344,1,95,8|0,0:0|0:0,0:0:0:0:
376,228,18708,1,4,0:0:0:0:
232,264,18869,1,0,0:0:0:0:
427,303,19031,1,8,0:0:0:0:
291,211,19192,1,0,0:0:0:0:
440,120,19353,6,0,L|448:228,1,95,4|0,0:1|0:0,0:0:0:0:
348,368,19676,1,10,0:0:0:0:
504,344,19837,1,0,0:0:0:0:
504,344,19918,1,0,0:0:0:0:
504,344,19999,1,6,0:0:0:0:
320,288,20160,1,0,0:0:0:0:
480,176,20321,2,0,L|459:282,1,95,8|0,0:0|0:0,0:0:0:0:
344,116,20644,5,4,0:0:0:0:
483,58,20805,1,0,0:0:0:0:
483,58,20886,1,0,0:0:0:0:
483,58,20966,1,8,0:0:0:0:
280,60,21128,1,0,0:0:0:0:
492,144,21289,1,4,0:0:0:0:
268,156,21450,1,0,0:0:0:0:
400,24,21611,1,8,0:0:0:0:
364,208,21773,1,0,0:0:0:0:
196,107,21934,6,0,L|180:207,1,95,4|0,0:0|0:0,0:0:0:0:
41,300,22257,2,0,L|25:206,1,95,8|0,0:0|0:0,0:0:0:0:
35,173,22499,1,0,0:0:0:0:
35,173,22579,1,4,0:0:0:0:
246,229,22740,1,0,0:0:0:0:
57,288,22902,1,8,0:0:0:0:
267,338,23063,1,0,0:0:0:0:
410,235,23224,5,8,0:0:0:0:
436,196,23305,1,8,0:0:0:0:
436,149,23386,1,0,0:0:0:0:
411,110,23466,1,0,0:0:0:0:
368,91,23547,6,0,L|307:99,1,47.5,8|0,0:0|0:0,0:0:0:0:
229,27,23708,2,0,L|276:32,1,47.5
228,128,23869,5,4,0:0:0:0:
197,164,23949,1,4,0:0:0:0:
157,189,24030,1,4,0:0:0:0:
111,199,24110,1,4,0:0:0:0:
63,202,24192,5,8,0:0:0:0:
20,182,24272,1,8,0:0:0:0:
1,139,24353,1,8,0:0:0:0:
14,95,24433,1,8,0:0:0:0:
53,69,24515,6,0,P|80:72|108:84,3,38,4|0|0|0,0:1|0:0|0:0|0:0,0:0:0:0:
152,132,24837,2,0,P|204:116|272:120,1,114,4|0,0:0|0:0,0:0:0:0:
295,139,25160,1,8,0:0:0:0:
392,240,25321,1,4,0:0:0:0:
348,80,25482,1,4,0:0:0:0:
300,228,25644,1,4,0:0:0:0:
252,40,25805,5,2,0:0:0:0:
444,76,25966,1,4,0:0:0:0:
444,76,26047,1,4,0:0:0:0:
444,76,26128,1,4,0:0:0:0:
295,139,26289,1,4,0:0:0:0:
364,8,26450,5,8,0:0:0:0:
446,246,26611,1,4,0:0:0:0:
297,304,26773,6,4,L|249:297,3,38
208,240,27095,5,4,0:0:0:0:
173,225,27175,1,4,0:0:0:0:
135,222,27256,1,4,0:0:0:0:
98,232,27336,1,4,0:0:0:0:
67,255,27418,2,0,P|80:158|79:117,1,114,4|0,0:0|0:0,0:0:0:0:
50,71,27740,2,0,L|143:60,1,76,8|4,0:0|0:0,0:0:0:0:
249,174,28063,1,4,0:0:0:0:
80,142,28224,1,4,0:0:0:0:
302,88,28386,5,2,0:0:0:0:
176,220,28547,1,4,0:0:0:0:
176,220,28628,1,4,0:0:0:0:
176,220,28708,1,4,0:0:0:0:
200,40,28869,1,4,0:0:0:0:
318,238,29031,5,8,0:0:0:0:
73,167,29192,1,4,0:0:0:0:
128,310,29353,5,4,0:0:0:0:
158,330,29433,1,4,0:0:0:0:
195,338,29514,1,4,0:0:0:0:
232,331,29594,1,4,0:0:0:0:
264,310,29676,6,4,P|284:307|314:315,3,38
369,357,29999,2,0,P|423:369|482:337,1,114,4|0,0:0|0:0,0:0:0:0:
493,312,30321,1,8,0:0:0:0:
352,208,30482,1,4,0:0:0:0:
500,156,30644,1,4,0:0:0:0:
414,288,30805,1,4,0:0:0:0:
327,132,30966,5,2,0:0:0:0:
491,241,31128,1,4,0:0:0:0:
491,241,31208,1,4,0:0:0:0:
491,241,31289,1,4,0:0:0:0:
281,257,31450,1,4,0:0:0:0:
452,86,31611,5,8,0:0:0:0:
417,350,31773,1,4,0:0:0:0:
264,241,31934,6,4,L|220:246,3,38
168,189,32257,5,4,0:0:0:0:
201,171,32337,1,4,0:0:0:0:
226,143,32418,1,4,0:0:0:0:
240,108,32498,1,4,0:0:0:0:
240,70,32579,2,0,P|286:88|361:77,1,114,4|0,0:0|0:0,0:0:0:0:
424,54,32902,2,0,P|418:101|416:135,1,76,8|0,0:0|0:0,0:0:0:0:
310,277,33224,2,0,P|306:239|302:201,1,76,4|4,0:0|0:0,0:0:0:0:
172,99,33547,5,2,0:0:0:0:
87,216,33708,1,4,0:0:0:0:
87,216,33789,1,4,0:0:0:0:
87,216,33869,2,0,P|125:222|170:238,1,76,4|4,0:0|0:0,0:0:0:0:
279,360,34192,1,8,0:0:0:0:
407,234,34353,5,8,0:0:0:0:
428,194,34433,1,8,0:0:0:0:
434,149,34514,1,8,0:0:0:0:
424,105,34594,1,8,0:0:0:0:
398,67,34675,1,8,0:0:0:0:
361,42,34756,1,8,0:0:0:0:
317,31,34837,6,0,L|205:49,1,95,4|0,1:2|0:0,0:0:0:0:
111,158,35160,1,8,0:0:0:0:
255,211,35321,1,0,0:0:0:0:
108,307,35482,2,0,B|224:307|152:235|272:235,1,190,4|8,0:0|0:0,0:0:0:0:
408,328,35966,1,0,0:0:0:0:
304,132,36128,5,4,0:0:0:0:
268,327,36289,1,0,0:0:0:0:
416,180,36450,1,8,0:0:0:0:
200,136,36611,1,0,0:0:0:0:
344,272,36773,2,0,B|389:284|389:284|457:257,1,95,4|0,0:0|0:0,0:0:0:0:
252,360,37095,1,8,0:0:0:0:
84,304,37256,1,8,0:0:0:0:
84,304,37336,1,8,0:0:0:0:
84,304,37418,6,0,L|96:191,1,95,4|0,0:0|0:0,0:0:0:0:
176,80,37740,1,8,0:0:0:0:
297,187,37902,1,0,0:0:0:0:
164,284,38063,2,0,B|193:305|249:295|264:262|264:262|301:280|350:252,1,190,4|8,0:0|0:0,0:0:0:0:
464,200,38547,1,0,0:0:0:0:
290,139,38708,5,4,0:0:0:0:
290,139,38789,1,4,0:0:0:0:
290,139,38869,2,0,L|302:232,1,47.5,8|8,0:0|0:0,0:0:0:0:
399,105,39031,2,0,L|405:57,1,47.5,4|0,0:0|0:0,0:0:0:0:
277,11,39192,2,0,L|289:104,1,47.5,8|0,0:0|0:0,0:0:0:0:
162,176,39353,1,4,0:0:0:0:
119,195,39433,1,4,0:0:0:0:
73,188,39514,1,8,0:0:0:0:
38,157,39594,1,8,0:0:0:0:
26,111,39675,1,4,0:0:0:0:
41,67,39756,1,4,0:0:0:0:
78,38,39836,1,0,0:0:0:0:
124,34,39918,1,0,0:0:0:0:
165,57,39999,6,0,B|179:102|179:102|168:151,1,95,4|0,0:2|0:0,0:0:0:0:
93,290,40321,1,8,0:0:0:0:
92,103,40482,1,0,0:0:0:0:
251,237,40644,2,0,B|367:237|295:165|415:165,1,190,4|8,0:0|0:0,0:0:0:0:
508,256,41128,1,0,0:0:0:0:
392,367,41289,6,0,B|404:320|404:320|392:256,1,95,4|0,0:0|0:0,0:0:0:0:
288,136,41611,2,0,B|280:92|280:92|295:27,1,95,8|0,0:0|0:0,0:0:0:0:
200,200,41934,1,4,0:0:0:0:
372,108,42095,1,0,0:0:0:0:
184,32,42257,1,8,0:0:0:0:
136,29,42337,1,8,0:0:0:0:
92,46,42418,1,8,0:0:0:0:
59,80,42498,1,8,0:0:0:0:
43,124,42579,6,0,B|32:170|32:170|46:224,1,95,4|0,0:0|0:0,0:0:0:0:
168,320,42902,1,8,0:0:0:0:
268,202,43063,1,0,0:0:0:0:
361,336,43224,2,0,B|314:358|267:335|267:335|221:364|166:334,1,190,4|8,0:0|0:0,0:0:0:0:
68,259,43708,1,0,0:0:0:0:
119,111,43869,5,4,0:0:0:0:
119,111,43950,1,4,0:0:0:0:
119,111,44031,2,0,L|126:170,1,47.5,8|0,0:0|0:0,0:0:0:0:
12,219,44192,2,0,L|17:171,1,47.5,4|0,0:0|0:0,0:0:0:0:
129,123,44353,2,0,L|136:182,1,47.5,8|0,0:0|0:0,0:0:0:0:
0,211,44515,2,0,L|5:163,1,47.5,4|0,0:0|0:0,0:0:0:0:
140,132,44676,2,0,L|147:191,1,47.5,8|0,0:0|0:0,0:0:0:0:
211,323,44837,1,8,0:0:0:0:
245,339,44917,1,0,0:0:0:0:
282,345,44998,1,8,0:0:0:0:
320,341,45078,1,0,0:0:0:0:
343,320,45160,6,4,P|367:315|401:318,3,38,4|4|4|4,0:1|0:0|0:0|0:0,0:0:0:0:
442,263,45482,2,0,P|418:175|419:126,1,114,4|0,0:0|0:0,0:0:0:0:
424,116,45805,1,8,0:0:0:0:
347,239,45966,1,4,0:0:0:0:
508,182,46128,1,4,0:0:0:0:
330,128,46289,1,4,0:0:0:0:
505,53,46450,5,2,0:0:0:0:
320,28,46611,1,4,0:0:0:0:
320,28,46692,1,4,0:0:0:0:
320,28,46773,1,4,0:0:0:0:
420,148,46934,1,4,0:0:0:0:
258,171,47095,2,0,P|201:164|162:164,1,76,8|0,0:0|0:0,0:0:0:0:
84,208,47418,6,4,L|79:268,3,38
24,332,47740,5,4,0:0:0:0:
61,327,47820,1,4,0:0:0:0:
99,333,47901,1,4,0:0:0:0:
134,347,47981,1,4,0:0:0:0:
164,370,48063,2,0,P|216:372|252:360,1,76,4|0,0:0|0:0,0:0:0:0:
368,272,48386,1,8,0:0:0:0:
200,252,48547,1,4,0:0:0:0:
352,360,48708,1,4,0:0:0:0:
312,184,48869,1,4,0:0:0:0:
264,376,49031,5,2,0:0:0:0:
436,312,49192,1,4,0:0:0:0:
436,312,49273,1,4,0:0:0:0:
436,312,49353,1,4,0:0:0:0:
228,272,49515,1,4,0:0:0:0:
440,208,49676,1,8,0:0:0:0:
368,360,49837,1,4,0:0:0:0:
228,272,49999,1,4,0:0:0:0:
207,240,50079,1,4,0:0:0:0:
199,203,50160,1,4,0:0:0:0:
204,166,50240,1,4,0:0:0:0:
222,133,50321,6,4,P|228:112|228:84,3,38
288,44,50644,2,4,P|340:68|408:56,1,114,4|0,0:0|0:0,0:0:0:0:
424,32,50966,1,8,0:0:0:0:
407,199,51128,1,4,0:0:0:0:
512,80,51289,1,4,0:0:0:0:
323,138,51450,1,4,0:0:0:0:
512,216,51611,5,2,0:0:0:0:
420,60,51773,1,4,0:0:0:0:
420,60,51853,1,4,0:0:0:0:
420,60,51934,1,4,0:0:0:0:
356,220,52095,1,4,0:0:0:0:
512,140,52257,5,8,0:0:0:0:
248,100,52418,1,4,0:0:0:0:
356,220,52580,6,4,P|359:236|361:257,3,38
319,325,52903,5,4,0:0:0:0:
285,306,52983,1,4,0:0:0:0:
248,299,53064,1,4,0:0:0:0:
211,305,53144,1,4,0:0:0:0:
177,321,53224,2,0,L|96:312,1,76,4|0,0:0|0:0,0:0:0:0:
276,232,53547,1,8,0:0:0:0:
228,380,53708,1,4,0:0:0:0:
207,187,53869,1,4,0:0:0:0:
319,325,54031,1,4,0:0:0:0:
143,243,54192,5,2,0:0:0:0:
315,172,54353,1,4,0:0:0:0:
315,172,54434,1,4,0:0:0:0:
315,172,54514,1,4,0:0:0:0:
140,103,54676,1,4,0:0:0:0:
252,256,54837,1,8,0:0:0:0:
312,80,54999,1,8,0:0:0:0:
341,44,55079,1,8,0:0:0:0:
382,29,55160,1,8,0:0:0:0:
427,36,55240,1,8,0:0:0:0:
462,64,55321,1,8,0:0:0:0:
480,106,55402,1,8,0:0:0:0:
480,156,55482,6,0,B|432:148|432:148|376:168,1,95,4|0,1:2|0:0,0:0:0:0:
250,242,55805,1,8,0:0:0:0:
409,299,55966,1,0,0:0:0:0:
248,358,56128,2,4,B|132:358|204:286|84:286,1,190,4|8,0:0|0:0,0:0:0:0:
0,184,56611,1,0,0:0:0:0:
154,87,56773,5,4,0:0:0:0:
87,258,56934,1,0,0:0:0:0:
52,30,57095,1,8,0:0:0:0:
194,159,57257,1,0,0:0:0:0:
12,205,57418,2,0,L|19:108,1,95,4|0,0:0|0:0,0:0:0:0:
216,176,57740,1,8,0:0:0:0:
372,45,57902,1,8,0:0:0:0:
372,45,57982,1,8,0:0:0:0:
372,45,58063,6,0,B|324:56|324:56|264:33,1,95,4|0,0:0|0:0,0:0:0:0:
402,160,58386,2,0,B|444:172|444:172|496:150,1,95,8|0,0:0|0:0,0:0:0:0:
320,269,58708,1,4,0:0:0:0:
358,70,58869,1,0,0:0:0:0:
228,186,59031,1,8,0:0:0:0:
429,244,59192,1,0,0:0:0:0:
251,361,59353,5,4,0:0:0:0:
251,361,59434,1,4,0:0:0:0:
251,361,59515,2,0,L|242:295,1,47.5,8|8,0:0|0:0,0:0:0:0:
125,256,59676,2,0,L|118:303,1,47.5,4|4,0:0|0:0,0:0:0:0:
229,214,59837,2,8,L|220:148,1,47.5
313,60,59999,1,4,0:0:0:0:
359,51,60079,1,4,0:0:0:0:
404,65,60160,1,8,0:0:0:0:
437,98,60240,1,8,0:0:0:0:
452,143,60321,1,8,0:0:0:0:
444,189,60402,1,8,0:0:0:0:
416,227,60482,1,4,0:3:0:0:
374,247,60563,1,4,0:3:0:0:
327,246,60644,6,0,B|284:228|284:228|225:245,1,95,4|0,0:0|0:0,0:0:0:0:
100,316,60966,1,8,0:0:0:0:
256,352,61128,1,0,0:0:0:0:
128,212,61289,2,0,B|116:164|116:164|128:108,1,95,4|0,0:0|0:0,0:0:0:0:
272,40,61611,1,8,0:0:0:0:
216,200,61773,1,0,0:0:0:0:
92,32,61934,6,0,L|204:48,1,95,4|0,0:0|0:0,0:0:0:0:
288,144,62257,2,0,L|400:128,1,95,8|0,0:0|0:0,0:0:0:0:
476,300,62579,1,4,0:0:0:0:
336,232,62740,1,0,0:0:0:0:
512,200,62902,1,8,0:0:0:0:
392,312,63063,1,8,0:0:0:0:
432,72,63224,5,2,0:2:0:0:
428,76,63547,1,2,0:2:0:0:
417,76,63869,2,0,L|308:84,1,95,2|0,0:2|0:2,0:2:0:0:
431,103,64111,2,0,L|322:91,1,95,2|0,0:2|0:2,0:2:0:0:
447,128,64353,2,0,L|341:98,1,95,2|0,0:2|0:2,0:2:0:0:
483,50,64676,5,12,0:1:0:0:
329,348,64918,1,12,0:1:0:0:
273,28,65160,1,12,0:1:0:0:
509,356,65482,5,4,0:1:0:0:
286,243,65805,6,0,P|238:251|193:260,1,95,8|0,0:0|0:0,0:0:0:0:
2,235,66128,1,8,0:0:0:0:
80,360,66289,1,4,0:0:0:0:
80,360,66369,1,4,0:0:0:0:
80,360,66450,1,8,0:0:0:0:
148,187,66611,1,4,0:0:0:0:
148,187,66692,1,4,0:0:0:0:
148,187,66773,2,0,P|153:132|147:80,1,95,8|4,0:0|0:0,0:0:0:0:
256,40,67015,1,4,0:0:0:0:
277,23,67095,6,0,P|268:71|254:176,1,142.5,8|0,0:0|0:0,0:0:0:0:
323,219,67418,2,0,P|367:223|423:251,1,95,8|4,0:0|0:0,0:0:0:0:
463,325,67660,1,4,0:0:0:0:
472,345,67740,1,8,0:0:0:0:
338,309,67902,1,4,0:0:0:0:
338,309,67982,1,4,0:0:0:0:
338,309,68063,1,8,0:0:0:0:
492,236,68224,5,4,0:0:0:0:
492,236,68305,1,4,0:0:0:0:
492,236,68386,2,0,P|488:286|484:340,1,95,8|0,0:0|0:0,0:0:0:0:
352,176,68708,1,8,0:0:0:0:
512,124,68869,1,4,0:0:0:0:
512,124,68950,1,4,0:0:0:0:
512,124,69031,1,8,0:0:0:0:
380,272,69192,1,4,0:0:0:0:
380,272,69273,1,4,0:0:0:0:
380,272,69353,1,8,0:0:0:0:
308,112,69515,5,4,0:0:0:0:
308,112,69595,1,4,0:0:0:0:
308,112,69676,2,0,P|320:56|344:8,1,95,8|4,0:0|0:0,0:0:0:0:
394,194,69999,1,8,0:0:0:0:
226,176,70160,1,4,0:0:0:0:
226,176,70240,1,4,0:0:0:0:
226,176,70321,1,8,0:0:0:0:
333,285,70482,1,4,0:0:0:0:
333,285,70563,1,4,0:0:0:0:
333,285,70644,1,8,0:0:0:0:
193,256,70805,2,4,L|142:263,1,47.5
56,340,70966,5,4,0:0:0:0:
23,307,71046,1,4,0:0:0:0:
11,261,71127,1,4,0:0:0:0:
24,216,71208,1,4,0:0:0:0:
58,184,71289,1,8,0:0:0:0:
103,170,71369,1,4,0:0:0:0:
143,147,71449,1,4,0:0:0:0:
154,102,71530,1,4,0:0:0:0:
129,63,71610,1,4,0:0:0:0:
84,55,71691,1,4,0:0:0:0:
46,82,71773,2,4,P|18:86|-13:78,1,47.5
168,145,71934,6,2,B|221:138|221:138|302:152,1,106.875004076958,8|0,0:0|0:0,0:2:0:0:
423,206,72257,5,4,0:0:0:0:
461,233,72337,1,4,0:0:0:0:
475,277,72418,1,4,0:0:0:0:
460,321,72498,1,4,0:0:0:0:
422,348,72579,1,8,0:0:0:0:
375,347,72660,1,4,0:0:0:0:
339,318,72740,1,4,0:0:0:0:
308,280,72821,1,4,0:0:0:0:
265,261,72901,1,4,0:0:0:0:
219,269,72982,1,4,0:0:0:0:
185,301,73063,2,4,P|156:302|112:292,1,47.5
20,206,73224,6,2,B|32:153|32:153|21:101,1,106.875004076958,8|0,0:0|0:0,0:2:0:0:
138,27,73547,5,4,0:0:0:0:
183,16,73627,1,4,0:0:0:0:
227,33,73708,1,4,0:0:0:0:
254,71,73788,1,4,0:0:0:0:
256,118,73869,1,8,0:0:0:0:
231,158,73950,1,4,0:0:0:0:
188,177,74031,2,4,P|152:168|132:156,1,47.5
296,273,74192,5,4,0:0:0:0:
285,227,74272,1,4,0:0:0:0:
302,183,74353,1,4,0:0:0:0:
340,156,74433,1,4,0:0:0:0:
387,154,74514,1,8,0:0:0:0:
427,179,74595,1,4,0:0:0:0:
446,222,74676,2,4,P|436:258|424:278,1,47.5
213,360,74837,5,4,0:0:0:0:
167,372,74917,1,4,0:0:0:0:
123,356,74998,1,4,0:0:0:0:
96,318,75078,1,4,0:0:0:0:
96,271,75159,1,8,0:0:0:0:
122,233,75240,1,4,0:0:0:0:
166,216,75320,1,4,0:0:0:0:
211,228,75401,1,4,0:0:0:0:
252,256,75482,1,4,0:0:0:0:
297,268,75562,1,4,0:0:0:0:
341,252,75643,1,4,0:0:0:0:
368,214,75723,1,4,0:0:0:0:
368,164,75805,2,0,P|360:132|344:104,1,47.5,8|4,0:0|0:0,0:0:0:0:
489,233,75966,2,4,P|479:254|474:278,1,47.5
303,360,76128,6,0,P|251:350|194:344,1,95,8|0,0:0|0:0,0:0:0:0:
54,194,76450,1,8,0:0:0:0:
259,217,76611,1,4,0:0:0:0:
259,217,76692,1,4,0:0:0:0:
259,217,76773,1,8,0:0:0:0:
118,329,76934,1,4,0:0:0:0:
118,329,77015,1,4,0:0:0:0:
118,329,77095,1,8,0:0:0:0:
37,178,77257,5,4,0:0:0:0:
37,178,77337,1,4,0:0:0:0:
37,178,77418,2,8,P|46:106|53:33,1,142.5,8|0,0:0|0:0,0:0:0:0:
126,15,77740,2,0,P|173:38|225:38,1,95,8|4,0:0|0:0,0:0:0:0:
326,10,77982,1,4,0:0:0:0:
344,24,78063,1,8,0:0:0:0:
244,148,78224,1,4,0:0:0:0:
244,148,78305,1,4,0:0:0:0:
244,148,78386,1,8,0:0:0:0:
384,260,78547,5,4,0:0:0:0:
384,260,78628,1,4,0:0:0:0:
384,260,78708,2,0,B|335:243|335:243|287:261,1,95,8|0,0:0|0:0,0:0:0:0:
165,337,79031,2,0,B|205:352|205:352|254:335,1,95,8|4,0:0|0:0,0:0:0:0:
147,249,79273,1,4,0:0:0:0:
140,260,79353,2,0,L|44:270,1,95,8|4,0:0|0:0,0:0:0:0:
168,165,79595,1,4,0:0:0:0:
176,177,79676,2,0,L|272:187,1,95,8|4,0:0|0:0,0:0:0:0:
433,136,79918,5,4,0:0:0:0:
426,124,79999,2,0,P|371:118|325:106,1,95,8|0,0:0|0:0,0:0:0:0:
510,73,80321,1,8,0:0:0:0:
411,206,80482,1,4,0:0:0:0:
411,206,80563,1,4,0:0:0:0:
411,206,80644,1,8,0:0:0:0:
342,36,80805,1,4,0:0:0:0:
342,36,80886,1,4,0:0:0:0:
342,36,80966,1,8,0:0:0:0:
278,145,81128,2,4,L|286:199,1,47.5
189,303,81289,5,4,0:0:0:0:
143,292,81369,1,4,0:0:0:0:
113,257,81450,1,4,0:0:0:0:
108,211,81531,1,4,0:0:0:0:
116,165,81611,1,8,0:0:0:0:
129,120,81691,1,4,0:0:0:0:
108,78,81772,1,4,0:0:0:0:
64,62,81852,1,4,0:0:0:0:
22,80,81933,1,4,0:0:0:0:
2,122,82014,1,4,0:0:0:0:
16,166,82095,2,4,P|28:193|32:229,1,47.5
167,259,82257,6,2,B|149:205|149:205|165:151,1,106.875004076958,8|0,0:0|0:0,0:2:0:0:
254,48,82579,5,4,0:0:0:0:
296,27,82659,1,4,0:0:0:0:
342,36,82740,1,4,0:0:0:0:
373,70,82820,1,4,0:0:0:0:
379,116,82901,1,8,0:0:0:0:
356,157,82982,1,4,0:0:0:0:
324,193,83063,1,4,0:0:0:0:
301,233,83143,1,4,0:0:0:0:
319,275,83224,1,4,0:0:0:0:
363,287,83304,1,4,0:0:0:0:
408,272,83386,2,4,P|430:269|475:280,1,47.5
304,366,83547,6,2,B|251:349|251:349|196:370,1,106.875004076958,8|0,0:0|0:0,0:2:0:0:
67,254,83869,5,4,0:0:0:0:
56,209,83949,1,4,0:0:0:0:
73,165,84030,1,4,0:0:0:0:
111,138,84110,1,4,0:0:0:0:
158,136,84191,1,8,0:0:0:0:
198,161,84272,1,4,0:0:0:0:
217,204,84353,2,4,P|208:240|196:260,1,47.5
294,340,84514,5,4,0:0:0:0:
283,294,84594,1,4,0:0:0:0:
300,250,84675,1,4,0:0:0:0:
338,223,84757,1,4,0:0:0:0:
385,221,84836,1,8,0:0:0:0:
425,246,84917,1,4,0:0:0:0:
444,289,84998,2,4,P|434:325|422:345,1,47.5
276,362,85160,5,4,0:0:0:0:
229,356,85240,1,4,0:0:0:0:
190,330,85321,1,4,0:0:0:0:
168,288,85401,1,4,0:0:0:0:
168,241,85482,1,8,0:0:0:0:
191,200,85563,1,4,0:0:0:0:
230,174,85644,1,4,0:0:0:0:
265,144,85724,1,4,0:0:0:0:
276,98,85805,1,4,0:0:0:0:
258,56,85885,1,4,0:0:0:0:
217,32,85966,1,4,0:0:0:0:
171,37,86047,1,4,0:0:0:0:
137,69,86128,2,0,B|92:81|92:81|36:52,1,95,8|0,0:0|0:0,0:0:0:0:
265,144,86450,6,0,L|367:132,1,95,8|4,0:0|0:0,0:0:0:0:
250,257,86773,1,8,0:0:0:0:
159,131,86934,1,0,0:0:0:0:
60,271,87095,2,0,B|153:245|153:245|260:295,1,190,8|8,0:0|0:0,0:0:0:0:
358,373,87579,5,4,0:0:0:0:
358,373,87660,1,4,0:0:0:0:
358,373,87740,2,0,L|344:276,1,95,8|4,0:0|0:0,0:0:0:0:
432,144,88063,2,0,L|446:47,1,95,8|4,0:0|0:0,0:0:0:0:
328,152,88386,1,8,0:0:0:0:
484,224,88547,1,4,0:0:0:0:
484,224,88628,1,4,0:0:0:0:
484,224,88708,1,8,0:0:0:0:
344,278,88869,5,4,0:0:0:0:
344,278,88950,1,4,0:0:0:0:
344,278,89031,1,8,0:0:0:0:
432,144,89192,1,4,0:0:0:0:
455,335,89353,1,8,0:0:0:0:
320,196,89515,5,4,0:0:0:0:
320,196,89595,1,4,0:0:0:0:
320,196,89676,2,0,L|336:80,1,95,8|4,0:0|0:0,0:0:0:0:
237,44,89918,1,4,0:0:0:0:
228,32,89999,2,0,L|240:126,1,95,8|4,0:0|0:0,0:0:0:0:
148,176,90240,1,4,0:0:0:0:
136,184,90321,2,0,L|152:68,1,95,8|4,0:0|0:0,0:0:0:0:
54,49,90563,1,4,0:0:0:0:
43,41,90644,2,0,L|55:135,1,95,8|4,0:0|0:0,0:0:0:0:
8,316,90966,6,2,B|140:288|140:288|108:356|108:356|256:324|256:324|312:176,1,498.750019025803,8|0,0:0|0:0,0:2:0:0:
360,112,91611,6,0,P|409:112|453:100,1,95,4|0,0:1|0:0,0:0:0:0:
272,20,91934,1,8,0:0:0:0:
240,172,92095,1,0,0:0:0:0:
240,172,92176,1,0,0:0:0:0:
240,172,92257,1,4,0:0:0:0:
376,32,92418,1,0,0:0:0:0:
192,96,92579,1,8,0:0:0:0:
384,140,92740,1,0,0:0:0:0:
256,16,92901,5,4,0:0:0:0:
312,196,93063,1,0,0:0:0:0:
312,196,93144,1,0,0:0:0:0:
312,196,93224,2,0,P|309:246|296:308,1,95,8|0,0:0|0:0,0:0:0:0:
400,140,93547,1,4,0:0:0:0:
224,204,93708,1,0,0:0:0:0:
448,224,93869,1,8,0:0:0:0:
300,116,94030,1,0,0:0:0:0:
228,312,94192,6,0,P|280:308|340:304,1,95,4|0,0:0|0:0,0:0:0:0:
208,192,94514,1,8,0:0:0:0:
156,368,94676,1,0,0:0:0:0:
156,368,94756,1,0,0:0:0:0:
156,368,94837,1,4,0:0:0:0:
288,224,94998,1,0,0:0:0:0:
136,276,95160,1,8,0:0:0:0:
320,312,95321,1,0,0:0:0:0:
184,184,95482,5,4,0:0:0:0:
240,372,95644,1,0,0:0:0:0:
240,372,95724,1,0,0:0:0:0:
240,372,95805,1,8,0:0:0:0:
360,184,95966,1,0,0:0:0:0:
164,264,96128,1,4,0:0:0:0:
368,308,96288,1,0,0:0:0:0:
236,148,96450,1,8,0:0:0:0:
256,364,96611,1,0,0:0:0:0:
360,184,96773,6,0,P|365:131|368:76,1,95,4|0,0:1|0:0,0:0:0:0:
508,4,97095,1,8,0:0:0:0:
456,148,97256,1,0,0:0:0:0:
456,148,97337,1,0,0:0:0:0:
456,148,97418,1,4,0:0:0:0:
384,0,97579,1,0,0:0:0:0:
268,168,97740,2,0,P|320:164|368:164,1,95,8|0,0:0|0:0,0:0:0:0:
512,272,98063,5,4,0:0:0:0:
344,296,98224,1,0,0:0:0:0:
344,296,98305,1,0,0:0:0:0:
344,296,98385,1,8,0:0:0:0:
508,168,98547,1,0,0:0:0:0:
448,348,98708,1,4,0:0:0:0:
372,128,98869,1,0,0:0:0:0:
512,280,99030,1,8,0:0:0:0:
292,208,99192,1,0,0:0:0:0:
496,64,99353,6,0,P|501:115|508:176,1,95,4|0,0:0|0:0,0:0:0:0:
376,288,99676,1,8,0:0:0:0:
288,136,99837,1,0,0:0:0:0:
288,136,99918,1,0,0:0:0:0:
288,136,99999,2,0,P|344:148|396:148,1,95,4|0,0:0|0:0,0:0:0:0:
196,200,100321,1,8,0:0:0:0:
252,56,100482,1,0,0:0:0:0:
408,160,100644,5,8,0:0:0:0:
423,204,100724,1,4,0:0:0:0:
419,251,100805,1,4,0:0:0:0:
397,293,100885,1,4,0:0:0:0:
360,323,100966,1,8,0:0:0:0:
315,336,101047,1,8,0:0:0:0:
268,330,101127,1,4,0:0:0:0:
227,306,101208,1,4,0:0:0:0:
200,268,101289,1,4,0:0:0:0:
156,248,101369,1,4,0:0:0:0:
109,249,101450,1,0,0:0:0:0:
67,269,101530,1,0,0:0:0:0:
36,305,101611,2,8,L|31:361,1,47.5
230,353,101773,2,8,L|226:305,1,47.5
136,140,101934,5,4,0:1:0:0:
192,136,102014,1,0,0:0:0:0:
249,132,102095,1,0,0:0:0:0:
306,129,102175,1,0,0:0:0:0:
363,125,102256,1,0,0:0:0:0:
376,96,102740,5,4,0:1:0:0:
319,100,102821,1,0,0:0:0:0:
262,103,102901,1,0,0:0:0:0:
77,167,103386,5,4,0:1:0:0:
134,164,103466,1,0,0:0:0:0:
191,160,103547,1,0,0:0:0:0:
197,54,103869,5,4,0:1:0:0:
356,195,104031,1,0,0:0:0:0:
149,264,104192,2,0,L|85:244,3,47.5
69,182,104515,5,4,0:1:0:0:
125,178,104595,1,0,0:0:0:0:
182,174,104676,1,0,0:0:0:0:
239,171,104756,1,0,0:0:0:0:
296,167,104837,1,0,0:0:0:0:
309,138,105321,5,4,0:1:0:0:
252,142,105402,1,0,0:0:0:0:
195,145,105482,1,0,0:0:0:0:
233,338,105966,5,4,0:1:0:0:
201,303,106046,1,0,0:0:0:0:
195,257,106127,1,0,0:0:0:0:
216,215,106207,1,0,0:0:0:0:
258,194,106288,1,0,0:0:0:0:
304,199,106369,1,0,0:0:0:0:
336,235,106450,1,4,0:0:0:0:
372,265,106530,1,4,0:0:0:0:
416,275,106611,1,4,0:0:0:0:
460,260,106691,1,4,0:0:0:0:
487,219,106773,2,4,P|492:180|488:148,1,47.5
376,104,106934,2,0,P|376:127|380:151,1,47.5,8|0,0:0|0:0,0:0:0:0:
254,245,107095,6,0,L|258:197,1,38,4|4,0:1|0:0,0:0:0:0:
366,289,107257,1,4,0:0:0:0:
339,315,107337,1,4,0:0:0:0:
312,341,107418,2,0,P|271:346|221:356,1,76,4|0,0:0|0:0,0:0:0:0:
102,384,107740,1,8,0:0:0:0:
192,208,107902,1,4,0:0:0:0:
56,292,108063,1,4,0:0:0:0:
236,352,108224,1,4,0:0:0:0:
100,212,108385,5,2,0:0:0:0:
300,176,108546,1,4,0:0:0:0:
300,176,108627,1,4,0:0:0:0:
300,176,108708,1,4,0:0:0:0:
180,288,108869,5,4,0:0:0:0:
84,168,109031,2,0,L|92:84,1,76,8|4,0:0|0:0,0:0:0:0:
216,16,109353,6,4,L|276:21,3,38
340,104,109675,5,4,0:0:0:0:
345,141,109757,1,4,0:0:0:0:
339,179,109836,1,4,0:0:0:0:
325,214,109918,1,4,0:0:0:0:
302,244,109998,2,4,P|300:296|312:332,1,76,4|0,0:0|0:0,0:0:0:0:
408,212,110321,1,8,0:0:0:0:
236,180,110482,1,4,0:0:0:0:
388,296,110643,1,4,0:0:0:0:
345,141,110804,1,4,0:0:0:0:
268,308,110966,5,2,0:0:0:0:
440,232,111127,1,4,0:0:0:0:
440,232,111208,1,4,0:0:0:0:
440,232,111288,1,4,0:0:0:0:
360,372,111450,1,4,0:0:0:0:
312,188,111611,1,8,0:0:0:0:
460,252,111773,5,8,0:0:0:0:
434,291,111853,1,8,0:0:0:0:
392,312,111934,1,8,0:0:0:0:
345,308,112014,1,8,0:0:0:0:
305,282,112095,1,8,0:0:0:0:
257,277,112175,1,8,0:0:0:0:
215,300,112257,6,0,B|165:308|165:308|111:288,1,95,4|0,0:2|0:0,0:0:0:0:
16,176,112579,1,8,0:0:0:0:
112,60,112741,1,0,0:0:0:0:
220,180,112903,2,0,B|336:180|264:108|384:108,1,190,4|8,0:0|0:0,0:0:0:0:
512,180,113386,1,0,0:0:0:0:
340,240,113548,5,4,0:0:0:0:
472,88,113709,1,0,0:0:0:0:
448,352,113870,1,8,0:0:0:0:
320,232,114032,1,0,0:0:0:0:
500,172,114193,2,0,B|508:220|508:220|499:271,1,95,4|0,0:0|0:0,0:0:0:0:
360,136,114515,1,8,0:0:0:0:
252,288,114677,1,8,0:0:0:0:
252,288,114757,1,8,0:0:0:0:
252,288,114838,6,0,B|296:279|296:279|360:300,1,95,4|0,0:0|0:0,0:0:0:0:
174,346,115160,2,0,B|125:355|125:355|79:342,1,95,8|0,0:0|0:0,0:0:0:0:
204,220,115483,1,4,0:0:0:0:
256,384,115644,1,0,0:0:0:0:
288,192,115806,1,8,0:0:0:0:
132,276,115967,1,0,0:0:0:0:
352,324,116128,5,4,0:0:0:0:
352,324,116209,1,4,0:0:0:0:
352,324,116290,2,8,L|418:315,1,47.5
457,198,116451,2,4,L|410:191,1,47.5
320,88,116612,2,8,L|386:79,1,47.5
272,224,116774,1,4,0:0:0:0:
234,252,116854,1,4,0:0:0:0:
188,260,116935,1,8,0:0:0:0:
143,245,117015,1,8,0:0:0:0:
110,212,117096,1,12,0:0:0:0:
96,167,117177,1,12,0:0:0:0:
103,121,117257,1,4,0:3:0:0:
132,84,117337,1,4,0:3:0:0:
171,57,117419,6,0,L|278:69,1,95,4|0,0:2|0:0,0:0:0:0:
444,96,117741,1,8,0:0:0:0:
256,148,117903,1,0,0:0:0:0:
424,224,118063,2,0,L|415:117,1,95,4|0,0:0|0:0,0:0:0:0:
344,308,118386,1,8,0:0:0:0:
512,244,118548,1,0,0:0:0:0:
276,168,118708,6,0,B|228:157|228:157|167:172,1,95,4|0,0:0|0:0,0:0:0:0:
20,312,119031,2,0,B|63:295|63:295|121:308,1,95,8|0,0:0|0:0,0:0:0:0:
304,344,119353,1,4,0:0:0:0:
256,176,119515,1,0,0:0:0:0:
204,376,119676,1,8,0:0:0:0:
356,264,119837,5,8,0:0:0:0:
356,264,119918,1,8,0:0:0:0:
356,264,119999,2,0,L|452:256,1,95,4|0,0:0|0:0,0:0:0:0:
236,192,120321,2,0,L|140:184,1,95,8|0,0:0|0:0,0:0:0:0:
312,44,120644,2,0,B|338:120|338:120|327:157|327:157|352:232,1,190,4|8,0:0|0:0,0:0:0:0:
260,372,121128,1,0,0:0:0:0:
60,252,121289,5,4,0:0:0:0:
32,213,121369,1,4,0:0:0:0:
25,167,121450,1,8,0:0:0:0:
40,122,121530,1,8,0:0:0:0:
73,89,121611,1,8,0:0:0:0:
118,74,121692,1,8,0:0:0:0:
164,82,121772,1,8,0:0:0:0:
202,110,121853,1,8,0:0:0:0:
224,152,121934,2,2,L|214:358,1,190,0|4,0:0|0:1,0:1:0:0:
228,328,122580,6,0,P|276:320|321:311,1,95,8|0,0:0|0:0,0:0:0:0:
504,276,122903,1,8,0:0:0:0:
424,108,123064,1,4,0:0:0:0:
424,108,123144,1,4,0:0:0:0:
424,108,123224,1,8,0:0:0:0:
312,240,123386,1,4,0:0:0:0:
312,240,123467,1,4,0:0:0:0:
312,240,123547,2,0,P|307:295|313:347,1,95,8|4,0:0|0:0,0:0:0:0:
224,348,123790,1,4,0:0:0:0:
203,365,123870,6,0,P|212:317|226:212,1,142.5,8|0,0:0|0:0,0:0:0:0:
157,169,124192,2,0,P|113:165|57:137,1,95,8|4,0:0|0:0,0:0:0:0:
17,63,124435,1,4,0:0:0:0:
8,43,124515,1,8,0:0:0:0:
142,79,124677,1,4,0:0:0:0:
142,79,124757,1,4,0:0:0:0:
142,79,124838,1,8,0:0:0:0:
59,239,124999,5,4,0:0:0:0:
59,239,125080,1,4,0:0:0:0:
59,239,125160,2,0,P|63:189|67:135,1,95,8|0,0:0|0:0,0:0:0:0:
199,299,125483,1,8,0:0:0:0:
39,351,125644,1,4,0:0:0:0:
39,351,125725,1,4,0:0:0:0:
39,351,125806,1,8,0:0:0:0:
171,203,125967,1,4,0:0:0:0:
171,203,126048,1,4,0:0:0:0:
171,203,126128,1,8,0:0:0:0:
308,348,126290,5,4,0:0:0:0:
308,348,126370,1,4,0:0:0:0:
308,348,126450,2,0,P|250:345|198:355,1,95,8|0,0:0|0:0,0:0:0:0:
356,172,126773,1,8,0:0:0:0:
232,248,126935,1,4,0:0:0:0:
232,248,127015,1,4,0:0:0:0:
232,248,127096,1,8,0:0:0:0:
412,248,127257,1,4,0:0:0:0:
412,248,127338,1,4,0:0:0:0:
412,248,127418,1,8,0:0:0:0:
307,355,127579,2,0,P|267:364|233:362,1,47.5,4|0,0:0|0:0,0:0:0:0:
81,338,127741,5,4,0:0:0:0:
48,305,127821,1,4,0:0:0:0:
36,259,127902,1,4,0:0:0:0:
49,214,127983,1,4,0:0:0:0:
83,182,128063,1,8,0:0:0:0:
128,168,128144,1,4,0:0:0:0:
168,145,128224,1,4,0:0:0:0:
179,100,128305,1,4,0:0:0:0:
154,61,128385,1,4,0:0:0:0:
109,53,128466,1,4,0:0:0:0:
71,80,128548,2,4,P|43:84|12:76,1,47.5
168,145,128708,6,2,B|221:138|221:138|302:152,1,106.875004076958,8|0,0:0|0:0,0:2:0:0:
423,206,129032,5,4,0:0:0:0:
461,233,129112,1,4,0:0:0:0:
475,277,129193,1,4,0:0:0:0:
460,321,129273,1,4,0:0:0:0:
422,348,129354,1,8,0:0:0:0:
375,347,129435,1,4,0:0:0:0:
339,318,129515,1,4,0:0:0:0:
308,280,129596,1,4,0:0:0:0:
265,261,129676,1,4,0:0:0:0:
219,269,129757,1,4,0:0:0:0:
185,301,129837,2,4,P|156:302|112:292,1,47.5
8,207,129999,6,2,B|20:154|20:154|9:102,1,106.875004076958,8|0,0:0|0:0,0:2:0:0:
138,27,130322,5,4,0:0:0:0:
183,16,130402,1,4,0:0:0:0:
227,33,130483,1,4,0:0:0:0:
254,71,130563,1,4,0:0:0:0:
256,118,130644,1,8,0:0:0:0:
231,158,130725,1,4,0:0:0:0:
188,177,130806,2,4,P|152:168|132:156,1,47.5
296,273,130967,5,4,0:0:0:0:
285,227,131047,1,4,0:0:0:0:
302,183,131128,1,4,0:0:0:0:
340,156,131208,1,4,0:0:0:0:
387,154,131289,1,8,0:0:0:0:
427,179,131370,1,4,0:0:0:0:
446,222,131451,2,4,P|436:258|424:278,1,47.5
213,360,131612,5,4,0:0:0:0:
167,372,131692,1,4,0:0:0:0:
123,356,131773,1,4,0:0:0:0:
96,318,131853,1,4,0:0:0:0:
96,271,131934,1,8,0:0:0:0:
122,233,132015,1,4,0:0:0:0:
166,216,132095,1,4,0:0:0:0:
211,228,132176,1,4,0:0:0:0:
252,256,132257,1,4,0:0:0:0:
297,268,132337,1,4,0:0:0:0:
341,252,132418,1,4,0:0:0:0:
368,214,132498,1,4,0:0:0:0:
368,164,132579,2,0,P|360:132|344:104,1,47.5,8|4,0:0|0:0,0:0:0:0:
490,223,132741,2,0,P|480:244|475:268,1,47.5,4|4,0:0|0:0,0:0:0:0:
303,360,132903,6,0,P|251:350|194:344,1,95,8|0,0:0|0:0,0:0:0:0:
62,183,133225,1,8,0:0:0:0:
259,217,133386,1,4,0:0:0:0:
259,217,133467,1,4,0:0:0:0:
259,217,133548,1,8,0:0:0:0:
118,329,133709,1,4,0:0:0:0:
118,329,133790,1,4,0:0:0:0:
118,329,133869,1,8,0:0:0:0:
37,178,134032,5,4,0:0:0:0:
37,178,134112,1,4,0:0:0:0:
37,178,134192,2,0,P|46:106|53:33,1,142.5,8|0,0:0|0:0,0:0:0:0:
126,15,134515,2,0,P|173:38|225:38,1,95,8|4,0:0|0:0,0:0:0:0:
326,10,134757,1,4,0:0:0:0:
344,24,134838,1,8,0:0:0:0:
244,148,134999,1,4,0:0:0:0:
244,148,135080,1,4,0:0:0:0:
244,148,135161,1,8,0:0:0:0:
384,260,135322,5,4,0:0:0:0:
384,260,135403,1,4,0:0:0:0:
384,260,135482,2,0,B|335:243|335:243|287:261,1,95,8|0,0:0|0:0,0:0:0:0:
165,337,135805,2,0,B|205:352|205:352|254:335,1,95,8|4,0:0|0:0,0:0:0:0:
147,249,136048,1,4,0:0:0:0:
140,260,136128,2,0,L|44:270,1,95,8|4,0:0|0:0,0:0:0:0:
168,165,136369,1,4,0:0:0:0:
176,177,136450,2,0,L|272:187,1,95,8|4,0:0|0:0,0:0:0:0:
433,136,136692,5,4,0:0:0:0:
426,124,136774,2,0,P|371:118|325:106,1,95,8|0,0:0|0:0,0:0:0:0:
510,73,137095,1,8,0:0:0:0:
411,206,137257,1,4,0:0:0:0:
411,206,137338,1,4,0:0:0:0:
411,206,137418,1,8,0:0:0:0:
342,36,137580,1,4,0:0:0:0:
342,36,137661,1,4,0:0:0:0:
342,36,137741,1,8,0:0:0:0:
279,144,137902,2,4,L|288:210,1,47.5
187,320,138064,5,4,0:0:0:0:
141,309,138144,1,4,0:0:0:0:
111,274,138225,1,4,0:0:0:0:
106,228,138306,1,4,0:0:0:0:
114,182,138386,1,8,0:0:0:0:
127,137,138466,1,4,0:0:0:0:
106,95,138547,1,4,0:0:0:0:
62,79,138627,1,4,0:0:0:0:
20,97,138708,1,4,0:0:0:0:
0,139,138789,1,4,0:0:0:0:
14,183,138870,2,4,P|26:210|30:246,1,47.5
167,259,139031,6,2,B|149:205|149:205|165:151,1,106.875004076958,8|0,0:0|0:0,0:2:0:0:
254,48,139354,5,4,0:0:0:0:
296,27,139434,1,4,0:0:0:0:
342,36,139515,1,4,0:0:0:0:
373,70,139595,1,4,0:0:0:0:
379,116,139676,1,8,0:0:0:0:
356,157,139757,1,4,0:0:0:0:
324,193,139838,1,4,0:0:0:0:
301,233,139918,1,4,0:0:0:0:
319,275,139999,1,4,0:0:0:0:
363,287,140079,1,4,0:0:0:0:
408,272,140161,2,4,P|430:269|475:280,1,47.5
292,352,140322,6,2,B|239:335|239:335|184:356,1,106.875004076958,8|0,0:0|0:0,0:2:0:0:
67,254,140644,5,4,0:0:0:0:
56,209,140724,1,4,0:0:0:0:
73,165,140805,1,4,0:0:0:0:
111,138,140885,1,4,0:0:0:0:
158,136,140966,1,8,0:0:0:0:
198,161,141047,1,4,0:0:0:0:
217,204,141128,2,4,P|208:240|196:260,1,47.5
294,340,141289,5,4,0:0:0:0:
283,294,141369,1,4,0:0:0:0:
300,250,141450,1,4,0:0:0:0:
338,223,141530,1,4,0:0:0:0:
385,221,141611,1,8,0:0:0:0:
425,246,141692,1,4,0:0:0:0:
444,289,141773,2,4,P|434:325|422:345,1,47.5
276,362,141935,5,4,0:0:0:0:
229,356,142015,1,4,0:0:0:0:
190,330,142096,1,4,0:0:0:0:
168,288,142176,1,4,0:0:0:0:
168,241,142257,1,8,0:0:0:0:
191,200,142337,1,4,0:0:0:0:
230,174,142419,1,4,0:0:0:0:
265,144,142499,1,4,0:0:0:0:
276,98,142580,1,4,0:0:0:0:
258,56,142660,1,4,0:0:0:0:
217,32,142741,1,4,0:0:0:0:
171,37,142822,1,4,0:0:0:0:
137,69,142903,2,0,B|92:81|92:81|36:52,1,95,8|0,0:0|0:0,0:0:0:0:
230,174,143224,6,0,L|333:166,1,95,8|4,0:0|0:0,0:0:0:0:
401,156,143466,1,4,0:0:0:0:
401,156,143547,1,8,0:0:0:0:
301,252,143708,1,4,0:0:0:0:
332,83,143869,1,8,0:0:0:0:
401,282,144031,1,4,0:0:0:0:
234,157,144192,1,8,0:0:0:0:
447,175,144353,1,4,0:0:0:0:
262,300,144515,6,0,B|212:313|212:313|148:292,1,95,8|0,0:0|0:0,0:0:0:0:
420,196,144837,2,0,B|466:181|466:181|512:199,1,95,8|4,0:0|0:0,0:0:0:0:
244,296,145160,2,0,B|195:306|195:306|131:278,1,95,8|4,0:0|0:0,0:0:0:0:
410,206,145482,2,0,B|454:193|454:193|501:214,1,95,8|4,0:0|0:0,0:0:0:0:
290,363,145805,5,8,0:0:0:0:
333,159,145966,1,0,0:0:0:0:
403,375,146128,1,8,0:0:0:0:
245,240,146289,1,4,0:0:0:0:
450,286,146450,1,8,0:0:0:0:
205,343,146611,1,4,0:0:0:0:
205,343,146692,1,4,0:0:0:0:
205,343,146773,1,8,0:0:0:0:
385,212,146934,1,4,0:0:0:0:
131,146,147095,6,0,L|139:211,3,47.5,8|0|0|0,0:0|0:0|0:0|0:0,0:0:0:0:
83,255,147418,2,0,L|102:39,1,190,8|8,0:0|0:0,0:0:0:0:
100,66,148386,5,4,0:1:0:0:
106,111,148466,1,4,0:0:0:0:
132,149,148547,1,4,0:0:0:0:
171,173,148628,1,4,0:0:0:0:
217,177,148708,2,0,L|299:163,1,71.2500027179719,4|4,0:0|0:0,0:0:0:0:
399,277,149031,6,4,L|228:263,1,142.500005435944,4|4,0:1|0:0,0:0:0:0:
366,157,149515,1,4,0:0:0:0:
193,48,149676,2,4,P|198:114|203:200,1,142.500005435944,8|4,0:0|0:0,0:0:0:0:
169,223,150079,5,4,0:0:0:0:
125,207,150159,1,4,0:0:0:0:
79,206,150240,1,4,0:0:0:0:
41,230,150321,6,4,L|55:86,1,133,4|0,0:2|0:0,0:0:0:0:
124,39,150966,5,4,0:1:0:0:
142,80,151046,1,4,0:0:0:0:
177,111,151127,1,4,0:0:0:0:
221,125,151207,1,4,0:0:0:0:
266,119,151289,2,4,P|305:114|352:112,1,71.2500027179719
406,229,151611,2,4,P|367:223|320:221,1,71.2500027179719
489,161,151934,1,4,0:0:0:0:
443,300,152095,1,4,0:0:0:0:
257,189,152257,6,4,P|261:156|268:100,1,71.2500027179719,8|4,0:0|0:0,0:0:0:0:
142,39,152579,1,4,0:0:0:0:
146,85,152659,1,4,0:0:0:0:
151,131,152740,1,4,0:0:0:0:
156,177,152820,1,4,0:0:0:0:
160,224,152902,2,4,L|168:320,1,71.2500027179719
232,154,153224,1,4,0:0:0:0:
85,213,153386,1,4,0:0:0:0:
243,316,153547,5,4,0:1:0:0:
284,336,153627,1,4,0:0:0:0:
329,345,153708,1,4,0:0:0:0:
375,341,153788,1,4,0:0:0:0:
418,324,153869,2,4,L|424:244,1,71.2500027179719
415,64,154192,1,4,0:0:0:0:
506,160,154353,1,4,0:0:0:0:
342,197,154515,2,4,P|293:195|266:184,1,71.2500027179719
88,112,154837,6,0,P|39:114|12:125,1,71.2500027179719,8|4,0:0|0:0,0:0:0:0:
109,199,155160,1,4,0:0:0:0:
148,175,155240,1,4,0:0:0:0:
172,136,155321,1,4,0:0:0:0:
174,90,155401,1,4,0:0:0:0:
154,49,155482,1,4,0:0:0:0:
88,112,155644,1,4,0:0:0:0:
252,132,155805,2,4,P|291:121|332:112,1,71.2500027179719,0|4,0:0|0:0,0:0:0:0:
484,264,156128,6,4,P|445:253|404:244,1,71.2500027179719,4|4,0:1|0:0,0:0:0:0:
268,312,156450,1,4,0:0:0:0:
224,327,156530,1,4,0:0:0:0:
178,322,156611,1,4,0:0:0:0:
139,298,156691,1,4,0:0:0:0:
114,260,156772,1,4,0:0:0:0:
60,136,156934,1,4,0:0:0:0:
208,216,157095,1,4,0:0:0:0:
28,248,157257,1,4,0:0:0:0:
181,121,157418,6,0,P|229:120|266:134,1,71.2500027179719,8|4,0:0|0:0,0:0:0:0:
346,241,157740,1,4,0:0:0:0:
362,282,157820,1,4,0:0:0:0:
405,294,157901,1,4,0:0:0:0:
441,267,157981,1,4,0:0:0:0:
441,222,158063,2,4,P|433:187|418:140,1,71.2500027179719
309,28,158386,1,8,0:0:0:0:
481,72,158547,1,4,0:0:0:0:
288,196,158708,6,4,P|222:204|148:164,1,142.500005435944,4|4,0:1|0:0,0:0:0:0:
48,92,159192,1,4,0:0:0:0:
158,29,159353,2,0,L|154:197,1,142.500005435944,4|4,0:0|0:0,0:0:0:0:
144,320,159837,1,4,0:0:0:0:
24,212,159999,6,0,P|69:204|112:217,1,71.2500027179719,8|4,0:0|0:0,0:0:0:0:
241,309,160321,1,4,0:0:0:0:
281,331,160401,1,4,0:0:0:0:
327,337,160482,1,4,0:0:0:0:
372,327,160562,1,4,0:0:0:0:
410,302,160644,2,4,L|408:216,1,71.2500027179719
296,113,160966,2,4,L|293:184,1,71.2500027179719
456,29,161289,6,4,L|374:39,1,71.2500027179719,4|4,0:1|0:0,0:0:0:0:
220,92,161611,1,4,0:0:0:0:
177,74,161691,1,4,0:0:0:0:
131,71,161772,1,4,0:0:0:0:
86,83,161852,1,4,0:0:0:0:
48,108,161934,2,4,L|52:197,1,71.2500027179719
128,308,162257,1,4,0:0:0:0:
200,204,162418,1,4,0:0:0:0:
308,348,162579,6,4,B|396:372|356:312|476:348,1,142.500005435944,8|4,0:0|0:0,0:0:0:0:
492,368,162982,1,4,0:0:0:0:
488,321,163062,1,4,0:0:0:0:
485,275,163143,1,4,0:0:0:0:
482,229,163224,2,4,L|476:140,1,71.2500027179719
352,104,163547,2,4,L|346:175,1,71.2500027179719
435,69,163869,6,4,P|399:29|295:33,1,142.500005435944,4|4,0:1|0:0,0:0:0:0:
274,58,164273,1,4,0:0:0:0:
235,82,164353,1,4,0:0:0:0:
190,94,164434,1,4,0:0:0:0:
144,92,164515,2,4,P|106:89|65:88,1,71.2500027179719
208,179,164837,2,4,P|245:176|287:175,1,71.2500027179719
443,324,165160,6,4,B|357:347|391:289|299:318,1,142.500005435944,8|4,0:0|0:0,0:0:0:0:
182,378,165644,1,4,0:0:0:0:
93,281,165805,2,4,P|77:212|121:147,1,142.500005435944
235,97,166289,1,4,0:0:0:0:
318,245,166450,6,4,P|310:280|302:333,1,71.2500027179719,4|4,0:1|0:0,0:0:0:0:
439,252,166773,1,4,0:0:0:0:
435,205,166853,1,4,0:0:0:0:
432,159,166934,1,4,0:0:0:0:
429,113,167014,1,4,0:0:0:0:
426,67,167095,2,4,P|387:58|349:62,1,71.2500027179719
203,117,167418,2,4,P|167:118|133:110,1,71.2500027179719
20,224,167740,5,8,0:0:0:0:
65,217,167820,1,4,0:0:0:0:
109,230,167901,1,4,0:0:0:0:
145,258,167981,1,4,0:0:0:0:
167,299,168063,2,4,P|200:312|248:312,1,71.2500027179719
356,260,168386,1,4,0:0:0:0:
349,214,168466,1,4,0:0:0:0:
362,170,168547,1,4,0:0:0:0:
390,134,168627,1,4,0:0:0:0:
431,112,168709,2,4,P|443:79|443:31,1,71.2500027179719,8|4,0:0|0:0,0:0:0:0:
493,240,169031,5,4,0:0:0:0:
256,192,169111,12,0,171450,0:0:0:0:
200,112,171611,6,0,B|324:100|324:100|384:144,1,190,4|8,0:1|0:0,0:0:0:0:
472,240,172095,1,4,0:0:0:0:
472,240,172176,1,4,0:0:0:0:
472,240,172257,1,8,0:0:0:0:
276,220,172418,1,4,0:0:0:0:
276,220,172499,1,4,0:0:0:0:
276,220,172580,1,8,0:0:0:0:
456,98,172740,1,4,0:0:0:0:
456,98,172821,1,4,0:0:0:0:
456,98,172902,6,0,L|472:246,1,142.5,8|0,0:0|0:0,0:0:0:0:
416,296,173224,2,0,B|367:287|367:287|320:304,1,95,8|4,0:0|0:0,0:0:0:0:
212,236,173466,1,4,0:0:0:0:
212,236,173547,2,0,B|261:245|261:245|308:228,1,95,8|4,0:0|0:0,0:0:0:0:
244,336,173789,1,4,0:0:0:0:
244,336,173869,2,0,B|195:327|195:327|148:344,1,95,8|4,0:0|0:0,0:0:0:0:
32,272,174111,5,4,0:0:0:0:
32,272,174192,2,0,B|81:281|81:281|128:264,1,95,8|0,0:0|0:0,0:0:0:0:
212,236,174434,1,0,0:0:0:0:
212,236,174515,1,8,0:0:0:0:
72,176,174676,1,4,0:0:0:0:
172,344,174837,1,12,0:0:0:0:
152,144,174999,1,4,0:0:0:0:
152,144,175079,1,4,0:0:0:0:
152,144,175160,1,8,0:0:0:0:
32,272,175321,5,4,0:0:0:0:
32,272,175402,1,4,0:0:0:0:
32,272,175482,1,8,0:0:0:0:
61,236,175562,1,0,0:0:0:0:
105,219,175643,1,0,0:0:0:0:
151,225,175723,1,0,0:0:0:0:
189,253,175804,1,8,0:0:0:0:
216,292,175886,1,0,0:0:0:0:
245,329,175966,1,4,0:0:0:0:
289,346,176047,1,4,0:0:0:0:
335,340,176127,1,8,0:0:0:0:
372,312,176208,1,0,0:0:0:0:
392,268,176289,1,4,0:0:0:0:
407,225,176369,1,4,0:0:0:0:
449,206,176450,1,8,0:0:0:0:
492,222,176531,1,0,0:0:0:0:
511,264,176611,1,4,0:0:0:0:
494,307,176692,1,4,0:0:0:0:
451,325,176773,6,0,L|400:320,1,47.5,8|0,0:0|0:0,0:0:0:0:
272,268,176934,2,0,L|221:273,1,47.5
344,132,177095,2,0,L|352:252,1,95,8|4,0:0|0:0,0:0:0:0:
264,160,177337,1,4,0:0:0:0:
264,160,177418,2,0,L|270:65,1,95,8|4,0:0|0:0,0:0:0:0:
184,148,177660,1,4,0:0:0:0:
184,148,177740,2,0,L|190:242,1,95,8|4,0:0|0:0,0:0:0:0:
104,140,177982,5,4,0:0:0:0:
104,140,178063,2,0,L|110:45,1,95,8|0,0:0|0:0,0:0:0:0:
16,172,178386,1,8,0:0:0:0:
196,248,178547,1,4,0:0:0:0:
196,248,178628,1,4,0:0:0:0:
196,248,178708,1,8,0:0:0:0:
28,288,178869,1,4,0:0:0:0:
28,288,178950,1,4,0:0:0:0:
28,288,179030,1,8,0:0:0:0:
140,144,179192,5,4,0:0:0:0:
140,144,179273,1,4,0:0:0:0:
140,144,179353,2,0,B|256:124|256:124|324:168,1,190,8|8,0:0|0:0,0:0:0:0:
415,297,179837,1,4,0:0:0:0:
415,297,179918,1,4,0:0:0:0:
415,297,179999,2,0,L|407:369,1,47.5,8|0,0:0|0:0,0:0:0:0:
502,256,180160,1,4,0:0:0:0:
502,256,180240,1,4,0:0:0:0:
502,256,180322,2,0,L|494:184,1,47.5,8|0,0:0|0:0,0:0:0:0:
412,120,180482,2,4,L|406:167,1,47.5
505,25,180644,6,0,B|443:41|443:41|394:29|394:29|313:51,1,190,8|8,0:0|0:0,0:0:0:0:
192,120,181128,1,4,0:0:0:0:
192,120,181208,1,4,0:0:0:0:
192,120,181289,1,8,0:0:0:0:
332,176,181450,1,4,0:0:0:0:
332,176,181530,1,4,0:0:0:0:
332,176,181611,1,8,0:0:0:0:
248,40,181773,5,4,0:0:0:0:
248,40,181853,1,4,0:0:0:0:
248,40,181934,2,0,L|238:156,1,95,8|0,0:0|0:0,0:0:0:0:
212,291,182257,1,8,0:0:0:0:
144,157,182418,1,4,0:0:0:0:
144,157,182499,1,4,0:0:0:0:
144,157,182579,1,8,0:0:0:0:
302,228,182740,1,4,0:0:0:0:
302,228,182821,1,4,0:0:0:0:
302,228,182901,1,8,0:0:0:0:
126,312,183063,5,4,0:0:0:0:
126,312,183144,1,4,0:0:0:0:
126,312,183224,2,0,L|26:308,1,95,8|0,0:0|0:0,0:0:0:0:
185,218,183547,1,8,0:0:0:0:
301,339,183708,1,4,0:0:0:0:
301,339,183789,1,4,0:0:0:0:
301,339,183869,1,8,0:0:0:0:
293,171,184031,1,4,0:0:0:0:
293,171,184112,1,4,0:0:0:0:
293,171,184192,1,8,0:0:0:0:
191,320,184353,5,4,0:0:0:0:
191,320,184434,1,4,0:0:0:0:
191,320,184515,2,0,L|288:316,1,95,8|0,0:0|0:0,0:0:0:0:
399,188,184837,2,0,B|351:200|351:200|304:184,1,95,8|4,0:0|0:0,0:0:0:0:
258,122,185079,1,4,0:0:0:0:
258,122,185160,2,0,B|301:107|301:107|349:119,1,95,8|4,0:0|0:0,0:0:0:0:
235,199,185402,1,4,0:0:0:0:
235,199,185482,2,0,B|191:213|191:213|143:201,1,95,8|4,0:0|0:0,0:0:0:0:
92,134,185724,5,4,0:0:0:0:
92,134,185805,2,0,B|135:119|135:119|183:131,1,95,8|4,0:0|0:0,0:0:0:0:
405,30,186128,2,0,B|357:42|357:42|313:27,1,95,8|4,0:0|0:0,0:0:0:0:
411,107,186369,1,4,0:0:0:0:
411,107,186450,2,0,B|454:92|454:92|502:104,1,95,8|4,0:0|0:0,0:0:0:0:
360,179,186692,1,4,0:0:0:0:
360,179,186773,2,0,B|316:193|316:193|268:181,1,95,8|4,0:0|0:0,0:0:0:0:
412,246,187015,5,4,0:0:0:0:
412,246,187095,2,0,B|455:231|455:231|503:243,1,95,8|0,0:0|0:0,0:0:0:0:
386,363,187418,1,8,0:0:0:0:
258,275,187579,1,4,0:0:0:0:
262,227,187659,1,4,0:0:0:0:
267,180,187740,1,8,0:0:0:0:
110,123,187902,1,4,0:0:0:0:
115,170,187983,1,4,0:0:0:0:
120,218,188063,1,8,0:0:0:0:
242,108,188224,5,4,0:0:0:0:
246,60,188304,1,4,0:0:0:0:
251,13,188386,2,0,B|296:25|296:25|350:14,1,95,8|0,0:0|0:0,0:0:0:0:
490,71,188708,1,8,0:0:0:0:
335,123,188869,1,4,0:0:0:0:
288,115,188949,1,4,0:0:0:0:
241,107,189030,1,8,0:0:0:0:
158,231,189192,1,4,0:0:0:0:
205,223,189273,1,4,0:0:0:0:
252,215,189353,1,8,0:0:0:0:
325,349,189515,5,4,0:0:0:0:
278,341,189596,1,4,0:0:0:0:
231,333,189676,2,0,L|125:317,1,95,8|0,0:0|0:0,0:0:0:0:
33,219,189999,1,8,0:0:0:0:
155,111,190160,1,4,0:0:0:0:
157,158,190240,1,4,0:0:0:0:
160,205,190321,1,8,0:0:0:0:
290,280,190482,1,4,0:0:0:0:
292,232,190563,1,4,0:0:0:0:
295,185,190643,1,8,0:0:0:0:
42,135,190805,5,4,0:0:0:0:
45,182,190885,1,4,0:0:0:0:
47,230,190966,1,8,0:0:0:0:
434,135,191128,1,8,0:0:0:0:
28,125,191289,5,8,0:0:0:0:
480,245,191450,1,8,0:0:0:0:
256,192,192257,6,0,P|151:237|290:291,1,332.5,6|0,0:2|0:0,0:0:0:0:
222,258,193547,6,0,P|85:221|179:40,1,398.999987823487,6|0,0:2|0:0,0:0:0:0:
266,45,194837,6,0,B|310:85|361:96|432:58|432:58|436:158|317:201|317:201|331:241|378:279,1,465.499985794068,6|0,0:2|0:0,0:0:0:0:
482,305,196128,5,6,0:2:0:0:
482,305,196773,5,6,0:2:0:0:
440,370,197418,6,0,L|94:323,1,332.5,6|0,0:2|0:0,0:0:0:0:
52,256,198708,6,0,L|460:224,1,398.999987823487,6|0,0:2|0:0,0:0:0:0:
483,147,199999,6,0,L|1:98,1,465.499985794068,6|0,0:2|0:0,0:0:0:0:
264,196,201289,5,6,0:2:0:0:
264,196,201934,6,0,P|320:188|376:196,1,95,8|0,0:0|0:0,0:0:0:0:
476,271,202257,1,4,0:0:0:0:
476,271,202418,1,4,0:0:0:0:
310,369,202579,6,0,L|318:262,1,95,6|0,0:2|0:0,0:0:0:0:
233,176,202902,2,0,L|225:81,1,95,0|4,0:0|0:0,0:0:0:0:
94,26,203224,2,0,L|84:225,1,190,8|4,0:0|0:0,0:0:0:0:
146,344,203708,1,4,0:0:0:0:
158,193,203869,5,0,0:0:0:0:
55,310,204031,1,4,0:0:0:0:
223,364,204192,2,0,L|332:347,1,95,4|0,0:0|0:0,0:0:0:0:
435,237,204515,2,0,P|362:258|258:190,1,190,8|0,0:0|0:0,0:0:0:0:
245,61,204999,1,4,0:0:0:0:
401,92,205160,6,0,P|370:184|313:132,1,190,4|0,0:0|0:0,0:0:0:0:
236,46,205644,1,4,0:0:0:0:
124,157,205805,2,0,L|132:256,1,95,8|0,0:0|0:0,0:0:0:0:
54,112,206128,1,4,0:0:0:0:
206,182,206289,1,4,0:0:0:0:
1,182,206450,5,0,0:0:0:0:
121,60,206611,1,4,0:0:0:0:
196,216,206773,2,0,P|98:244|22:200,2,190,4|8|0,0:0|0:0|0:0,0:0:0:0:
196,216,207740,5,6,0:2:0:0:
236,60,207902,1,0,0:0:0:0:
108,150,208063,1,0,0:0:0:0:
276,204,208224,1,4,0:0:0:0:
100,316,208386,2,0,P|96:224|80:112,1,190,8|4,0:0|0:0,0:0:0:0:
8,256,208869,1,4,0:0:0:0:
192,328,209031,6,0,L|296:312,1,95,0|4,0:0|0:0,0:0:0:0:
392,204,209353,2,0,L|496:220,1,95,0|4,0:0|0:0,0:0:0:0:
312,92,209676,2,0,L|320:300,1,190,8|4,0:0|0:0,0:0:0:0:
312,296,210321,6,0,L|207:285,1,95,4|0,0:0|0:0,0:0:0:0:
64,256,210644,1,0,0:0:0:0:
136,372,210805,1,4,0:0:0:0:
236,216,210966,2,0,P|240:164|224:104,1,95,8|0,0:0|0:0,0:0:0:0:
104,40,211289,1,4,0:0:0:0:
160,192,211450,1,4,0:0:0:0:
373,91,211611,5,8,0:0:0:0:
44,121,211773,1,8,0:0:0:0:
388,189,211934,5,8,0:0:0:0:
44,221,212095,1,8,0:0:0:0:
307,383,212257,5,8,0:0:0:0:
284,56,212902,6,0,P|236:64|191:73,1,95,8|0,0:0|0:0,0:0:0:0:
8,108,213224,1,8,0:0:0:0:
88,276,213386,1,4,0:0:0:0:
88,276,213466,1,4,0:0:0:0:
88,276,213547,1,8,0:0:0:0:
200,144,213708,1,4,0:0:0:0:
200,144,213789,1,4,0:0:0:0:
200,144,213869,2,0,P|205:89|199:37,1,95,8|4,0:0|0:0,0:0:0:0:
288,36,214112,1,4,0:0:0:0:
309,19,214192,6,0,P|300:67|286:172,1,142.5,8|0,0:0|0:0,0:0:0:0:
355,215,214515,2,0,P|399:219|455:247,1,95,8|4,0:0|0:0,0:0:0:0:
495,321,214757,1,4,0:0:0:0:
504,341,214837,1,8,0:0:0:0:
370,305,214999,1,4,0:0:0:0:
370,305,215079,1,4,0:0:0:0:
370,305,215160,1,8,0:0:0:0:
453,145,215321,5,4,0:0:0:0:
453,145,215402,1,4,0:0:0:0:
453,145,215482,2,0,P|449:195|445:249,1,95,8|0,0:0|0:0,0:0:0:0:
313,85,215805,1,8,0:0:0:0:
473,33,215966,1,4,0:0:0:0:
473,33,216047,1,4,0:0:0:0:
473,33,216128,1,8,0:0:0:0:
341,181,216289,1,4,0:0:0:0:
341,181,216370,1,4,0:0:0:0:
341,181,216450,1,8,0:0:0:0:
204,36,216612,5,4,0:0:0:0:
204,36,216692,1,4,0:0:0:0:
204,36,216773,2,0,P|262:39|314:29,1,95,8|0,0:0|0:0,0:0:0:0:
155,215,217096,1,8,0:0:0:0:
281,159,217257,1,4,0:0:0:0:
281,159,217337,1,4,0:0:0:0:
281,159,217418,1,8,0:0:0:0:
126,92,217579,1,4,0:0:0:0:
126,92,217660,1,4,0:0:0:0:
126,92,217741,1,8,0:0:0:0:
264,27,217902,2,4,P|290:20|319:23,1,47.5
455,52,218063,5,4,0:0:0:0:
488,85,218143,1,4,0:0:0:0:
500,131,218224,1,4,0:0:0:0:
487,176,218305,1,4,0:0:0:0:
453,208,218386,1,8,0:0:0:0:
408,222,218466,1,4,0:0:0:0:
368,245,218546,1,4,0:0:0:0:
357,290,218627,1,4,0:0:0:0:
382,329,218707,1,4,0:0:0:0:
427,337,218788,1,4,0:0:0:0:
465,310,218870,2,4,P|493:306|524:314,1,47.5
344,239,219031,6,2,B|291:246|291:246|210:232,1,106.875004076958,8|0,0:0|0:0,0:2:0:0:
89,178,219354,5,4,0:0:0:0:
51,151,219434,1,4,0:0:0:0:
37,107,219515,1,4,0:0:0:0:
52,63,219595,1,4,0:0:0:0:
90,36,219676,1,8,0:0:0:0:
137,37,219757,1,4,0:0:0:0:
173,66,219837,1,4,0:0:0:0:
204,104,219918,1,4,0:0:0:0:
247,123,219998,1,4,0:0:0:0:
293,115,220079,1,4,0:0:0:0:
327,83,220160,2,4,P|356:82|400:92,1,47.5
505,174,220321,6,2,B|493:227|493:227|504:279,1,106.875004076958,8|0,0:0|0:0,0:2:0:0:
374,357,220644,5,4,0:0:0:0:
329,368,220724,1,4,0:0:0:0:
285,351,220805,1,4,0:0:0:0:
258,313,220885,1,4,0:0:0:0:
256,266,220966,1,8,0:0:0:0:
281,226,221047,1,4,0:0:0:0:
324,207,221128,2,4,P|360:216|380:228,1,47.5
216,111,221289,5,4,0:0:0:0:
227,157,221369,1,4,0:0:0:0:
210,201,221450,1,4,0:0:0:0:
172,228,221530,1,4,0:0:0:0:
125,230,221611,1,8,0:0:0:0:
85,205,221692,1,4,0:0:0:0:
66,162,221773,2,4,P|76:126|88:106,1,47.5
299,24,221934,5,4,0:0:0:0:
345,12,222014,1,4,0:0:0:0:
389,28,222095,1,4,0:0:0:0:
416,66,222175,1,4,0:0:0:0:
416,113,222256,1,8,0:0:0:0:
390,151,222337,1,4,0:0:0:0:
346,168,222417,1,4,0:0:0:0:
301,156,222498,1,4,0:0:0:0:
260,128,222579,1,4,0:0:0:0:
215,116,222659,1,4,0:0:0:0:
171,132,222740,1,4,0:0:0:0:
144,170,222820,1,4,0:0:0:0:
144,220,222902,2,0,P|152:252|168:280,1,47.5,8|4,0:0|0:0,0:0:0:0:
13,203,223063,2,4,P|23:182|28:158,1,47.5
209,24,223225,6,0,P|261:34|318:40,1,95,8|0,0:0|0:0,0:0:0:0:
445,189,223547,1,8,0:0:0:0:
253,167,223708,1,4,0:0:0:0:
253,167,223789,1,4,0:0:0:0:
253,167,223869,1,8,0:0:0:0:
394,55,224031,1,4,0:0:0:0:
394,55,224112,1,4,0:0:0:0:
394,55,224192,1,8,0:0:0:0:
475,206,224354,5,4,0:0:0:0:
475,206,224434,1,4,0:0:0:0:
475,206,224515,2,0,P|466:278|459:351,1,142.5,8|0,0:0|0:0,0:0:0:0:
386,369,224837,2,0,P|339:346|287:346,1,95,8|4,0:0|0:0,0:0:0:0:
186,374,225079,1,4,0:0:0:0:
168,360,225160,1,8,0:0:0:0:
268,236,225321,1,4,0:0:0:0:
268,236,225402,1,4,0:0:0:0:
268,236,225482,1,8,0:0:0:0:
128,124,225644,5,4,0:0:0:0:
128,124,225725,1,4,0:0:0:0:
128,124,225805,2,0,B|177:141|177:141|225:123,1,95,8|0,0:0|0:0,0:0:0:0:
347,47,226128,2,0,B|307:32|307:32|258:49,1,95,8|4,0:0|0:0,0:0:0:0:
365,135,226370,1,4,0:0:0:0:
372,124,226450,2,0,L|468:114,1,95,8|4,0:0|0:0,0:0:0:0:
344,219,226692,1,4,0:0:0:0:
336,207,226773,2,0,L|240:197,1,95,8|4,0:0|0:0,0:0:0:0:
79,248,227015,5,4,0:0:0:0:
86,260,227096,2,0,P|141:266|187:278,1,95,8|0,0:0|0:0,0:0:0:0:
2,311,227418,1,8,0:0:0:0:
101,178,227579,1,4,0:0:0:0:
101,178,227660,1,4,0:0:0:0:
101,178,227741,1,8,0:0:0:0:
170,348,227902,1,0,0:0:0:0:
170,348,227982,1,4,0:0:0:0:
170,348,228063,1,8,0:0:0:0:
239,239,228224,2,4,L|223:175,1,47.5
319,42,228386,5,4,0:0:0:0:
365,53,228466,1,4,0:0:0:0:
395,88,228547,1,4,0:0:0:0:
400,134,228628,1,4,0:0:0:0:
392,180,228708,1,8,0:0:0:0:
379,225,228788,1,4,0:0:0:0:
400,267,228869,1,4,0:0:0:0:
444,283,228949,1,4,0:0:0:0:
486,265,229030,1,4,0:0:0:0:
506,223,229111,1,4,0:0:0:0:
492,179,229192,2,4,P|480:152|476:116,1,47.5
345,125,229353,6,2,B|363:179|363:179|347:233,1,106.875004076958,8|0,0:0|0:0,0:2:0:0:
258,336,229676,5,4,0:0:0:0:
216,357,229756,1,4,0:0:0:0:
170,348,229837,1,4,0:0:0:0:
139,314,229917,1,4,0:0:0:0:
133,268,229999,1,8,0:0:0:0:
156,227,230079,1,4,0:0:0:0:
188,191,230160,1,4,0:0:0:0:
211,151,230240,1,4,0:0:0:0:
193,109,230321,1,4,0:0:0:0:
149,97,230401,1,4,0:0:0:0:
104,112,230483,2,4,P|82:115|37:104,1,47.5
178,24,230644,6,2,B|231:41|231:41|286:20,1,106.875004076958,8|0,0:0|0:0,0:2:0:0:
445,130,230966,5,4,0:0:0:0:
456,175,231046,1,4,0:0:0:0:
439,219,231127,1,4,0:0:0:0:
401,246,231207,1,4,0:0:0:0:
354,248,231288,1,8,0:0:0:0:
314,223,231369,1,4,0:0:0:0:
295,180,231450,2,4,P|304:144|316:124,1,47.5
218,44,231611,5,4,0:0:0:0:
229,90,231691,1,4,0:0:0:0:
212,134,231772,1,4,0:0:0:0:
174,161,231852,1,4,0:0:0:0:
127,163,231933,1,8,0:0:0:0:
87,138,232014,1,4,0:0:0:0:
68,95,232095,2,4,P|78:59|90:39,1,47.5
236,22,232257,5,4,0:0:0:0:
283,28,232337,1,4,0:0:0:0:
322,54,232418,1,4,0:0:0:0:
344,96,232498,1,4,0:0:0:0:
344,143,232579,1,8,0:0:0:0:
321,184,232660,1,4,0:0:0:0:
282,210,232741,1,4,0:0:0:0:
247,240,232821,1,4,0:0:0:0:
236,286,232902,1,4,0:0:0:0:
254,328,232982,1,4,0:0:0:0:
295,352,233063,1,4,0:0:0:0:
341,347,233144,1,4,0:0:0:0:
375,315,233225,2,0,B|420:303|420:303|476:332,1,95,8|0,0:0|0:0,0:0:0:0:
247,240,233547,6,0,L|145:252,1,95,8|4,0:0|0:0,0:0:0:0:
262,127,233870,1,8,0:0:0:0:
353,253,234031,1,4,0:0:0:0:
452,113,234192,2,0,B|359:139|359:139|252:89,1,190,8|8,0:0|0:0,0:0:0:0:
154,11,234676,5,4,0:0:0:0:
154,11,234757,1,4,0:0:0:0:
154,11,234837,2,0,L|168:108,1,95,8|0,0:0|0:0,0:0:0:0:
80,240,235160,2,0,L|66:337,1,95,8|4,0:0|0:0,0:0:0:0:
184,232,235483,1,8,0:0:0:0:
28,160,235644,1,4,0:0:0:0:
28,160,235725,1,4,0:0:0:0:
28,160,235805,1,8,0:0:0:0:
168,106,235966,5,4,0:0:0:0:
168,106,236047,1,4,0:0:0:0:
168,106,236128,1,8,0:0:0:0:
80,240,236289,1,0,0:0:0:0:
57,49,236450,1,8,0:0:0:0:
192,188,236612,5,4,0:0:0:0:
192,188,236692,1,4,0:0:0:0:
192,188,236773,2,0,L|176:304,1,95,8|4,0:0|0:0,0:0:0:0:
275,340,237015,1,4,0:0:0:0:
284,352,237095,2,0,L|272:258,1,95,8|4,0:0|0:0,0:0:0:0:
364,208,237337,1,4,0:0:0:0:
376,200,237418,2,0,L|360:316,1,95,8|4,0:0|0:0,0:0:0:0:
458,335,237660,1,4,0:0:0:0:
471,344,237740,2,0,L|459:250,1,95,8|4,0:0|0:0,0:0:0:0:
313,104,238063,6,0,P|248:124|195:115,1,95,8|0,0:0|0:0,0:0:0:0:
389,157,238386,2,0,P|436:157|480:175,1,95
327,338,238708,6,0,L|325:242,1,95,8|4,0:0|0:0,0:0:0:0:
320,142,238950,1,4,0:0:0:0:
320,142,239031,1,8,0:0:0:0:
432,245,239192,1,4,0:0:0:0:
244,207,239353,1,8,0:0:0:0:
421,156,239515,1,4,0:0:0:0:
421,156,239595,1,4,0:0:0:0:
421,156,239676,1,8,0:0:0:0:
241,35,239837,5,4,0:0:0:0:
241,35,239918,1,4,0:0:0:0:
241,35,239999,2,0,L|255:132,1,95,8|0,0:0|0:0,0:0:0:0:
147,243,240321,2,0,L|133:340,1,95,8|4,0:0|0:0,0:0:0:0:
236,224,240644,1,8,0:0:0:0:
60,258,240805,1,4,0:0:0:0:
60,258,240886,1,4,0:0:0:0:
60,258,240966,1,8,0:0:0:0:
249,314,241127,5,4,0:0:0:0:
249,314,241208,1,4,0:0:0:0:
249,314,241289,1,8,0:0:0:0:
125,163,241450,1,0,0:0:0:0:
88,353,241611,1,8,0:0:0:0:
246,300,241773,5,4,0:0:0:0:
246,300,241853,1,4,0:0:0:0:
246,300,241934,2,0,L|362:316,1,95,8|4,0:0|0:0,0:0:0:0:
398,217,242176,1,4,0:0:0:0:
410,208,242257,2,0,L|316:220,1,95,8|4,0:0|0:0,0:0:0:0:
266,128,242498,1,4,0:0:0:0:
258,116,242579,2,0,L|374:132,1,95,8|4,0:0|0:0,0:0:0:0:
393,34,242821,1,4,0:0:0:0:
401,23,242902,2,0,L|307:35,1,95,8|4,0:0|0:0,0:0:0:0:
119,148,243224,6,0,P|112:204|100:240,1,95,8|0,0:0|0:0,0:0:0:0:
206,349,243547,2,0,P|191:303|186:256,1,95
262,107,243869,6,0,L|364:119,1,95,8|4,0:0|0:0,0:0:0:0:
512,200,244192,1,8,0:0:0:0:
458,82,244353,1,4,0:0:0:0:
304,196,244515,2,0,B|242:226|242:226|107:182,1,190,8|8,0:0|0:0,0:0:0:0:
194,34,244998,5,4,0:0:0:0:
194,34,245079,1,4,0:0:0:0:
194,34,245160,2,0,L|208:131,1,95,8|0,0:0|0:0,0:0:0:0:
80,240,245482,2,0,L|66:337,1,95,8|0,0:0|0:0,0:0:0:0:
187,269,245805,1,8,0:0:0:0:
0,182,245966,1,4,0:0:0:0:
0,182,246047,1,4,0:0:0:0:
0,182,246128,1,8,0:0:0:0:
176,165,246288,5,4,0:0:0:0:
176,165,246369,1,4,0:0:0:0:
176,165,246450,1,8,0:0:0:0:
0,255,246611,1,0,0:0:0:0:
191,330,246772,1,8,0:0:0:0:
90,178,246934,5,4,0:0:0:0:
90,178,247014,1,4,0:0:0:0:
90,178,247095,2,0,L|74:294,1,95,8|4,0:0|0:0,0:0:0:0:
168,301,247337,1,4,0:0:0:0:
177,313,247418,2,0,L|165:219,1,95,8|4,0:0|0:0,0:0:0:0:
257,169,247659,1,4,0:0:0:0:
269,161,247740,2,0,L|253:277,1,95,8|4,0:0|0:0,0:0:0:0:
351,296,247982,1,4,0:0:0:0:
362,304,248063,2,0,L|350:210,1,95,8|4,0:0|0:0,0:0:0:0:
311,49,248386,6,0,P|246:69|193:60,1,95,8|0,0:0|0:0,0:0:0:0:
389,107,248708,2,0,P|436:107|480:125,1,95
350,330,249031,6,0,L|248:318,1,95,8|4,0:0|0:0,0:0:0:0:
83,281,249353,1,8,0:0:0:0:
183,384,249515,1,4,0:0:0:0:
183,384,249595,1,4,0:0:0:0:
183,384,249676,1,8,0:0:0:0:
190,213,249837,1,4,0:0:0:0:
190,213,249918,1,4,0:0:0:0:
190,213,249999,1,8,0:0:0:0:
18,322,250160,5,4,0:0:0:0:
18,322,250241,1,4,0:0:0:0:
18,322,250321,2,0,L|115:308,1,95,8|0,0:0|0:0,0:0:0:0:
293,286,250644,1,8,0:0:0:0:
175,164,250805,1,4,0:0:0:0:
175,164,250886,1,4,0:0:0:0:
175,164,250967,1,8,0:0:0:0:
218,376,251127,1,4,0:0:0:0:
218,376,251208,1,4,0:0:0:0:
218,376,251289,1,8,0:0:0:0:
281,191,251450,5,4,0:0:0:0:
281,191,251531,1,4,0:0:0:0:
281,191,251612,1,8,0:0:0:0:
120,279,251773,1,0,0:0:0:0:
319,357,251934,1,8,0:0:0:0:
453,211,252096,5,4,0:0:0:0:
453,211,252176,1,4,0:0:0:0:
453,211,252257,2,0,L|469:95,1,95,8|4,0:0|0:0,0:0:0:0:
370,59,252499,1,4,0:0:0:0:
361,47,252580,2,0,L|373:141,1,95,8|4,0:0|0:0,0:0:0:0:
281,191,252821,1,4,0:0:0:0:
269,199,252902,2,0,L|285:83,1,95,8|4,0:0|0:0,0:0:0:0:
187,64,253144,1,4,0:0:0:0:
176,56,253225,2,0,L|188:150,1,95,8|0,0:0|0:0,0:0:0:0:
69,268,253547,6,2,L|76:55,1,190,8|0,0:0|0:0,0:1:0:0:
256,192,254192,12,0,261934,0:2:0:0:
