osu file format v14

[General]
AudioFilename: audio.mp3
AudioLeadIn: 0
PreviewTime: 211525
Countdown: 1
SampleSet: Normal
StackLeniency: 1
Mode: 0
LetterboxInBreaks: 0
WidescreenStoryboard: 1

[Editor]
Bookmarks: 65718,91605,148380,171444,190960,213622
DistanceSpacing: 1
BeatDivisor: 4
GridSize: 4
TimelineZoom: 0.5999995

[Metadata]
Title:Nippon Manju
TitleUnicode:ニッポン饅頭
Artist:LADYBABY
ArtistUnicode:LADYBABY
Creator:AlexLovesYou
Version:MPB's Easy
Source:
Tags:Metal, J-Pop, Kawaii Metal
BeatmapID:1662018
BeatmapSetID:792362

[Difficulty]
HPDrainRate:1
CircleSize:3
OverallDifficulty:1
ApproachRate:2
SliderMultiplier:0.8
SliderTickRate:1

[Events]
//Background and Video events
0,0,"maxresdefault (3).jpg",0,0
//Break Periods
2,60837,61658
2,91805,100368
2,167935,170045
2,233741,237142
//Storyboard Layer 0 (Background)
//Storyboard Layer 1 (Fail)
//Storyboard Layer 2 (Pass)
//Storyboard Layer 3 (Foreground)
//Storyboard Sound Samples

[TimingPoints]
0,322.58064516129,4,1,0,100,1,0
2499,-100,4,2,0,100,0,0
3145,-100,4,2,0,100,0,0
3864,322.58064516129,4,1,0,100,1,0
9025,-100,4,2,0,100,0,0
14025,-100,4,1,0,100,0,0
24347,-100,4,2,0,100,0,0
34689,-100,4,1,0,100,0,0
39509,-100,4,2,0,100,0,0
40476,-100,4,1,0,100,0,0
45638,-100,4,2,0,100,0,0
65638,-100,4,1,0,100,0,0
86122,-133.333333333333,4,1,0,100,0,0
88702,-100,4,1,0,100,0,0
107654,-100,4,2,0,100,0,0
112573,-200,4,1,0,100,0,0
120960,-100,4,1,0,100,0,0
145476,-100,4,2,0,100,0,0
148218,-100,4,3,0,100,0,0
158541,-100,4,2,0,100,0,0
171283,-100,4,1,0,70,0,0
202251,-100,4,2,0,70,0,0
211444,-100,4,1,0,85,0,0
212734,-100,4,1,0,100,0,0
252815,-100,4,2,0,100,0,0

[Colours]
Combo1 : 215,0,0
Combo2 : 39,39,39
Combo3 : 249,209,224
Combo4 : 39,39,39
Combo5 : 249,209,224
Combo6 : 215,0,0

[HitObjects]
210,158,2580,21,0,0:0:0:0:
282,106,2903,1,0,0:0:0:0:
349,149,3225,1,0,0:0:0:0:
326,225,3548,1,0,0:0:0:0:
248,235,3864,1,0,0:0:0:0:
100,173,4509,2,0,L|371:49,1,240
188,50,6444,1,0,0:0:0:0:
191,50,7734,1,0,0:0:0:0:
56,93,8380,21,0,0:0:0:0:
102,158,8702,1,0,0:0:0:0:
248,94,9347,2,2,P|286:189|277:264,1,160
127,284,10638,1,2,0:0:0:0:
126,204,10960,1,2,0:0:0:0:
126,123,11283,1,2,0:0:0:0:
280,81,11928,53,2,0:0:0:0:
435,119,12573,1,2,0:0:0:0:
365,262,13218,1,2,0:0:0:0:
286,277,13541,1,2,0:0:0:0:
207,290,13863,1,2,0:0:0:0:
132,260,14186,6,0,P|244:154|430:107,3,320
371,210,19347,2,0,L|17:287,3,320
158,140,24509,5,2,0:0:0:0:
257,80,25154,1,2,0:0:0:0:
366,143,25799,1,2,0:0:0:0:
468,222,26444,1,2,0:0:0:0:
470,99,27412,53,2,0:0:0:0:
384,234,28057,1,2,0:0:0:0:
280,112,28702,1,2,0:0:0:0:
177,234,29347,1,2,0:0:0:0:
72,112,29993,1,2,0:0:0:0:
213,37,30638,1,2,0:0:0:0:
269,186,31283,1,2,0:0:0:0:
392,83,31928,1,2,0:0:0:0:
473,220,32573,1,2,0:0:0:0:
325,281,33218,1,2,0:0:0:0:
174,333,33863,1,2,0:0:0:0:
55,266,34831,6,0,P|176:162|456:184,1,400
382,243,36767,1,0,0:0:0:0:
345,314,37089,1,0,0:0:0:0:
267,332,37412,2,0,P|75:213|197:53,1,480
272,32,39670,5,2,0:0:0:0:
348,55,39993,1,2,0:0:0:0:
404,192,40638,38,0,P|367:278|308:316,1,160
235,296,41605,1,0,0:0:0:0:
169,250,41928,1,0,0:0:0:0:
200,54,42573,21,0,0:0:0:0:
147,114,42896,1,0,0:0:0:0:
201,172,43218,1,0,0:0:0:0:
152,235,43541,1,0,0:0:0:0:
203,296,43863,1,0,0:0:0:0:
259,239,44186,2,0,P|302:147|268:12,1,240
200,54,45799,5,2,0:0:0:0:
148,115,46122,1,2,0:0:0:0:
219,158,46444,1,2,0:0:0:0:
161,213,46767,2,2,L|101:281,1,80
259,323,47734,53,2,0:0:0:0:
315,266,48057,1,2,0:0:0:0:
259,208,48380,2,2,P|213:132|234:68,1,160
307,97,49347,1,2,0:0:0:0:
340,169,49670,1,2,0:0:0:0:
237,291,50315,22,2,P|178:220|153:115,1,160
166,77,51283,1,2,0:0:0:0:
239,44,51605,1,2,0:0:0:0:
313,73,51928,2,2,P|357:132|327:297,1,240
262,321,53218,1,2,0:0:0:0:
208,261,53541,1,2,0:0:0:0:
117,90,54186,54,2,P|198:122|242:192,1,160
274,251,55154,1,2,0:0:0:0:
309,322,55476,1,2,0:0:0:0:
155,168,57734,22,2,P|181:124|228:110,1,80
357,168,60315,2,2,P|331:124|284:110,1,80
112,52,63218,53,2,0:0:0:0:
173,103,63541,1,2,0:0:0:0:
104,144,63863,2,2,P|71:236|92:309,1,160
124,83,65799,21,0,0:0:0:0:
169,148,66122,1,0,0:0:0:0:
271,145,66767,1,0,0:0:0:0:
320,81,67089,2,0,L|363:153,1,80
397,220,67734,2,0,L|477:220,2,80
316,218,68702,1,0,0:0:0:0:
235,218,69025,1,0,0:0:0:0:
340,97,69670,53,0,0:0:0:0:
391,145,69993,1,0,0:0:0:0:
431,206,70315,1,0,0:0:0:0:
398,273,70638,1,0,0:0:0:0:
329,300,70960,2,0,L|214:301,1,80
177,264,71605,1,0,0:0:0:0:
95,125,72251,2,0,L|156:59,1,80
209,13,72896,1,0,0:0:0:0:
356,74,73541,21,0,0:0:0:0:
382,149,73863,1,0,0:0:0:0:
378,229,74186,1,0,0:0:0:0:
340,299,74509,1,0,0:0:0:0:
268,334,74831,2,0,L|64:263,1,160
276,266,76122,53,0,0:0:0:0:
336,214,76444,1,0,0:0:0:0:
395,160,76767,1,0,0:0:0:0:
452,215,77089,1,0,0:0:0:0:
394,271,77412,1,0,0:0:0:0:
337,327,77734,1,0,0:0:0:0:
228,330,78380,21,0,0:0:0:0:
180,265,78702,1,0,0:0:0:0:
226,199,79025,1,0,0:0:0:0:
174,138,79347,1,0,0:0:0:0:
228,79,79670,1,0,0:0:0:0:
346,89,80315,53,0,0:0:0:0:
405,140,80638,2,0,L|299:235,1,80
278,239,81283,2,0,L|146:300,2,80
346,194,82251,1,0,0:0:0:0:
284,139,82573,2,0,L|152:78,2,80
221,189,83541,1,0,0:0:0:0:
272,250,83863,2,0,L|508:249,2,160
112,264,85799,1,0,0:0:0:0:
162,296,86122,1,0,0:0:0:0:
216,321,86444,2,0,P|331:311|470:229,1,240.000009155274
123,212,89025,5,0,0:0:0:0:
202,212,89347,1,0,0:0:0:0:
282,212,89670,1,0,0:0:0:0:
362,212,89993,1,0,0:0:0:0:
364,291,90315,2,0,L|215:291,2,80
255,192,91605,1,0,0:0:0:0:
108,80,101928,6,0,L|258:93,1,80
292,144,102734,2,0,L|223:149,1,40
136,184,103380,2,0,P|168:264|368:304,1,280
356,116,105315,2,0,P|304:132|292:148,1,40
216,184,105960,2,0,L|320:228,1,80
349,274,106444,2,0,L|245:318,1,80
212,256,107089,1,0,0:0:0:0:
123,122,107734,53,2,0:0:0:0:
268,55,108380,1,2,0:0:0:0:
408,132,109025,2,2,P|382:210|306:280,1,160
262,309,109993,1,2,0:0:0:0:
183,293,110315,1,2,0:0:0:0:
105,201,110799,2,2,P|128:129|221:67,1,160
304,35,111928,1,2,0:0:0:0:
384,33,112251,1,2,0:0:0:0:
410,160,112896,6,0,L|296:160,2,80
99,194,114831,2,0,L|213:194,1,80
169,268,116122,2,0,L|283:268,1,80
412,223,117412,2,0,L|298:223,1,80
332,297,118702,2,0,L|218:297,1,80
243,109,119993,2,0,L|323:109,1,80
377,4,121283,6,0,P|418:89|427:271,1,240
388,301,122573,1,0,0:0:0:0:
343,236,122896,1,0,0:0:0:0:
241,239,123541,1,0,0:0:0:0:
192,303,123863,2,0,L|150:234,1,80
115,164,124508,2,0,L|35:164,2,80
196,166,125476,1,0,0:0:0:0:
277,166,125799,1,0,0:0:0:0:
172,287,126444,53,0,0:0:0:0:
121,239,126767,1,0,0:0:0:0:
81,178,127089,1,0,0:0:0:0:
114,111,127412,1,0,0:0:0:0:
183,84,127734,2,0,L|262:83,1,80
335,120,128379,1,0,0:0:0:0:
417,259,129025,2,0,L|362:317,1,80
303,371,129670,1,0,0:0:0:0:
156,310,130315,21,0,0:0:0:0:
130,235,130637,1,0,0:0:0:0:
134,155,130960,1,0,0:0:0:0:
172,85,131283,1,0,0:0:0:0:
244,50,131605,2,0,L|395:102,1,160
236,118,132896,53,0,0:0:0:0:
176,170,133218,1,0,0:0:0:0:
117,224,133541,1,0,0:0:0:0:
60,169,133863,1,0,0:0:0:0:
118,113,134186,1,0,0:0:0:0:
175,57,134508,1,0,0:0:0:0:
284,54,135154,21,0,0:0:0:0:
332,119,135476,1,0,0:0:0:0:
286,185,135799,1,0,0:0:0:0:
338,246,136121,1,0,0:0:0:0:
284,305,136444,1,0,0:0:0:0:
166,295,137089,53,0,0:0:0:0:
107,244,137412,2,0,L|166:190,1,80
234,145,138057,2,0,L|306:111,2,80
166,190,139025,1,0,0:0:0:0:
228,245,139347,2,0,L|300:278,2,80
291,195,140315,1,0,0:0:0:0:
240,134,140637,2,0,L|80:134,2,160
400,120,142573,1,0,0:0:0:0:
350,88,142896,1,0,0:0:0:0:
295,62,143218,2,0,P|177:74|71:128,1,240.000009155274
389,172,145799,22,2,P|327:274|201:339,1,240
151,301,147089,1,2,0:0:0:0:
99,239,147412,1,2,0:0:0:0:
124,163,147734,1,2,0:0:0:0:
306,115,148380,38,8,L|196:246,2,160
255,61,150315,1,8,0:0:0:0:
206,115,150960,2,8,L|316:246,2,160
140,69,152573,1,8,0:0:0:0:
123,147,152896,1,8,0:0:0:0:
206,269,153541,22,8,L|316:138,2,160
276,307,155154,1,8,0:0:0:0:
352,284,155476,1,8,0:0:0:0:
416,236,155799,1,8,0:0:0:0:
451,164,156122,2,8,L|291:163,2,160
406,97,157734,1,8,0:0:0:0:
340,50,158057,1,8,0:0:0:0:
263,26,158380,1,8,0:0:0:0:
205,81,158702,5,2,0:0:0:0:
278,223,159347,1,2,0:0:0:0:
351,80,159993,1,2,0:0:0:0:
278,161,160638,1,2,0:0:0:0:
205,303,161283,1,2,0:0:0:0:
351,304,161929,1,2,0:0:0:0:
278,223,162573,53,2,0:0:0:0:
205,81,163218,1,2,0:0:0:0:
351,80,163864,1,2,0:0:0:0:
278,161,164509,1,2,0:0:0:0:
205,303,165154,1,2,0:0:0:0:
351,304,165800,1,2,0:0:0:0:
278,223,166444,1,2,0:0:0:0:
205,81,167089,1,2,0:0:0:0:
351,80,167735,1,2,0:0:0:0:
76,193,171605,38,2,P|220:89|406:157,1,320
410,165,173218,1,2,0:0:0:0:
405,261,173541,2,2,L|477:325,2,80
312,291,174509,1,2,0:0:0:0:
252,238,174831,1,2,0:0:0:0:
313,186,175154,1,2,0:0:0:0:
368,243,175476,1,2,0:0:0:0:
311,299,175799,1,2,0:0:0:0:
247,346,176121,1,2,0:0:0:0:
184,296,176444,1,2,0:0:0:0:
71,346,176767,2,2,B|48:268|48:268|119:248|119:248|120:191|120:191|217:153|217:153|222:77|222:77|315:38|315:38,1,480
317,127,179347,6,2,P|476:209|430:353,1,320
400,381,180960,1,2,0:0:0:0:
369,307,181283,1,2,0:0:0:0:
314,365,181605,1,2,0:0:0:0:
206,257,181928,70,2,B|116:251,2,80
276,294,182896,1,2,0:0:0:0:
320,227,183218,1,2,0:0:0:0:
374,285,183541,1,2,0:0:0:0:
426,229,183863,1,2,0:0:0:0:
376,171,184186,1,2,0:0:0:0:
256,192,184509,12,0,190960,0:0:0:0:
253,192,192251,37,0,0:0:0:0:
131,88,193541,1,0,0:0:0:0:
131,296,194831,1,0,0:0:0:0:
381,88,196122,21,0,0:0:0:0:
259,192,196767,1,0,0:0:0:0:
131,88,197412,1,0,0:0:0:0:
381,88,198702,53,0,0:0:0:0:
381,296,199993,1,0,0:0:0:0:
259,192,201283,1,0,0:0:0:0:
131,296,201928,1,0,0:0:0:0:
131,88,202573,22,2,P|183:77|257:110,2,80
60,126,203541,1,2,0:0:0:0:
128,167,203863,2,2,P|180:178|254:145,1,80
358,223,204831,53,2,0:0:0:0:
297,275,205154,2,2,P|212:301|111:268,2,160
370,307,206767,1,2,0:0:0:0:
399,232,207089,1,2,0:0:0:0:
416,73,207734,2,2,P|420:43|413:25,2,40
344,37,208380,1,2,0:0:0:0:
192,87,209025,2,2,P|156:179|164:253,1,160
420,168,210315,21,2,0:0:0:0:
377,322,210960,1,2,0:0:0:0:
331,168,211605,2,0,P|286:86|210:14,1,160
105,162,212896,53,0,0:0:0:0:
156,223,213218,1,0,0:0:0:0:
205,162,213541,1,0,0:0:0:0:
256,223,213863,1,0,0:0:0:0:
308,162,214186,2,0,P|377:209|407:270,1,80
377,45,215154,21,0,0:0:0:0:
297,47,215476,2,0,L|197:55,2,80
340,114,216444,1,0,0:0:0:0:
330,273,217089,2,0,P|281:291|228:290,1,80
175,276,217734,1,0,0:0:0:0:
119,218,218057,54,0,P|100:128|114:52,1,160
266,25,219347,2,0,P|285:115|271:191,1,160
137,264,220638,1,0,0:0:0:0:
275,344,221283,1,0,0:0:0:0:
395,239,221928,1,0,0:0:0:0:
345,175,222251,1,0,0:0:0:0:
295,238,222573,1,0,0:0:0:0:
192,115,223218,22,0,P|247:80|280:78,1,80
419,94,224186,1,0,0:0:0:0:
416,174,224509,2,0,P|401:237|379:262,1,80
283,364,225476,1,0,0:0:0:0:
225,307,225799,1,0,0:0:0:0:
170,248,226122,1,0,0:0:0:0:
119,186,226444,2,0,L|56:106,1,80
217,61,227412,54,0,P|259:51|308:65,2,80
154,110,228380,1,0,0:0:0:0:
104,172,228702,1,0,0:0:0:0:
153,234,229025,1,0,0:0:0:0:
358,110,229670,21,0,0:0:0:0:
408,172,229993,2,0,L|355:241,1,80
241,344,230960,53,0,0:0:0:0:
189,282,231283,1,0,0:0:0:0:
267,265,231605,1,0,0:0:0:0:
220,199,231928,1,0,0:0:0:0:
299,189,232251,1,0,0:0:0:0:
248,126,232573,1,0,0:0:0:0:
326,111,232896,2,0,L|381:185,1,80
420,239,233541,1,0,0:0:0:0:
187,95,238702,5,0,0:0:0:0:
146,163,239025,1,0,0:0:0:0:
189,230,239347,1,0,0:0:0:0:
145,297,239670,1,0,0:0:0:0:
186,365,239993,2,0,P|361:291|440:186,1,320
379,135,241605,53,0,0:0:0:0:
310,170,241928,2,0,P|239:218|194:277,1,160
143,338,242896,1,0,0:0:0:0:
85,282,243218,1,0,0:0:0:0:
179,45,243863,22,0,P|242:106|278:182,1,160
300,256,244831,1,0,0:0:0:0:
230,295,245154,2,0,P|183:286|155:264,1,80
148,192,245799,2,0,P|195:201|223:223,1,80
370,274,246767,53,0,0:0:0:0:
313,330,247089,1,0,0:0:0:0:
261,269,247412,1,0,0:0:0:0:
219,201,247734,2,0,L|162:119,1,80
126,70,248380,1,0,0:0:0:0:
413,120,249025,21,0,0:0:0:0:
362,182,249347,2,0,P|288:217|231:216,1,80
213,194,249993,1,0,0:0:0:0:
144,234,250315,1,0,0:0:0:0:
73,56,250799,2,0,P|162:61|237:118,1,180
162,150,251928,1,0,0:0:0:0:
145,228,252251,1,0,0:0:0:0:
186,296,252573,1,0,0:0:0:0:
228,228,252896,5,2,0:0:0:0:
260,155,253218,1,2,0:0:0:0:
319,208,253541,1,2,0:0:0:0:
256,192,253863,12,0,265799,0:0:0:0:
