osu file format v14

[General]
AudioFilename: audio.mp3
AudioLeadIn: 0
PreviewTime: 211525
Countdown: 1
SampleSet: Normal
StackLeniency: 0.7
Mode: 0
LetterboxInBreaks: 0
WidescreenStoryboard: 0

[Editor]
Bookmarks: 14105,24589,34831,45315,54993,65718,91605,101928,112412,122573,148380,171444,192251,202573,213622,238057,253622
DistanceSpacing: 1
BeatDivisor: 4
GridSize: 4
TimelineZoom: 1.5

[Metadata]
Title:Nippon Manju
TitleUnicode:ニッポン饅頭
Artist:LADYBABY
ArtistUnicode:LADYBABY
Creator:AlexLovesYou
Version:Catharsis
Source:
Tags:Metal, J-Pop, Kawaii Metal
BeatmapID:1662015
BeatmapSetID:792362

[Difficulty]
HPDrainRate:8
CircleSize:4
OverallDifficulty:8
ApproachRate:9.5
SliderMultiplier:2
SliderTickRate:1

[Events]
//Background and Video events
0,0,"maxresdefault (3).jpg",0,0
//Break Periods
2,91805,101403
//Storyboard Layer 0 (Background)
//Storyboard Layer 1 (Fail)
//Storyboard Layer 2 (Pass)
//Storyboard Layer 3 (Foreground)
//Storyboard Sound Samples

[TimingPoints]
0,322.58064516129,4,1,0,100,1,0
2459,-100,4,1,0,60,0,0
3790,-100,4,1,0,90,0,0
3864,322.58064516129,4,1,0,100,1,0
3984,-100,4,2,0,90,0,0
6363,-200,4,2,0,100,0,0
6847,-100,4,2,0,100,0,0
9307,-100,4,2,0,70,0,0
9952,-100,4,2,0,80,0,0
10597,-100,4,2,0,85,0,0
10920,-100,4,2,0,95,0,0
11888,-100,4,2,0,70,0,0
14105,-66.6666666666667,4,3,0,100,0,0
14267,-66.6666666666667,4,1,0,100,0,0
15920,-66.6666666666667,4,1,0,100,0,0
16726,-66.6666666666667,4,1,0,100,0,0
18138,-100,4,1,0,100,0,0
19267,-100,4,1,0,100,0,0
23339,-100,4,3,0,100,0,0
23460,-100,4,1,0,100,0,0
23662,-100,4,3,0,100,0,0
23783,-100,4,1,0,100,0,0
23984,-100,4,3,0,100,0,0
24509,-133.333333333333,4,2,0,100,0,0
26686,-133.333333333333,4,1,0,100,0,0
27049,-133.333333333333,4,1,0,100,0,0
27331,-133.333333333333,4,2,0,100,0,0
29267,-133.333333333333,4,1,0,100,0,0
29630,-133.333333333333,4,1,0,100,0,0
29912,-133.333333333333,4,2,0,100,0,0
32170,-66.6666666666667,4,1,0,100,0,0
32493,-66.6666666666667,4,2,0,100,0,0
32815,-133.333333333333,4,2,0,100,0,0
34751,-66.6666666666667,4,1,0,100,0,0
37009,-66.6666666666667,4,2,0,100,0,0
37533,-66.6666666666667,4,1,0,100,0,0
39589,-66.6666666666667,4,2,0,100,0,0
39993,-66.6666666666667,4,1,0,100,0,0
42210,-66.6666666666667,4,2,0,100,0,0
42573,-66.6666666666667,4,1,0,100,0,0
43944,-66.6666666666667,4,2,0,100,0,0
44105,-100,4,2,0,100,0,0
44589,-200,4,2,0,100,0,0
45557,-100,4,2,0,100,0,0
47170,-133.333333333333,4,1,0,100,0,0
47976,-100,4,2,0,100,0,0
50275,-100,4,1,0,100,0,0
50436,-100,4,2,0,100,0,0
52815,-200,4,2,0,100,0,0
53622,-100,4,2,0,100,0,0
54952,-100,4,1,0,100,0,0
55476,-66.6666666666667,4,1,0,100,0,0
57694,-66.6666666666667,4,2,0,100,0,0
58178,-66.6666666666667,4,1,0,100,0,0
58944,-80,4,1,0,100,0,0
59267,-66.6666666666667,4,1,0,100,0,0
60234,-100,4,2,0,100,0,0
60557,-66.6666666666667,4,1,0,100,0,0
62855,-66.6666666666667,4,2,0,100,0,0
64670,-80,4,1,0,100,0,0
65732,-66.6666666666667,4,1,0,100,0,0
70920,-66.6666666666667,4,1,0,65,0,0
71681,-66.6666666666667,4,1,0,100,0,0
72210,-66.6666666666667,4,1,0,65,0,0
73017,-66.6666666666667,4,1,0,100,0,0
81202,-66.6666666666667,4,1,0,65,0,0
82009,-66.6666666666667,4,1,0,100,0,0
82533,-66.6666666666667,4,1,0,75,0,0
83314,-66.6666666666667,4,1,0,100,0,0
90880,-100,4,1,0,100,0,0
103057,-100,4,1,0,100,0,0
107331,-100,4,2,0,100,0,0
108783,-133.333333333333,4,2,0,100,0,0
109267,-100,4,1,0,100,0,0
109630,-100,4,2,0,100,0,0
111686,-66.6666666666667,4,1,0,100,0,0
114468,-66.6666666666667,4,2,0,100,0,0
114589,-100,4,2,0,100,0,0
114912,-66.6666666666667,4,1,0,100,0,0
116363,-100,4,2,0,100,0,0
117493,-100,4,1,0,100,0,0
117654,-66.6666666666667,4,1,0,100,0,0
119549,-66.6666666666667,4,2,0,100,0,0
120073,-66.6666666666667,4,2,0,100,0,0
121847,-133.333333333333,4,2,0,100,0,0
122493,-66.6666666666667,4,1,0,100,0,0
127654,-66.6666666666667,4,1,0,75,0,0
128460,-66.6666666666667,4,1,0,90,0,0
128944,-66.6666666666667,4,1,0,75,0,0
129775,-66.6666666666667,4,1,0,100,0,0
135234,-100,4,1,0,100,0,0
135893,-100,4,1,0,100,0,0
136525,-66.6666666666667,4,1,0,100,0,0
137089,-100,4,1,0,100,0,0
138783,-66.6666666666667,4,1,0,100,0,0
141847,-100,4,1,0,100,0,0
142331,-66.6666666666667,4,1,0,100,0,0
148057,-66.6666666666667,4,3,0,100,0,0
154105,-100,4,3,0,100,0,0
158662,-100,4,2,0,100,0,0
160275,-100,4,3,0,100,0,0
161243,-100,4,2,0,100,0,0
165436,-100,4,3,0,100,0,0
166392,-100,4,2,0,100,0,0
171525,-133.333333333333,4,1,0,100,0,1
172855,-133.333333333333,4,1,0,60,0,1
174146,-133.333333333333,4,1,0,45,0,1
178138,-66.6666666666667,4,1,0,75,0,1
179267,-133.333333333333,4,1,0,100,0,1
180557,-200,4,1,0,100,0,1
181525,-66.6666666666667,4,1,0,100,0,1
185718,-200,4,1,0,100,0,1
187009,-66.6666666666667,4,1,0,100,0,1
190880,-66.6666666666667,4,3,0,100,0,1
192170,-66.6666666666667,4,1,0,100,0,0
192365,-200,4,1,0,100,0,0
202493,-133.333333333333,4,2,0,100,0,0
211525,-66.6666666666667,4,1,0,100,0,0
212210,-66.6666666666667,4,2,0,100,0,0
212291,-66.6666666666667,4,1,0,100,0,0
217976,-100,4,1,0,100,0,0
218823,-66.6666666666667,4,1,0,100,0,0
219307,-66.6666666666667,4,1,0,75,0,0
220073,-66.6666666666667,4,1,0,100,0,0
228339,-66.6666666666667,4,1,0,75,0,0
229110,-66.6666666666667,4,1,0,100,0,0
229630,-66.6666666666667,4,1,0,75,0,0
230429,-66.6666666666667,4,1,0,100,0,0
237976,-133.333333333333,4,2,0,100,0,0
238783,-66.6666666666667,4,1,0,100,0,0
242493,-133.333333333333,4,1,0,100,0,0
243783,-66.6666666666667,4,1,0,100,0,0
245073,-133.333333333333,4,1,0,100,0,0
246525,-66.6666666666667,4,1,0,100,0,0
248299,-133.333333333333,4,2,0,100,0,0
249105,-133.333333333333,4,1,0,100,0,0
249267,-66.6666666666667,4,1,0,100,0,0
252815,-66.6666666666667,4,1,0,100,0,0

[Colours]
Combo1 : 187,0,0
Combo2 : 39,39,39
Combo3 : 249,209,224
Combo4 : 51,51,51
Combo5 : 243,167,196
Combo6 : 215,0,0

[HitObjects]
105,294,2580,22,2,P|212:316|292:275,1,200,2|2,2:0|2:0,2:0:0:0:
406,136,3225,1,2,2:0:0:0:
242,19,3548,1,2,2:0:0:0:
118,190,3864,22,2,P|135:246|172:281,1,100,2|2,2:0|2:0,2:0:0:0:
386,227,4347,2,2,P|386:201|376:174,2,50
410,49,4670,1,2,0:0:0:0:
136,110,4993,53,2,0:0:0:0:
247,238,5315,1,2,0:0:0:0:
290,262,5395,1,2,0:0:0:0:
334,287,5476,1,2,0:0:0:0:
456,235,5638,2,2,P|440:185|395:128,1,100
294,39,5960,1,2,0:0:0:0:
190,118,6122,1,2,0:0:0:0:
247,238,6283,1,2,0:0:0:0:
375,303,6444,22,2,P|398:285|401:245,1,50
434,29,6928,1,2,0:0:0:0:
423,77,7008,1,2,0:0:0:0:
412,126,7089,1,2,0:0:0:0:
281,201,7251,2,2,P|218:217|86:176,1,200
145,106,7896,1,2,0:0:0:0:
145,106,7976,1,2,0:0:0:0:
145,106,8057,1,2,0:0:0:0:
248,231,8218,1,2,0:0:0:0:
389,268,8380,54,0,P|413:207|401:130,1,100
392,117,8702,2,0,P|368:56|380:-21,1,100
262,155,9025,1,0,0:0:0:0:
51,318,9347,22,2,P|161:318|249:256,1,200,2|2,2:0|2:0,2:0:0:0:
490,277,9993,2,2,P|379:277|292:215,1,200,2|2,2:0|2:0,2:0:0:0:
130,188,10638,1,2,2:0:0:0:
204,121,10960,1,2,2:0:0:0:
278,53,11283,1,2,2:0:0:0:
461,318,11928,54,2,P|351:318|263:256,1,200,2|2,2:0|2:0,2:0:0:0:
22,277,12573,2,2,P|133:277|220:215,1,200,2|2,2:0|2:0,2:0:0:0:
382,188,13218,1,2,2:0:0:0:
308,121,13540,1,2,2:0:0:0:
234,53,13863,1,2,2:0:0:0:
125,221,14186,5,8,0:0:0:0:
163,29,14347,2,0,L|227:176,1,150.000005722046
256,232,14670,1,0,0:0:0:0:
238,278,14750,1,0,0:0:0:0:
221,325,14831,1,0,0:0:0:0:
181,160,14993,1,0,0:0:0:0:
364,116,15154,2,0,L|512:171,1,150.000005722046,0|0,0:0|0:0,0:0:0:0:
376,299,15476,1,0,0:0:0:0:
238,212,15638,1,0,0:0:0:0:
191,229,15718,1,0,0:0:0:0:
144,246,15799,1,0,0:0:0:0:
48,219,15960,5,0,0:0:0:0:
92,114,16122,1,0,0:0:0:0:
189,43,16283,1,0,0:0:0:0:
306,18,16444,1,0,0:0:0:0:
422,45,16605,1,0,0:0:0:0:
413,215,16767,38,8,L|306:328,1,150.000005722046,8|0,3:0|3:0,3:0:0:0:
230,159,17089,1,0,0:0:0:0:
156,320,17251,1,0,0:0:0:0:
121,285,17331,1,0,0:0:0:0:
86,249,17412,1,0,0:0:0:0:
150,81,17573,1,0,0:0:0:0:
304,151,17734,2,0,L|229:281,1,150.000005722046
471,285,18218,6,0,P|432:320|372:319,1,100
211,279,18541,1,0,0:0:0:0:
56,209,18702,1,0,0:0:0:0:
207,131,18863,1,0,0:0:0:0:
324,74,19025,2,0,P|373:53|458:41,1,100
255,193,19347,5,0,0:0:0:0:
255,193,19509,1,0,0:0:0:0:
255,193,19670,1,0,0:0:0:0:
330,258,19831,5,0,0:0:0:0:
292,291,19912,1,0,0:0:0:0:
255,325,19993,2,0,L|166:403,1,100
255,325,20315,2,0,L|344:247,1,100
403,190,20638,1,0,0:0:0:0:
330,121,20799,53,0,0:0:0:0:
294,157,20880,1,0,0:0:0:0:
259,192,20960,1,0,0:0:0:0:
324,263,21122,2,0,L|419:354,1,100
259,192,21444,1,0,0:0:0:0:
188,121,21605,2,0,L|93:30,1,100
259,335,21928,21,0,0:0:0:0:
259,335,22089,1,0,0:0:0:0:
259,335,22251,1,0,0:0:0:0:
324,259,22412,1,0,0:0:0:0:
288,223,22493,1,0,0:0:0:0:
253,187,22573,2,0,L|169:107,1,100
117,40,22896,1,0,0:0:0:0:
213,14,23057,1,0,0:0:0:0:
393,24,23218,37,0,0:0:0:0:
349,49,23299,1,0,0:0:0:0:
305,74,23380,1,8,0:0:0:0:
119,177,23541,1,0,0:0:0:0:
163,202,23622,1,0,0:0:0:0:
207,227,23703,1,8,0:0:0:0:
393,307,23863,1,0,0:0:0:0:
349,332,23944,1,0,0:0:0:0:
305,357,24025,1,8,0:0:0:0:
292,289,24186,1,0,0:0:0:0:
248,314,24267,1,0,0:0:0:0:
204,339,24348,1,8,0:0:0:0:
77,44,24670,6,2,P|143:44|206:111,1,150.000005722046
229,223,25154,1,2,0:0:0:0:
326,336,25476,2,2,P|376:331|409:290,1,75.0000028610231
453,221,25799,1,2,0:0:0:0:
401,112,25960,1,2,0:0:0:0:
313,29,26122,1,2,0:0:0:0:
109,200,26444,1,2,0:0:0:0:
109,200,26605,1,2,0:0:0:0:
206,192,26767,5,0,0:0:0:0:
242,205,26847,1,0,0:0:0:0:
277,218,26928,1,0,0:0:0:0:
300,286,27089,1,0,0:0:0:0:
336,299,27169,1,0,0:0:0:0:
371,312,27250,1,0,0:0:0:0:
250,94,27412,5,2,0:0:0:0:
348,174,27573,1,2,0:0:0:0:
250,255,27734,2,2,P|169:237|131:167,1,150.000005722046
109,81,28218,1,2,0:0:0:0:
80,301,28380,2,2,P|125:321|180:315,1,75.0000028610231
249,302,28702,1,2,0:0:0:0:
413,106,29025,1,2,0:0:0:0:
413,106,29187,1,2,0:0:0:0:
289,204,29347,37,0,0:0:0:0:
253,217,29427,1,0,0:0:0:0:
218,230,29508,1,0,0:0:0:0:
212,286,29670,1,0,0:0:0:0:
176,299,29750,1,0,0:0:0:0:
141,312,29831,1,0,0:0:0:0:
159,185,29993,5,2,0:0:0:0:
279,226,30154,1,2,0:0:0:0:
399,268,30315,1,2,0:0:0:0:
389,96,30476,2,2,P|352:104|302:149,1,75.0000028610231
220,241,30799,1,2,0:0:0:0:
324,314,30960,1,2,0:0:0:0:
422,232,31122,1,2,0:0:0:0:
233,58,31283,2,2,P|264:88|271:145,1,75.0000028610231
237,191,31605,2,2,P|243:234|286:272,1,75.0000028610231
357,164,31928,1,2,0:0:0:0:
294,61,32089,1,2,0:0:0:0:
276,292,32251,6,0,L|205:313,2,75.0000028610231
220,188,32573,5,2,0:0:0:0:
109,200,32734,1,2,0:0:0:0:
150,86,32896,1,2,0:0:0:0:
269,78,33057,1,2,0:0:0:0:
359,206,33218,2,2,P|339:241|276:258,1,75.0000028610231
109,200,33541,1,2,0:0:0:0:
109,200,33702,1,2,0:0:0:0:
109,200,33863,1,2,0:0:0:0:
410,106,34186,2,2,P|426:134|460:156,2,37.5000014305115
268,35,34509,1,2,0:0:0:0:
79,286,34831,38,0,L|222:347,1,150.000005722046
66,177,35154,1,0,0:0:0:0:
157,228,35315,1,0,0:0:0:0:
198,246,35395,1,0,0:0:0:0:
239,263,35476,1,0,0:0:0:0:
338,298,35638,1,0,0:0:0:0:
231,180,35799,2,0,L|160:319,1,150.000005722046
349,248,36122,1,0,0:0:0:0:
203,352,36283,1,0,0:0:0:0:
49,257,36444,1,0,0:0:0:0:
248,251,36605,1,0,0:0:0:0:
410,330,36767,1,0,0:0:0:0:
203,352,36928,1,0,0:0:0:0:
236,156,37089,5,2,0:0:0:0:
304,104,37251,1,2,0:0:0:0:
452,252,37573,6,0,L|319:325,1,150.000005722046
313,173,37896,1,0,0:0:0:0:
313,23,38057,1,0,0:0:0:0:
60,144,38380,53,0,0:0:0:0:
60,144,38541,1,0,0:0:0:0:
144,80,38702,1,0,0:0:0:0:
176,112,38783,1,0,0:0:0:0:
208,144,38863,1,0,0:0:0:0:
264,216,39025,21,0,0:0:0:0:
264,216,39186,1,0,0:0:0:0:
320,144,39347,1,0,0:0:0:0:
348,108,39428,1,0,0:0:0:0:
376,72,39509,1,0,0:0:0:0:
140,32,39670,5,2,0:0:0:0:
80,100,39831,1,2,0:0:0:0:
355,70,40154,38,0,L|306:129,2,75.0000028610231
257,189,40476,1,0,0:0:0:0:
159,74,40638,2,0,L|208:133,2,75.0000028610231
292,149,40960,1,0,0:0:0:0:
216,233,41122,1,0,0:0:0:0:
148,143,41283,1,0,0:0:0:0:
122,174,41363,1,0,0:0:0:0:
96,206,41444,2,0,B|58:251|58:251|78:353,1,150.000005722046
181,341,41767,2,0,L|336:341,1,150.000005722046
398,196,42251,5,2,0:0:0:0:
319,105,42412,1,2,0:0:0:0:
60,159,42734,6,0,L|164:267,1,150.000005722046
241,339,43057,1,0,0:0:0:0:
322,273,43218,2,0,L|432:167,2,150.000005722046
255,137,43702,1,0,0:0:0:0:
195,274,43863,1,0,0:0:0:0:
48,120,44025,5,2,0:0:0:0:
120,174,44186,2,2,L|51:250,1,100
192,120,44509,53,2,0:0:0:0:
273,177,44670,2,2,L|168:308,1,150
326,294,45315,21,0,0:0:0:0:
406,205,45638,2,2,P|376:168|296:145,1,100
216,105,45960,1,2,0:0:0:0:
216,105,46283,1,2,0:0:0:0:
140,170,46444,2,2,P|172:226|212:245,1,100
289,291,46767,1,2,0:0:0:0:
140,170,47089,1,2,0:0:0:0:
195,87,47251,38,0,L|358:241,1,225.000008583069
395,275,47815,1,0,0:0:0:0:
422,305,47896,1,0,0:0:0:0:
306,335,48057,5,2,0:0:0:0:
210,281,48218,2,2,P|181:207|207:166,1,100
268,118,48541,1,2,0:0:0:0:
268,118,48702,1,2,0:0:0:0:
268,118,48863,1,2,0:0:0:0:
195,201,49025,1,2,0:0:0:0:
125,116,49186,1,2,0:0:0:0:
71,211,49347,2,2,P|128:243|180:202,1,100
233,155,49670,1,2,0:0:0:0:
498,244,50315,5,0,0:0:0:0:
468,290,50396,1,0,0:0:0:0:
439,336,50476,6,2,P|390:341|271:253,1,200
361,192,50960,2,2,L|302:102,1,100
467,192,51283,2,2,L|408:102,1,100
335,29,51605,1,2,0:0:0:0:
183,189,51928,1,2,0:0:0:0:
99,259,52089,2,2,P|200:318|288:297,2,200
159,226,52896,2,2,P|218:253|263:229,1,100
307,196,53380,1,2,0:0:0:0:
364,148,53541,1,2,0:0:0:0:
243,58,53863,54,2,P|202:42|144:67,1,100
242,175,54186,1,2,0:0:0:0:
335,264,54347,1,2,0:0:0:0:
417,175,54670,1,2,0:0:0:0:
100,246,54993,5,0,0:0:0:0:
172,173,55154,1,0,0:0:0:0:
213,217,55235,1,0,0:0:0:0:
254,260,55315,1,0,0:0:0:0:
325,154,55476,1,0,0:0:0:0:
425,218,55638,53,0,0:0:0:0:
419,337,55799,2,0,B|361:278|361:278|305:340,1,150.000005722046
195,330,56122,1,0,0:0:0:0:
121,199,56283,1,0,0:0:0:0:
197,70,56444,1,0,0:0:0:0:
272,199,56605,1,0,0:0:0:0:
197,70,56767,21,0,0:0:0:0:
168,104,56847,1,0,0:0:0:0:
141,140,56928,1,0,0:0:0:0:
272,199,57089,1,0,0:0:0:0:
371,140,57251,2,0,L|273:15,2,150.000005722046
146,40,57734,5,2,0:0:0:0:
72,115,57896,1,2,0:0:0:0:
152,274,58218,38,0,B|204:218|204:218|256:281,2,150.000005722046
46,277,58702,1,0,0:0:0:0:
80,316,58783,1,0,0:0:0:0:
115,354,58863,1,0,0:0:0:0:
177,291,59025,2,0,L|68:175,1,125
247,145,59347,1,0,0:0:0:0:
319,294,59509,1,0,0:0:0:0:
397,149,59670,2,0,L|226:147,1,150.000005722046
247,145,60154,1,0,0:0:0:0:
162,30,60315,6,2,P|109:60|97:129,1,100
91,231,60638,5,0,0:0:0:0:
165,305,60960,1,0,0:0:0:0:
243,236,61283,1,0,0:0:0:0:
321,306,61605,1,0,0:0:0:0:
400,236,61928,1,0,0:0:0:0:
485,295,62251,2,0,B|485:132|485:132|327:133,1,300.000011444092
276,210,62896,5,2,0:0:0:0:
103,90,63218,1,2,0:0:0:0:
136,139,63541,1,2,0:0:0:0:
185,214,63863,1,2,0:0:0:0:
257,267,64105,1,2,0:0:0:0:
360,310,64347,1,2,0:0:0:0:
428,112,64670,54,0,L|365:112,1,62.5
426,181,64831,6,0,L|363:181,1,62.5
425,250,65154,70,0,L|136:249,1,250
175,56,65799,22,0,P|249:75|279:114,1,75.0000028610231
372,196,66041,1,0,0:0:0:0:
372,196,66122,1,0,0:0:0:0:
231,281,66283,1,0,0:0:0:0:
108,149,66444,1,0,0:0:0:0:
25,304,66605,1,0,0:0:0:0:
30,311,66686,1,0,0:0:0:0:
30,311,66767,1,0,0:0:0:0:
263,343,66928,54,0,P|323:295|337:215,1,150.000005722046
286,53,67251,1,0,0:0:0:0:
244,37,67331,1,0,0:0:0:0:
200,50,67412,1,0,0:0:0:0:
65,169,67573,2,0,P|90:241|161:280,1,150.000005722046
330,259,67896,1,0,0:0:0:0:
445,121,68057,1,0,0:0:0:0:
178,76,68218,1,0,0:0:0:0:
178,76,68299,1,0,0:0:0:0:
178,76,68380,1,0,0:0:0:0:
335,161,68541,1,0,0:0:0:0:
104,267,68702,22,0,P|149:271|204:303,1,75.0000028610231
257,322,68863,1,0,0:0:0:0:
430,271,69025,1,0,0:0:0:0:
399,93,69186,2,0,P|304:77|249:116,1,150.000005722046
106,195,69509,1,0,0:0:0:0:
262,283,69670,1,0,0:0:0:0:
420,198,69831,2,0,P|342:125|272:111,1,150.000005722046
139,36,70154,1,0,0:0:0:0:
104,74,70234,1,0,0:0:0:0:
70,114,70315,1,0,0:0:0:0:
157,172,70638,1,0,0:0:0:0:
361,125,70960,53,0,0:0:0:0:
327,165,71041,1,0,0:0:0:0:
293,205,71122,1,0,0:0:0:0:
260,245,71202,1,0,0:0:0:0:
227,286,71283,1,0,0:0:0:0:
131,328,71444,1,0,0:0:0:0:
26,339,71605,1,0,0:0:0:0:
36,103,71767,5,0,0:0:0:0:
115,35,71928,1,0,0:0:0:0:
151,125,72251,69,0,0:0:0:0:
185,165,72332,1,0,0:0:0:0:
219,205,72413,1,0,0:0:0:0:
252,245,72493,1,0,0:0:0:0:
285,286,72574,1,0,0:0:0:0:
380,328,72734,1,0,0:0:0:0:
483,348,72896,1,0,0:0:0:0:
471,168,73057,6,0,B|451:89|451:89|375:83,1,150.000005722046
83,133,73541,53,0,0:0:0:0:
119,170,73622,1,0,0:0:0:0:
155,207,73702,1,0,0:0:0:0:
190,245,73783,1,0,0:0:0:0:
226,281,73863,1,0,0:0:0:0:
284,193,74025,5,0,0:0:0:0:
339,281,74186,5,0,0:0:0:0:
375,245,74266,1,0,0:0:0:0:
410,207,74347,1,0,0:0:0:0:
446,170,74427,1,0,0:0:0:0:
482,133,74508,1,0,0:0:0:0:
405,60,74670,6,0,P|320:42|249:63,1,150.000005722046
326,139,74993,1,0,0:0:0:0:
288,175,75073,1,0,0:0:0:0:
250,211,75154,1,0,0:0:0:0:
147,188,75315,2,0,P|201:111|271:84,1,150.000005722046
450,25,75799,1,0,0:0:0:0:
420,68,75880,1,0,0:0:0:0:
390,110,75960,1,0,0:0:0:0:
356,151,76041,1,0,0:0:0:0:
323,192,76122,1,0,0:0:0:0:
285,228,76202,54,0,B|141:267|272:357|60:351,1,225.000008583069
78,211,76605,1,0,0:0:0:0:
141,126,76767,1,0,0:0:0:0:
173,167,76847,1,0,0:0:0:0:
205,208,76928,1,0,0:0:0:0:
263,120,77089,1,0,0:0:0:0:
435,240,77412,22,0,P|361:293|285:299,1,150.000005722046
350,207,77734,1,0,0:0:0:0:
384,101,77896,2,0,P|311:116|254:163,1,150.000005722046
186,69,78218,1,0,0:0:0:0:
153,110,78299,1,0,0:0:0:0:
120,151,78380,1,0,0:0:0:0:
147,252,78541,54,0,P|208:308|287:310,1,150.000005722046
411,269,78863,1,0,0:0:0:0:
441,114,79025,1,0,0:0:0:0:
287,84,79186,1,0,0:0:0:0:
145,132,79347,2,0,P|215:201|264:210,3,150.000005722046
408,166,79993,1,0,0:0:0:0:
273,234,80154,22,0,P|246:280|205:304,1,75.0000028610231
165,335,80315,1,0,0:0:0:0:
118,282,80476,2,0,P|133:247|160:222,1,75.0000028610231
222,161,80637,1,0,0:0:0:0:
116,133,80799,2,0,P|217:108|282:153,1,150.000005722046
368,286,81283,53,0,0:0:0:0:
290,95,81444,1,0,0:0:0:0:
465,204,81605,1,0,0:0:0:0:
260,219,81767,1,0,0:0:0:0:
418,95,81928,1,0,0:0:0:0:
260,219,82089,5,0,0:0:0:0:
294,259,82170,1,0,0:0:0:0:
327,299,82250,1,0,0:0:0:0:
148,48,82573,5,0,0:0:0:0:
213,235,82734,1,0,0:0:0:0:
43,116,82896,1,0,0:0:0:0:
254,113,83057,1,0,0:0:0:0:
82,232,83218,1,0,0:0:0:0:
251,180,83380,38,0,B|331:146|331:146|403:186,1,150.000005722046
187,76,83863,6,0,P|128:129|103:216,1,150.000005722046
124,297,84186,1,0,0:0:0:0:
214,244,84347,1,0,0:0:0:0:
309,289,84509,1,0,0:0:0:0:
418,241,84670,2,0,P|336:146|283:119,2,150.000005722046
316,134,85154,1,0,0:0:0:0:
259,18,85315,2,0,P|234:52|198:72,1,75.0000028610231
133,89,85476,1,0,0:0:0:0:
142,188,85638,2,0,P|233:173|288:218,1,150.000005722046
391,379,86122,1,0,0:0:0:0:
257,190,86444,1,0,0:0:0:0:
256,192,86525,12,0,90154,0:0:0:0:
169,38,90315,5,0,0:0:0:0:
256,326,90638,1,0,0:0:0:0:
343,38,90960,2,0,L|253:333,1,300
256,326,91605,1,0,0:0:0:0:
132,89,101928,5,0,0:0:0:0:
182,102,102009,1,0,0:0:0:0:
232,115,102089,1,0,0:0:0:0:
282,128,102170,1,0,0:0:0:0:
332,142,102251,1,0,0:0:0:0:
332,235,102734,53,0,0:0:0:0:
280,247,102815,1,0,0:0:0:0:
228,259,102896,1,0,0:0:0:0:
228,123,103380,21,0,0:0:0:0:
176,135,103461,1,0,0:0:0:0:
124,147,103541,2,0,L|1:182,2,100
176,135,104025,1,0,0:0:0:0:
228,123,104186,1,0,0:0:0:0:
268,192,104509,53,0,0:0:0:0:
316,205,104589,1,0,0:0:0:0:
364,219,104670,1,0,0:0:0:0:
412,233,104750,1,0,0:0:0:0:
460,246,104831,1,0,0:0:0:0:
347,320,105315,2,0,L|455:348,1,100
379,113,105960,22,0,L|271:141,1,100
221,196,106283,1,0,0:0:0:0:
379,219,106444,2,0,L|271:247,1,100
221,302,106767,1,0,0:0:0:0:
214,164,107089,37,0,0:0:0:0:
184,193,107170,1,0,0:0:0:0:
154,223,107251,1,0,0:0:0:0:
211,309,107412,5,2,0:0:0:0:
302,268,107573,1,2,0:0:0:0:
394,229,107734,2,2,P|441:162|445:112,2,100
302,268,108218,1,2,0:0:0:0:
112,202,108541,1,2,0:0:0:0:
177,126,108702,1,2,0:0:0:0:
260,76,108863,2,2,P|333:44|419:57,1,150.000005722046
414,225,109670,21,2,0:0:0:0:
362,310,109831,1,2,0:0:0:0:
313,222,109993,1,2,0:0:0:0:
261,307,110154,2,2,P|178:299|130:263,2,100
361,309,110638,1,2,0:0:0:0:
444,254,110799,2,2,P|464:173|447:115,2,100
256,192,111444,1,2,0:0:0:0:
455,158,111767,37,0,0:0:0:0:
432,184,111847,1,0,0:0:0:0:
410,212,111928,1,0,0:0:0:0:
388,239,112009,1,0,0:0:0:0:
365,265,112089,1,0,0:0:0:0:
303,344,112251,1,0,0:0:0:0:
248,264,112412,22,0,L|201:200,2,75.0000028610231
303,344,112734,1,0,0:0:0:0:
365,265,112896,1,0,0:0:0:0:
429,189,113057,1,0,0:0:0:0:
369,108,113218,1,0,0:0:0:0:
305,186,113380,1,0,0:0:0:0:
257,98,113541,1,0,0:0:0:0:
236,126,113622,1,0,0:0:0:0:
215,153,113702,1,0,0:0:0:0:
160,236,113863,1,0,0:0:0:0:
246,329,114025,2,0,B|301:273|301:273|361:351,1,150.000005722046
382,245,114347,1,0,0:0:0:0:
495,111,114509,5,2,0:0:0:0:
426,38,114670,2,2,P|475:64|499:115,1,100
264,78,114993,37,0,0:0:0:0:
125,135,115154,1,0,0:0:0:0:
262,195,115315,1,0,0:0:0:0:
399,254,115476,1,0,0:0:0:0:
375,279,115557,1,0,0:0:0:0:
352,306,115638,1,0,0:0:0:0:
202,305,115799,2,0,L|401:68,1,300.000011444092
26,124,116444,6,2,P|42:77|80:46,1,100
55,118,116767,2,2,P|84:77|130:60,1,100
90,114,117089,1,2,0:0:0:0:
149,105,117412,1,2,0:0:0:0:
250,168,117573,5,0,0:0:0:0:
167,216,117734,2,0,L|282:321,1,150.000005722046
401,184,118057,1,0,0:0:0:0:
362,148,118138,1,0,0:0:0:0:
324,112,118218,1,0,0:0:0:0:
251,35,118380,1,0,0:0:0:0:
177,95,118541,54,0,B|126:153|126:153|183:209,1,150.000005722046
469,188,119025,2,0,L|316:188,1,150.000005722046
75,222,119347,2,0,L|228:222,1,150.000005722046
268,251,119589,5,2,0:0:0:0:
434,318,119831,1,2,0:0:0:0:
382,128,120154,5,0,0:0:0:0:
382,128,120315,1,0,0:0:0:0:
235,248,120557,1,0,0:0:0:0:
235,248,120638,2,0,L|390:315,1,150.000005722046
481,256,120960,1,0,0:0:0:0:
428,35,121283,5,2,0:0:0:0:
363,135,121444,1,2,0:0:0:0:
298,33,121605,1,2,0:0:0:0:
237,137,121767,1,2,0:0:0:0:
175,34,121928,2,2,P|107:147|154:251,1,225.000008583069
201,327,122573,53,0,0:0:0:0:
412,212,122815,1,0,0:0:0:0:
412,212,122896,1,0,0:0:0:0:
329,113,123057,2,0,P|237:69|153:60,1,150.000005722046
100,141,123380,1,0,0:0:0:0:
66,181,123460,1,0,0:0:0:0:
32,221,123541,1,0,0:0:0:0:
140,300,123702,2,0,P|240:283|314:242,1,150.000005722046
470,186,124025,1,0,0:0:0:0:
470,186,124105,1,0,0:0:0:0:
470,186,124186,1,0,0:0:0:0:
377,87,124347,1,0,0:0:0:0:
377,87,124509,1,0,0:0:0:0:
449,301,124831,22,0,P|348:284|274:243,1,150.000005722046
259,238,125073,1,0,0:0:0:0:
216,206,125154,1,0,0:0:0:0:
273,118,125315,1,0,0:0:0:0:
371,152,125476,2,0,P|371:253|344:333,1,150.000005722046
284,374,125799,2,0,P|183:357|109:316,1,150.000005722046
75,253,126122,1,0,0:0:0:0:
152,182,126283,1,0,0:0:0:0:
185,221,126363,1,0,0:0:0:0:
218,261,126444,1,0,0:0:0:0:
305,178,126605,1,0,0:0:0:0:
176,79,126767,54,0,P|248:54|365:92,2,150.000005722046
173,195,127412,1,0,0:0:0:0:
488,226,127734,21,0,0:0:0:0:
444,236,127814,1,0,0:0:0:0:
400,246,127895,1,0,0:0:0:0:
357,256,127975,1,0,0:0:0:0:
313,266,128056,1,0,0:0:0:0:
226,287,128217,1,0,0:0:0:0:
139,309,128380,1,0,0:0:0:0:
62,163,128541,37,0,0:0:0:0:
176,91,128702,1,0,0:0:0:0:
500,90,129025,6,0,L|419:52,1,75.0000028610231
358,58,129186,2,0,L|277:95,1,75.0000028610231
215,89,129347,2,0,L|134:51,1,75.0000028610231
83,32,129509,1,0,0:0:0:0:
85,166,129670,1,0,0:0:0:0:
204,300,129831,6,0,L|289:264,1,75.0000028610231
334,240,129993,1,0,0:0:0:0:
462,89,130315,5,0,0:0:0:0:
422,123,130396,1,0,0:0:0:0:
386,160,130476,1,0,0:0:0:0:
345,194,130557,1,0,0:0:0:0:
304,228,130638,1,0,0:0:0:0:
214,173,130799,1,0,0:0:0:0:
50,89,130960,53,0,0:0:0:0:
90,123,131041,1,0,0:0:0:0:
126,160,131121,1,0,0:0:0:0:
167,194,131202,1,0,0:0:0:0:
208,228,131283,1,0,0:0:0:0:
298,173,131444,1,0,0:0:0:0:
431,266,131605,22,0,P|260:329|160:318,1,225.000008583069
220,328,131928,1,0,0:0:0:0:
157,244,132089,2,0,P|147:142|167:59,1,150.000005722046
316,228,132573,37,0,0:0:0:0:
80,99,132896,6,0,P|151:34|226:16,1,150.000005722046
80,99,133218,2,0,P|166:55|243:57,1,150.000005722046
292,174,133541,1,0,0:0:0:0:
252,209,133622,1,0,0:0:0:0:
213,243,133702,1,0,0:0:0:0:
307,288,133863,2,0,P|386:228|447:111,1,225.000008583069
445,119,134186,1,0,0:0:0:0:
357,61,134347,1,0,0:0:0:0:
321,100,134428,1,0,0:0:0:0:
286,139,134509,1,0,0:0:0:0:
308,250,134670,1,0,0:0:0:0:
272,288,134751,1,0,0:0:0:0:
233,323,134831,1,0,0:0:0:0:
129,344,134993,1,0,0:0:0:0:
159,243,135154,21,0,0:0:0:0:
231,181,135315,1,0,0:0:0:0:
271,215,135396,1,0,0:0:0:0:
308,250,135476,2,0,P|404:289|491:239,1,200
484,136,136122,2,0,P|396:94|308:134,1,200
278,174,136605,1,0,0:0:0:0:
248,217,136686,1,0,0:0:0:0:
219,261,136767,1,0,0:0:0:0:
71,85,137089,54,0,P|169:59|276:97,2,200
136,305,138057,2,0,P|164:291|201:292,1,50
376,286,138218,2,0,P|348:272|311:273,1,50
131,245,138380,2,0,P|159:231|196:232,1,50
385,223,138541,2,0,P|357:209|320:210,1,50
126,190,138702,1,0,0:0:0:0:
254,260,138863,69,0,0:0:0:0:
291,297,138944,1,0,0:0:0:0:
327,334,139025,1,0,0:0:0:0:
260,45,139347,6,0,P|272:83|267:129,1,75.0000028610231
261,299,139509,2,0,P|229:279|190:238,1,75.0000028610231
109,138,139670,2,0,P|149:131|184:133,1,75.0000028610231
410,139,139831,2,0,P|390:174|363:200,1,75.0000028610231
261,299,139993,2,0,P|250:258|253:226,1,75.0000028610231
260,41,140154,6,0,L|260:117,2,75.0000028610231
99,157,140638,5,0,0:0:0:0:
99,157,140799,1,0,0:0:0:0:
99,157,140960,1,0,0:0:0:0:
99,157,141122,1,0,0:0:0:0:
413,157,141283,1,0,0:0:0:0:
413,157,141444,1,0,0:0:0:0:
413,157,141605,1,0,0:0:0:0:
413,157,141767,1,0,0:0:0:0:
356,68,141928,54,0,P|251:161|231:224,1,200
221,319,142412,1,0,0:0:0:0:
128,270,142573,1,0,0:0:0:0:
234,88,142896,2,0,P|357:216|416:354,1,300.000011444092
256,192,143299,12,0,148218,0:0:0:0:
42,37,148380,5,8,0:0:0:0:
56,41,148461,1,8,0:0:0:0:
70,45,148542,1,8,0:0:0:0:
84,49,148622,1,8,0:0:0:0:
98,53,148703,1,8,0:0:0:0:
481,143,149025,53,8,0:0:0:0:
467,147,149106,1,8,0:0:0:0:
453,151,149187,1,8,0:0:0:0:
439,155,149267,1,8,0:0:0:0:
425,159,149348,1,8,0:0:0:0:
55,245,149670,21,8,0:0:0:0:
69,249,149751,1,8,0:0:0:0:
83,253,149832,1,8,0:0:0:0:
97,257,149912,1,8,0:0:0:0:
111,261,149993,1,8,0:0:0:0:
125,265,150073,1,8,0:0:0:0:
139,269,150154,1,8,0:0:0:0:
153,273,150234,1,8,0:0:0:0:
167,277,150315,1,8,0:0:0:0:
410,335,150960,53,8,0:0:0:0:
404,321,151041,1,8,0:0:0:0:
399,307,151122,1,8,0:0:0:0:
394,294,151202,1,8,0:0:0:0:
389,280,151283,1,8,0:0:0:0:
298,28,151605,21,8,0:0:0:0:
292,42,151686,1,8,0:0:0:0:
287,56,151767,1,8,0:0:0:0:
282,69,151847,1,8,0:0:0:0:
277,83,151928,1,8,0:0:0:0:
140,175,152251,53,8,0:0:0:0:
151,184,152331,1,8,0:0:0:0:
162,193,152412,1,8,0:0:0:0:
370,220,152573,1,8,0:0:0:0:
359,229,152653,1,8,0:0:0:0:
348,238,152734,1,8,0:0:0:0:
142,270,152896,1,8,0:0:0:0:
153,279,152976,1,8,0:0:0:0:
164,288,153057,1,8,0:0:0:0:
371,309,153218,1,8,0:0:0:0:
360,318,153298,1,8,0:0:0:0:
349,327,153379,1,8,0:0:0:0:
241,349,153541,21,8,0:0:0:0:
245,335,153622,1,8,0:0:0:0:
248,320,153703,1,8,0:0:0:0:
253,306,153783,1,8,0:0:0:0:
257,292,153864,1,8,0:0:0:0:
346,14,154186,2,8,L|366:62,4,50
457,245,154831,53,8,0:0:0:0:
443,249,154912,1,8,0:0:0:0:
429,253,154993,1,8,0:0:0:0:
415,257,155073,1,8,0:0:0:0:
401,261,155154,1,8,0:0:0:0:
387,265,155234,1,8,0:0:0:0:
373,269,155315,1,8,0:0:0:0:
359,273,155395,1,8,0:0:0:0:
345,277,155476,1,8,0:0:0:0:
249,308,155638,1,8,0:0:0:0:
123,84,155960,21,8,0:0:0:0:
188,160,156122,1,8,0:0:0:0:
194,167,156202,1,8,0:0:0:0:
200,174,156283,2,8,L|238:221,4,50
303,266,156767,1,8,0:0:0:0:
297,273,156847,1,8,0:0:0:0:
291,280,156928,2,8,L|253:327,4,50
91,145,157412,54,8,L|200:145,1,100
422,203,157734,2,8,L|313:203,1,100
91,265,158057,2,8,L|200:265,1,100
421,343,158380,1,8,0:0:0:0:
79,30,158702,5,2,0:0:0:0:
256,191,159347,1,2,0:0:0:0:
434,30,159993,1,2,0:0:0:0:
256,191,160315,5,8,0:0:0:0:
233,217,160396,1,8,0:0:0:0:
210,243,160476,1,8,0:0:0:0:
187,270,160557,1,8,0:0:0:0:
165,297,160638,1,8,0:0:0:0:
100,372,160960,1,8,0:0:0:0:
79,354,161283,5,2,0:0:0:0:
256,193,161928,1,2,0:0:0:0:
434,354,162574,1,2,0:0:0:0:
256,193,163218,1,2,0:0:0:0:
79,354,163863,1,2,0:0:0:0:
256,193,164508,1,2,0:0:0:0:
434,354,165154,1,2,0:0:0:0:
256,191,165476,37,8,0:0:0:0:
279,217,165557,1,8,0:0:0:0:
302,243,165637,1,8,0:0:0:0:
325,270,165718,1,8,0:0:0:0:
347,297,165799,1,8,0:0:0:0:
412,372,166122,1,8,0:0:0:0:
79,30,166444,5,2,0:0:0:0:
256,191,167089,1,2,0:0:0:0:
434,30,167412,1,2,0:0:0:0:
256,191,167734,1,2,0:0:0:0:
79,30,168380,1,2,0:0:0:0:
256,191,168703,1,2,0:0:0:0:
434,30,169025,1,2,0:0:0:0:
256,192,169105,12,0,171444,0:0:0:0:
61,145,171605,38,2,B|355:35|456:186|109:302,1,562.500021457673
116,299,172896,2,2,L|169:212,1,75.0000028610231
188,195,173218,2,2,L|216:221,1,37.5000014305115
323,195,173420,2,2,L|296:221,1,37.5000014305115
221,285,173622,2,2,L|274:326,1,56.2500021457673
343,316,173823,2,2,L|380:274,1,56.2500021457673
460,194,174025,1,2,0:0:0:0:
458,59,174186,5,2,0:0:0:0:
432,86,174267,1,2,0:0:0:0:
407,113,174347,1,2,0:0:0:0:
381,141,174428,1,2,0:0:0:0:
358,170,174509,1,2,0:0:0:0:
326,189,174589,1,2,0:0:0:0:
289,199,174670,1,2,0:0:0:0:
251,196,174751,1,2,0:0:0:0:
219,175,174831,1,2,0:0:0:0:
191,148,174912,1,2,0:0:0:0:
153,143,174993,69,2,0:0:0:0:
118,156,175073,1,2,0:0:0:0:
92,184,175154,1,2,0:0:0:0:
75,217,175234,1,2,0:0:0:0:
77,254,175315,1,2,0:0:0:0:
92,288,175396,1,2,0:0:0:0:
120,311,175476,1,2,0:0:0:0:
155,323,175557,1,2,0:0:0:0:
192,328,175638,1,2,0:0:0:0:
229,328,175718,1,2,0:0:0:0:
262,311,175799,5,2,0:0:0:0:
284,280,175880,1,2,0:0:0:0:
300,246,175960,1,2,0:0:0:0:
312,210,176041,1,2,0:0:0:0:
324,174,176122,1,2,0:0:0:0:
336,139,176202,1,2,0:0:0:0:
361,111,176283,1,2,0:0:0:0:
394,94,176363,1,2,0:0:0:0:
431,88,176444,1,2,0:0:0:0:
468,93,176525,1,2,0:0:0:0:
486,124,176605,69,2,0:0:0:0:
498,159,176686,1,2,0:0:0:0:
501,196,176767,1,2,0:0:0:0:
494,232,176847,1,2,0:0:0:0:
478,266,176928,1,2,0:0:0:0:
458,298,177009,1,2,0:0:0:0:
427,319,177089,1,2,0:0:0:0:
390,329,177170,1,2,0:0:0:0:
352,332,177251,1,2,0:0:0:0:
315,323,177331,1,2,0:0:0:0:
287,297,177412,5,2,0:0:0:0:
265,266,177493,1,2,0:0:0:0:
244,235,177573,1,2,0:0:0:0:
225,202,177654,1,2,0:0:0:0:
206,169,177734,1,2,0:0:0:0:
178,143,177815,1,2,0:0:0:0:
142,130,177896,1,2,0:0:0:0:
104,126,177976,1,2,0:0:0:0:
73,148,178057,1,2,0:0:0:0:
131,211,178218,70,2,L|206:314,1,75.0000028610231
132,333,178380,2,2,L|87:272,1,75.0000028610231
149,201,178541,2,2,L|192:320,1,75.0000028610231
116,318,178703,2,2,L|90:247,1,75.0000028610231
243,82,179025,1,2,0:0:0:0:
455,120,179347,6,2,P|360:150|294:285,1,225.000008583069
296,252,179993,1,2,0:0:0:0:
57,120,180476,1,2,0:0:0:0:
57,120,180638,2,2,P|152:150|218:285,1,225.000008583069
478,98,181605,69,2,0:0:0:0:
448,141,181686,1,2,0:0:0:0:
403,169,181767,1,2,0:0:0:0:
352,156,181847,1,2,0:0:0:0:
323,111,181928,2,2,L|196:124,1,75.0000028610231
228,194,182089,2,2,L|302:186,1,75.0000028610231
299,96,182251,2,2,L|180:142,1,75.0000028610231
229,201,182412,2,2,L|299:174,1,75.0000028610231
393,90,182573,6,2,L|406:187,1,75.0000028610231
476,185,182734,2,2,L|468:110,1,75.0000028610231
393,90,182896,2,2,L|438:208,1,75.0000028610231
497,160,183057,2,2,L|469:89,1,75.0000028610231
422,24,183218,1,2,0:0:0:0:
351,157,183380,1,2,0:0:0:0:
201,159,183541,1,2,0:0:0:0:
134,24,183702,1,2,0:0:0:0:
201,159,183863,70,2,L|323:189,1,75.0000028610231
355,228,184025,2,2,L|232:258,1,75.0000028610231
191,296,184186,2,2,L|313:326,1,75.0000028610231
358,362,184347,2,2,L|235:392,2,75.0000028610231
461,285,184589,1,2,0:0:0:0:
427,210,184670,6,2,L|354:228,1,75.0000028610231
328,277,184831,2,2,L|416:241,1,75.0000028610231
403,192,184993,2,2,L|337:228,1,75.0000028610231
343,292,185154,2,2,L|335:284|395:243,1,75.0000028610231
376,180,185315,2,2,L|321:232,1,75.0000028610231
343,292,185476,2,2,L|395:239,1,75.0000028610231
439,148,185638,1,2,0:0:0:0:
351,66,185799,2,2,P|251:50|163:67,1,175
178,61,186444,2,2,P|207:114|206:150,1,75
206,153,186767,1,2,0:0:0:0:
442,61,187089,5,0,0:0:0:0:
322,195,187412,1,0,0:0:0:0:
398,241,187573,1,0,0:0:0:0:
368,274,187654,1,0,0:0:0:0:
338,307,187734,1,0,0:0:0:0:
419,313,187896,1,0,0:0:0:0:
389,346,187977,1,0,0:0:0:0:
359,379,188057,1,0,0:0:0:0:
258,268,188218,1,0,0:0:0:0:
258,268,188380,21,0,0:0:0:0:
197,192,188702,1,0,0:0:0:0:
115,154,188863,1,0,0:0:0:0:
145,121,188944,1,0,0:0:0:0:
175,88,189024,1,0,0:0:0:0:
94,82,189186,1,0,0:0:0:0:
124,49,189267,1,0,0:0:0:0:
154,17,189347,1,0,0:0:0:0:
254,128,189509,1,0,0:0:0:0:
254,128,189670,53,0,0:0:0:0:
257,277,189993,1,0,0:0:0:0:
191,338,190154,1,0,0:0:0:0:
232,353,190234,1,0,0:0:0:0:
276,361,190315,1,0,0:0:0:0:
348,308,190476,1,0,0:0:0:0:
368,267,190557,1,0,0:0:0:0:
377,222,190638,1,0,0:0:0:0:
257,277,190799,21,0,0:0:0:0:
140,77,190960,1,8,0:0:0:0:
444,169,191122,1,8,0:0:0:0:
317,21,191283,1,8,0:0:0:0:
257,277,191444,1,8,0:0:0:0:
256,194,192251,5,0,0:0:0:0:
256,194,193541,53,0,0:0:0:0:
256,194,194831,21,0,0:0:0:0:
256,194,196122,53,0,0:0:0:0:
256,194,196767,21,0,0:0:0:0:
256,194,197412,53,0,0:0:0:0:
256,194,198702,21,0,0:0:0:0:
256,194,199993,53,0,0:0:0:0:
256,194,201283,21,0,0:0:0:0:
256,194,201928,53,0,0:0:0:0:
256,194,202573,2,2,P|204:168|171:82,2,150.000005722046
354,229,203541,1,2,0:0:0:0:
258,277,203863,2,2,P|206:303|173:389,2,150.000005722046
359,247,204831,1,2,0:0:0:0:
335,144,205154,2,2,P|280:85|200:60,1,150.000005722046
111,69,205799,1,2,0:0:0:0:
42,208,206122,1,2,0:0:0:0:
186,170,206444,1,2,0:0:0:0:
316,244,206686,21,2,0:0:0:0:
316,244,206767,1,2,0:0:0:0:
433,151,207089,1,2,0:0:0:0:
322,48,207412,1,2,0:0:0:0:
212,150,207734,1,2,0:0:0:0:
295,226,207896,1,2,0:0:0:0:
211,301,208057,1,2,0:0:0:0:
296,374,208218,1,2,0:0:0:0:
382,301,208380,1,2,0:0:0:0:
186,62,209025,54,2,P|126:83|107:107,2,75.0000028610231
336,61,209670,1,2,0:0:0:0:
212,167,210315,22,2,P|189:226|195:256,2,75.0000028610231
255,92,210799,1,2,0:0:0:0:
294,167,210960,2,2,P|316:226|310:256,2,75.0000028610231
255,92,211444,1,2,0:0:0:0:
113,137,211605,2,8,P|163:225|262:247,1,150.000005722046
350,173,211928,1,8,0:0:0:0:
492,282,212089,2,8,P|395:332|306:343,1,150.000005722046
311,329,212331,1,0,0:0:0:0:
267,315,212412,1,0,0:0:0:0:
232,285,212493,1,0,0:0:0:0:
203,250,212573,1,0,0:0:0:0:
179,211,212654,1,0,0:0:0:0:
159,170,212734,1,0,0:0:0:0:
154,125,212815,1,0,0:0:0:0:
154,79,212896,54,0,P|256:51|351:90,2,150.000005722046
22,152,213380,1,0,0:0:0:0:
150,229,213541,1,0,0:0:0:0:
276,309,213702,1,0,0:0:0:0:
320,337,213783,1,0,0:0:0:0:
363,365,213863,1,0,0:0:0:0:
447,300,214025,2,0,P|471:196|434:117,1,150.000005722046
409,64,214347,1,0,0:0:0:0:
354,154,214509,1,0,0:0:0:0:
303,245,214670,1,0,0:0:0:0:
275,290,214751,1,0,0:0:0:0:
249,335,214831,1,0,0:0:0:0:
190,196,214993,1,0,0:0:0:0:
120,71,215154,21,0,0:0:0:0:
73,164,215315,1,0,0:0:0:0:
108,202,215396,1,0,0:0:0:0:
156,220,215476,1,0,0:0:0:0:
235,181,215638,2,0,P|326:158|424:195,1,150.000005722046
316,232,215960,2,0,P|407:255|505:218,2,150.000005722046
235,181,216444,1,0,0:0:0:0:
169,110,216605,1,0,0:0:0:0:
138,152,216686,1,0,0:0:0:0:
107,194,216767,1,0,0:0:0:0:
180,326,216928,53,0,0:0:0:0:
321,307,217089,2,0,P|395:270|438:204,1,150.000005722046
484,71,217412,2,0,P|410:108|367:174,1,150.000005722046
321,305,217734,1,0,0:0:0:0:
215,329,218057,22,0,P|184:338|132:312,1,50
65,276,218218,2,0,P|96:285|148:259,1,50
209,216,218380,2,0,P|178:225|126:199,1,50
63,162,218541,2,0,P|94:171|146:145,1,50
208,115,218702,2,0,P|239:106|291:132,1,50
356,163,218863,38,0,L|425:235,1,75.0000028610231
378,287,219025,2,0,L|326:232,1,75.0000028610231
66,103,219347,5,0,0:0:0:0:
146,230,219509,1,0,0:0:0:0:
223,101,219670,1,0,0:0:0:0:
300,229,219831,1,0,0:0:0:0:
379,100,219993,1,0,0:0:0:0:
454,229,220154,6,0,L|476:147,1,75.0000028610231
434,152,220315,2,0,L|412:70,1,75.0000028610231
74,46,220638,5,0,0:0:0:0:
182,149,220799,1,0,0:0:0:0:
289,253,220960,1,0,0:0:0:0:
401,353,221122,1,0,0:0:0:0:
438,46,221283,1,0,0:0:0:0:
330,149,221444,1,0,0:0:0:0:
223,253,221605,1,0,0:0:0:0:
111,353,221767,1,0,0:0:0:0:
106,185,221928,54,0,P|155:239|164:312,1,75.0000028610231
151,327,222089,2,0,P|102:273|93:200,1,75.0000028610231
43,173,222251,1,0,0:0:0:0:
150,68,222412,1,0,0:0:0:0:
295,34,222573,2,0,P|423:114|488:258,1,300.000011444092
327,114,223218,22,0,P|241:167|215:226,1,150.000005722046
219,208,223541,1,0,0:0:0:0:
306,289,223702,1,0,0:0:0:0:
363,307,223783,1,0,0:0:0:0:
419,325,223863,1,0,0:0:0:0:
307,369,224025,1,0,0:0:0:0:
65,286,224186,54,0,P|109:208|168:148,1,150.000005722046
247,91,224509,1,0,0:0:0:0:
362,64,224670,1,0,0:0:0:0:
478,36,224831,1,0,0:0:0:0:
394,122,224993,1,0,0:0:0:0:
345,156,225073,1,0,0:0:0:0:
296,191,225154,1,0,0:0:0:0:
198,260,225315,1,0,0:0:0:0:
145,116,225476,21,0,0:0:0:0:
283,231,225638,1,0,0:0:0:0:
315,262,225719,1,0,0:0:0:0:
348,292,225799,2,0,P|435:217|378:48,1,300.000011444092
268,1,226444,1,0,0:0:0:0:
265,211,226767,1,0,0:0:0:0:
60,131,226928,1,0,0:0:0:0:
40,180,227009,1,0,0:0:0:0:
47,231,227089,1,0,0:0:0:0:
127,318,227412,54,0,P|209:274|375:253,1,225.000008583069
349,278,227734,2,0,P|267:234|101:213,1,225.000008583069
127,238,228057,2,0,P|209:194|375:173,1,225.000008583069
421,164,228380,1,0,0:0:0:0:
143,166,228542,1,0,0:0:0:0:
332,60,228703,1,0,0:0:0:0:
270,319,228864,1,0,0:0:0:0:
194,61,229025,1,0,0:0:0:0:
335,249,229186,5,0,0:0:0:0:
374,284,229267,1,0,0:0:0:0:
413,317,229347,1,0,0:0:0:0:
105,260,229670,6,0,P|180:224|207:235,1,75.0000028610231
228,252,229831,2,0,B|220:244|194:271|159:282,1,75.0000028610231
111,291,229993,2,0,P|174:236|203:240,1,75.0000028610231
228,252,230154,2,0,P|210:284|178:303,1,75.0000028610231
114,326,230315,1,0,0:0:0:0:
318,251,230476,38,0,L|415:212,1,75.0000028610231
447,272,230638,2,0,L|350:311,1,75.0000028610231
216,53,230960,6,0,P|123:91|72:149,1,150.000005722046
36,198,231283,1,0,0:0:0:0:
63,283,231444,1,0,0:0:0:0:
296,53,231605,2,0,P|389:91|440:149,1,150.000005722046
476,198,231928,1,0,0:0:0:0:
449,283,232089,1,0,0:0:0:0:
364,157,232251,21,0,0:0:0:0:
303,293,232573,1,0,0:0:0:0:
249,153,232896,1,0,0:0:0:0:
192,291,233218,1,0,0:0:0:0:
137,150,233541,1,0,0:0:0:0:
256,192,233622,12,0,237412,0:0:0:0:
148,135,238057,54,2,P|212:114|248:119,1,75.0000028610231
293,121,238380,1,2,0:0:0:0:
436,164,238702,1,2,0:0:0:0:
410,311,238863,5,0,0:0:0:0:
315,194,239025,1,0,0:0:0:0:
226,73,239186,1,0,0:0:0:0:
189,111,239267,1,0,0:0:0:0:
153,149,239347,1,0,0:0:0:0:
154,239,239509,2,0,L|77:309,1,75.0000028610231
28,265,239670,2,0,L|105:195,1,75.0000028610231
143,208,239831,2,0,L|86:295,1,75.0000028610231
77,326,239993,1,0,0:0:0:0:
193,297,240154,1,0,0:0:0:0:
307,261,240315,1,0,0:0:0:0:
205,197,240476,53,0,0:0:0:0:
169,245,240557,1,0,0:0:0:0:
138,296,240638,1,0,0:0:0:0:
45,219,240799,1,0,0:0:0:0:
129,133,240960,2,0,L|318:98,1,150.000005722046
409,77,241283,1,0,0:0:0:0:
462,184,241444,1,0,0:0:0:0:
409,291,241605,1,0,0:0:0:0:
351,184,241767,1,0,0:0:0:0:
311,228,241847,1,0,0:0:0:0:
275,276,241928,1,0,0:0:0:0:
238,161,242089,1,0,0:0:0:0:
145,83,242251,1,0,0:0:0:0:
55,162,242412,1,0,0:0:0:0:
157,159,242573,22,0,L|238:187,1,75.0000028610231
144,227,242896,2,0,L|225:255,1,75.0000028610231
137,292,243218,2,0,L|360:359,1,225.000008583069
493,303,243863,1,0,0:0:0:0:
397,149,244025,53,0,0:0:0:0:
360,186,244105,1,0,0:0:0:0:
323,224,244186,1,0,0:0:0:0:
233,278,244347,1,0,0:0:0:0:
146,338,244509,1,0,0:0:0:0:
141,206,244670,1,0,0:0:0:0:
94,181,244751,1,0,0:0:0:0:
47,152,244831,1,0,0:0:0:0:
135,95,244993,1,0,0:0:0:0:
263,43,245154,22,0,L|365:162,1,150.000005722046
244,121,245799,2,0,L|346:240,1,150.000005722046
223,202,246444,1,0,0:0:0:0:
118,193,246605,53,0,0:0:0:0:
212,287,246767,1,0,0:0:0:0:
327,193,246928,1,0,0:0:0:0:
478,205,247089,1,0,0:0:0:0:
444,245,247170,1,0,0:0:0:0:
410,285,247251,1,0,0:0:0:0:
327,193,247412,1,0,0:0:0:0:
212,287,247573,1,0,0:0:0:0:
118,193,247734,1,0,0:0:0:0:
155,155,247815,1,0,0:0:0:0:
189,114,247896,1,0,0:0:0:0:
269,46,248057,1,0,0:0:0:0:
388,104,248380,6,2,P|408:147|409:204,1,75.0000028610231
336,179,248702,2,2,P|342:215|359:248,1,75.0000028610231
410,304,249025,1,2,0:0:0:0:
260,305,249186,5,0,0:0:0:0:
171,184,249347,2,0,L|117:115,2,75.0000028610231
260,305,249670,1,0,0:0:0:0:
260,305,249831,1,0,0:0:0:0:
341,184,249993,2,0,L|395:115,2,75.0000028610231
260,305,250315,1,0,0:0:0:0:
119,355,250476,1,0,0:0:0:0:
148,183,250638,1,0,0:0:0:0:
245,69,250799,2,0,B|402:69|402:69|402:237,1,300.000011444092
270,137,251283,53,0,0:0:0:0:
236,177,251363,1,0,0:0:0:0:
202,217,251444,1,0,0:0:0:0:
126,296,251605,1,0,0:0:0:0:
252,313,251767,22,0,L|354:196,1,150.000005722046
424,125,252089,1,0,0:0:0:0:
356,44,252251,1,0,0:0:0:0:
292,127,252412,1,0,0:0:0:0:
220,204,252573,1,0,0:0:0:0:
86,83,252896,6,0,L|184:196,1,150.000005722046
175,80,253218,2,0,L|273:193,1,150.000005722046
265,82,253541,1,0,0:0:0:0:
256,192,253622,12,0,265154,0:0:0:0:
