osu file format v14

[General]
AudioFilename: urara.mp3
AudioLeadIn: 0
PreviewTime: 55403
Countdown: 0
SampleSet: Soft
StackLeniency: 0.7
Mode: 0
LetterboxInBreaks: 0
WidescreenStoryboard: 0

[Editor]
Bookmarks: 8088,11051,14014,16977,19940,22903,40681,43644,55496,61422
DistanceSpacing: 1.3
BeatDivisor: 4
GridSize: 4
TimelineZoom: 1

[Metadata]
Title:Yumeji Labyrinth
TitleUnicode:夢路らびりんす
Artist:LABYRINTHS
ArtistUnicode:らびりんず
Creator:yf_bmp
Version:Kencho fake ver
Source:うらら迷路帖
Tags:Urara Meirochou 千矢 chiya 紺 kon 小梅 koume ノノ nono 原田彩楓 Harada Sayaka 久保ユリカ Kubo Yurika 本渡楓 Hondo Kaede 佳村はるか Yoshimura Haruka opening tv size
BeatmapID:1426080
BeatmapSetID:673908

[Difficulty]
HPDrainRate:6
CircleSize:4.3
OverallDifficulty:8
ApproachRate:8.5
SliderMultiplier:1.8
SliderTickRate:1

[Events]
//Background and Video events
0,0,"chiyachankawaii.png",0,0
Video,278,"konchanmokawaii.avi"
//Break Periods
//Storyboard Layer 0 (Background)
//Storyboard Layer 1 (Fail)
//Storyboard Layer 2 (Pass)
//Storyboard Layer 3 (Foreground)
//Storyboard Sound Samples

[TimingPoints]
2163,370.37037037037,4,2,2,45,1,0
2163,-125,4,2,2,45,0,0
7718,-100,4,2,2,45,0,0
8088,-100,4,2,1,65,0,0
21422,-76.9230769230769,4,2,1,65,0,0
22533,-100,4,2,1,65,0,0
22903,-100,4,2,1,75,0,0
28829,-100,4,2,1,65,0,0
40681,-133.333333333333,4,2,1,65,0,0
49570,-100,4,2,1,65,0,0
52533,-100,4,2,1,70,0,0
54014,-76.9230769230769,4,2,1,70,0,0
55496,-90.9090909090909,4,2,1,75,0,1
67348,-133.333333333333,4,2,1,75,0,0
72903,-83.3333333333333,4,2,1,75,0,1
73274,-90.9090909090909,4,2,1,75,0,1
77718,-100,4,2,1,75,0,0
79200,-100,4,2,1,65,0,0
80681,-76.9230769230769,4,2,1,65,0,0
82162,-100,4,2,1,75,0,0

[Colours]
Combo1 : 48,106,11
Combo2 : 234,84,4
Combo3 : 61,86,126
Combo4 : 231,146,141

[HitObjects]
363,251,2163,6,0,P|411:273|464:264,1,108
482,252,2533,2,0,L|488:180,1,72
372,61,2903,2,0,P|349:109|359:161,1,108
371,179,3274,2,0,L|362:256,1,72
362,340,3644,6,0,P|338:367|305:381,1,72,2|0,0:0|0:0,0:0:0:0:
363,251,4014,2,0,P|397:257|426:279,1,72,2|0,0:0|0:0,0:0:0:0:
287,292,4385,2,0,P|275:258|279:222,1,72,2|0,0:0|0:0,0:0:0:0:
363,251,4755,1,0,0:0:0:0:
362,340,4940,1,0,0:0:0:0:
200,316,5125,6,0,B|184:280|184:280|195:175,1,144
278,222,5681,1,0,0:0:0:0:
200,316,5866,2,0,L|120:328,1,72,2|0,0:0|0:0,0:0:0:0:
125,182,6237,2,0,P|161:170|201:178,1,72,2|0,0:0|0:0,0:0:0:0:
61,238,6607,6,0,P|40:194|73:115,1,108,2|0,0:0|0:0,0:0:0:0:
69,114,6977,1,0,0:0:0:0:
125,182,7162,1,0,0:0:0:0:
0,76,7348,1,2,0:0:0:0:
156,20,7533,1,2,0:0:0:0:
125,182,7718,6,0,L|170:182,3,45
248,128,8088,6,0,P|324:132|356:72,1,135,4|0,0:0|0:0,0:0:0:0:
360,60,8459,1,0,1:0:0:0:
256,224,8644,1,2,0:0:0:0:
256,224,8737,1,0,0:0:0:0:
256,224,8829,2,0,L|364:236,1,90,2|0,3:2|0:0,0:0:0:0:
170,182,9200,2,0,P|157:225|170:268,1,90,0|2,1:0|0:0,0:0:0:0:
405,177,9570,5,0,3:0:0:0:
256,224,9755,1,2,0:0:0:0:
370,330,9940,1,0,1:0:0:0:
317,157,10125,1,0,0:0:0:0:
282,308,10311,1,0,3:0:0:0:
431,264,10496,1,2,0:0:0:0:
317,157,10681,1,0,1:2:0:0:
370,330,10866,1,0,3:0:0:0:
370,330,10959,1,0,3:0:0:0:
370,330,11051,6,0,L|388:184,1,135,6|0,3:2|0:0,0:0:0:0:
391,166,11422,1,0,1:0:0:0:
282,308,11607,1,2,3:2:0:0:
168,207,11792,2,0,P|160:153|172:92,1,90,0|2,3:0|0:0,0:0:0:0:
252,160,12162,1,0,1:2:0:0:
148,296,12348,1,2,0:1:0:0:
79,131,12533,6,0,P|120:114|166:119,1,90,4|2,3:2|0:0,0:0:0:0:
252,160,12811,1,0,3:0:0:0:
252,160,12903,2,0,L|260:212,1,45,0|2,1:2|0:0,0:0:0:0:
164,118,13088,5,2,3:2:0:0:
164,118,13181,1,2,3:2:0:0:
164,118,13274,2,0,L|172:66,1,45,0|2,1:2|0:0,0:0:0:0:
258,204,13459,2,0,L|266:256,1,45,0|2,1:2|0:0,0:0:0:0:
148,296,13644,2,0,L|154:251,3,45,0|0|0|0,1:2|3:0|0:0|1:0,0:0:0:0:
72,372,14014,6,0,L|56:180,1,180,6|10,3:2|0:0,0:0:0:0:
48,104,14570,1,0,0:0:0:0:
153,251,14755,2,0,P|196:257|234:234,1,90,2|0,3:2|0:0,0:0:0:0:
249,209,15033,1,2,0:2:0:0:
249,209,15125,2,0,L|265:305,1,90,8|2,0:0|0:0,0:0:0:0:
367,116,15496,6,0,P|329:92|285:99,1,90,2|0,3:2|0:0,0:0:0:0:
264,120,15774,1,2,0:2:0:0:
264,120,15866,2,0,L|248:216,1,90,8|2,2:0|0:0,0:0:0:0:
388,264,16237,1,0,3:0:0:0:
367,116,16422,1,0,3:2:0:0:
367,116,16514,1,8,3:2:0:0:
367,116,16607,1,8,0:0:0:0:
249,209,16792,1,0,3:0:0:0:
249,209,16885,1,0,3:0:0:0:
249,209,16977,6,0,P|210:229|166:224,1,90,4|0,3:2|0:0,0:0:0:0:
57,131,17348,1,8,0:0:0:0:
136,16,17533,1,0,3:3:0:0:
195,142,17718,1,2,3:2:0:0:
56,46,17903,6,0,L|54:-3,1,45,8|0,1:2|1:2,0:0:0:0:
136,16,18088,6,0,L|138:65,3,45,2|2|2|2,2:2|2:2|2:2|2:2,0:0:0:0:
56,46,18459,5,6,0:0:0:0:
56,46,19940,5,0,3:0:0:0:
137,60,20125,1,2,0:0:0:0:
165,140,20311,1,0,3:0:0:0:
110,205,20496,1,2,2:0:0:0:
23,189,20681,5,0,3:0:0:0:
56,46,20866,1,2,0:0:0:0:
165,140,21051,1,0,3:2:0:0:
0,108,21237,1,2,0:0:0:0:
137,60,21422,6,0,P|195:60|237:99,1,116.999994644165,0|0,1:0|0:0,0:0:0:0:
241,216,21700,6,0,P|197:210|237:191,1,116.999994644165,0|0,1:0|0:0,0:0:0:0:
301,283,21977,6,0,L|287:367,2,58.4999973220826,2|0|0,1:0|2:0|1:0,0:0:0:0:
301,283,22533,5,4,3:0:0:0:
329,281,22625,1,0,0:0:0:0:
358,279,22718,1,0,0:0:0:0:
387,277,22811,1,0,0:0:0:0:
416,275,22903,6,0,P|431:252|432:132,1,135,4|0,2:0|0:0,0:0:0:0:
423,123,23274,1,8,0:0:0:0:
305,44,23459,1,8,3:2:0:0:
275,183,23644,1,2,0:0:0:0:
215,53,23829,1,2,3:3:0:0:
340,123,24014,1,2,0:0:0:0:
198,140,24200,1,8,0:0:0:0:
305,44,24385,5,2,3:3:0:0:
275,183,24570,1,8,0:0:0:0:
275,183,24662,1,8,0:0:0:0:
275,183,24755,2,0,P|273:220|298:276,1,90,2|2,3:2|1:3,0:0:0:0:
378,294,25125,1,8,3:2:0:0:
226,336,25311,2,0,L|178:349,2,45,2|2|0,3:2|0:2|1:2,0:0:0:0:
362,206,25681,1,0,3:0:0:0:
200,249,25866,6,0,P|185:226|184:106,1,135,4|0,2:0|0:0,0:0:0:0:
193,97,26237,1,0,1:0:0:0:
300,1,26422,1,2,3:2:0:0:
270,140,26607,1,2,0:0:0:0:
210,10,26792,1,10,3:2:0:0:
335,80,26977,1,10,0:2:0:0:
193,97,27162,1,2,0:0:0:0:
300,1,27348,5,2,3:2:0:0:
270,140,27533,1,0,3:0:0:0:
270,140,27625,1,0,3:0:0:0:
270,140,27718,2,0,P|236:174|178:178,1,90,0|2,1:2|3:2,0:0:0:0:
169,177,27996,1,0,3:0:0:0:
169,177,28088,2,0,L|178:74,1,90,0|8,3:0|0:0,0:0:0:0:
90,23,28366,1,8,0:0:0:0:
90,23,28459,2,0,L|96:98,1,45,2|2,0:0|0:0,0:0:0:0:
41,183,28644,2,0,L|44:138,2,45,2|2|6,3:2|3:2|3:2,0:0:0:0:
41,183,29200,6,0,L|55:286,1,90,8|0,0:0|0:0,0:0:0:0:
70,296,29477,1,0,3:0:0:0:
70,296,29570,2,0,P|113:320|166:307,1,90,0|0,3:0|3:0,0:0:0:0:
278,217,29940,1,8,0:0:0:0:
142,145,30125,1,0,3:0:0:0:
142,145,30218,1,0,0:0:0:0:
142,145,30311,6,0,L|128:248,1,90,2|0,3:2|0:0,0:0:0:0:
278,217,30681,1,8,0:0:0:0:
142,145,30866,1,0,0:0:0:0:
151,315,31051,2,0,L|243:311,1,90,0|0,3:0|3:3,0:0:0:0:
272,307,31329,1,0,3:3:0:0:
272,307,31422,2,0,L|280:183,1,90,8|0,0:0|0:0,0:0:0:0:
290,40,31792,5,0,3:0:0:0:
358,181,31977,1,0,3:0:0:0:
358,181,32070,1,2,0:0:0:0:
358,181,32162,2,0,P|322:136|272:129,1,90,8|0,0:0|0:0,0:0:0:0:
277,217,32533,1,0,3:0:0:0:
432,133,32718,1,0,3:0:0:0:
290,40,32903,2,0,L|195:43,1,90,8|2,0:0|3:2,0:0:0:0:
115,46,33181,1,2,3:2:0:0:
115,46,33274,6,0,L|109:113,3,45,0|0|0|0,3:0|0:0|0:0|0:0,0:0:0:0:
27,86,33644,2,0,L|31:130,3,45,8|0|0|8,0:0|0:0|0:0|0:0,0:0:0:0:
59,216,34014,6,0,L|15:220,1,45,8|0,0:0|0:0,0:0:0:0:
144,191,34200,2,0,L|188:195,1,45,8|8,0:0|0:0,0:0:0:0:
75,126,34385,2,0,L|31:130,1,45,8|0,0:0|0:0,0:0:0:0:
118,325,34570,6,0,L|122:281,2,45,14|2|0,0:2|0:0|3:0,0:0:0:0:
118,325,35125,6,0,L|15:311,1,90,8|0,0:0|0:0,0:0:0:0:
7,294,35403,1,0,0:0:0:0:
7,294,35496,2,0,P|3:249|26:212,1,90,0|0,3:0|3:0,0:0:0:0:
135,150,35866,1,8,0:0:0:0:
207,313,36051,1,2,0:0:0:0:
207,313,36144,1,2,0:0:0:0:
207,313,36237,6,0,L|117:325,1,90,0|0,3:0|0:0,0:0:0:0:
135,150,36607,1,8,0:0:0:0:
276,252,36792,1,0,0:0:0:0:
276,252,36885,1,0,3:0:0:0:
276,252,36977,2,0,P|298:303|285:361,1,90,0|0,3:0|3:3,0:0:0:0:
117,324,37348,2,0,L|127:224,1,90,8|0,0:0|3:0,0:0:0:0:
191,90,37718,6,0,P|233:104|276:96,1,90,0|2,3:2|3:2,0:0:0:0:
301,79,37996,1,0,0:0:0:0:
301,79,38088,2,0,L|309:169,1,90,10|2,3:2|0:2,0:0:0:0:
235,255,38459,2,0,L|293:250,1,45,2|0,0:0|0:0,0:0:0:0:
394,241,38644,2,0,L|485:233,1,90,2|8,3:2|0:0,0:0:0:0:
309,168,39014,1,2,2:0:0:0:
322,328,39200,6,0,P|358:350|404:357,1,90,2|0,3:2|3:3,0:0:0:0:
315,248,39570,1,8,0:0:0:0:
242,335,39755,1,2,2:0:0:0:
394,241,39940,1,2,3:2:0:0:
235,255,40125,2,0,L|176:258,1,45,8|10,3:2|0:0,0:0:0:0:
401,321,40311,2,0,L|460:324,3,45,8|2|2|2,3:2|0:0|0:0|0:0,0:0:0:0:
322,328,40681,6,0,L|308:184,1,135.000005149842,4|0,0:2|0:3,0:0:0:0:
378,141,41237,1,2,3:2:0:0:
454,172,41422,2,0,P|407:180|378:141,1,101.250003862381
376,121,41792,2,0,P|392:93|430:80,1,67.5000025749208,0|0,1:0|0:0,0:0:0:0:
454,172,42162,6,0,L|447:294,1,101.250003862381,2|0,3:2|2:0,0:0:0:0:
447,294,42533,2,0,P|414:308|377:302,1,67.5000025749208,2|0,3:2|3:3,0:0:0:0:
345,193,42903,1,0,3:2:0:0:
447,294,43088,1,0,1:2:0:0:
306,336,43274,2,0,L|253:332,3,33.7500012874604,4|0|0|0,1:2|0:0|0:0|0:0,0:0:0:0:
276,249,43644,6,0,L|185:258,1,67.5000025749208,0|0,3:0|0:0,0:0:0:0:
122,334,44014,2,0,L|213:343,1,67.5000025749208,0|0,3:0|0:0,0:0:0:0:
156,194,44385,2,0,P|134:220|127:253,1,67.5000025749208,0|0,3:0|0:0,0:0:0:0:
276,249,44755,2,0,L|268:165,1,67.5000025749208,0|0,1:0|0:0,0:0:0:0:
282,160,45033,1,0,0:0:0:0:
282,160,45125,6,0,P|305:92|291:51,1,101.250003862381,0|0,3:0|0:0,0:0:0:0:
288,44,45496,1,2,3:2:0:0:
216,98,45681,1,2,3:2:0:0:
282,160,45866,5,8,3:2:0:0:
373,21,46051,1,4,2:2:0:0:
206,12,46237,1,4,1:2:0:0:
282,160,46422,1,0,3:3:0:0:
282,160,46514,1,0,3:3:0:0:
282,160,46607,6,0,B|320:182|320:182|431:172,1,135.000005149842,4|0,0:0|0:0,0:0:0:0:
497,165,47162,1,0,0:0:0:0:
479,333,47348,2,0,L|404:328,1,67.5000025749208,8|8,3:0|3:0,0:0:0:0:
411,328,47903,6,0,L|357:336,2,33.7500012874604,0|0|0,1:0|1:0|1:0,0:0:0:0:
266,174,48366,1,0,1:0:0:0:
266,174,48459,1,0,1:0:0:0:
223,340,48644,1,0,1:0:0:0:
223,340,48737,1,0,1:0:0:0:
223,340,48829,2,0,L|213:264,1,67.5000025749208,0|0,1:0|1:0,0:0:0:0:
210,248,49107,1,0,1:0:0:0:
210,248,49200,1,0,1:0:0:0:
385,285,49385,1,0,3:0:0:0:
385,285,49477,1,0,3:0:0:0:
385,285,49570,6,0,P|414:318|417:363,1,90,6|0,3:2|3:0,0:0:0:0:
300,255,49940,1,8,3:2:0:0:
395,156,50125,1,2,0:0:0:0:
395,156,50218,1,2,3:2:0:0:
395,156,50311,2,0,L|495:165,1,90,2|0,3:2|0:0,0:0:0:0:
300,255,50681,2,0,L|185:246,1,90,8|2,3:2|3:2,0:0:0:0:
213,162,50959,1,2,3:2:0:0:
213,162,51051,6,0,P|223:201|207:252,1,90,6|0,3:2|0:3,0:0:0:0:
139,99,51422,1,8,3:2:0:0:
298,113,51607,1,2,3:2:0:0:
298,113,51700,1,2,3:2:0:0:
298,113,51792,2,0,L|390:121,1,90,2|0,3:2|0:0,0:0:0:0:
300,255,52162,1,8,3:2:0:0:
213,162,52348,1,8,0:0:0:0:
213,162,52440,1,8,0:0:0:0:
213,162,52533,5,2,3:2:0:0:
245,351,52718,1,2,3:2:0:0:
286,149,52903,5,0,3:2:0:0:
97,181,53088,1,0,3:0:0:0:
299,222,53274,5,2,3:2:0:0:
267,33,53459,1,2,3:2:0:0:
226,235,53644,5,0,3:2:0:0:
415,203,53829,1,2,3:2:0:0:
154,73,54014,6,0,L|143:267,2,175.499991966248,0|2|2,3:0|0:2|0:0,0:0:0:0:
56,234,54755,2,0,L|63:311,1,58.4999973220826
200,348,54940,6,0,L|142:337,2,58.4999973220826,2|0|2,0:0|0:0|0:0,0:0:0:0:
200,348,55496,5,6,1:2:0:0:
341,316,55681,2,0,L|337:267,1,49.5000015106202,2|2,0:3|0:0,0:0:0:0:
330,187,55866,2,0,P|378:195|424:179,1,99.0000030212403,8|2,1:2|0:0,0:0:0:0:
377,4,56237,2,0,L|368:102,1,99.0000030212403,0|2,3:2|3:2,0:0:0:0:
337,267,56607,1,8,1:2:0:0:
368,102,56792,1,2,3:2:0:0:
368,102,56885,1,0,3:0:0:0:
368,102,56977,6,0,P|321:94|274:111,1,99.0000030212403,0|2,3:2|0:0,0:0:0:0:
181,236,57348,1,8,1:2:0:0:
337,267,57533,1,0,0:0:0:0:
273,111,57718,6,0,P|235:82|186:78,1,99.0000030212403,2|2,3:2|2:2,0:0:0:0:
114,101,57996,1,2,3:2:0:0:
114,101,58088,2,0,P|143:63|145:14,1,99.0000030212403,10|2,1:2|0:0,0:0:0:0:
31,131,58459,5,2,3:2:0:0:
101,188,58644,2,0,L|96:236,1,49.5000015106202,2|2,3:2|0:0,0:0:0:0:
16,252,58829,2,0,L|30:358,1,99.0000030212403,8|2,1:2|0:0,0:0:0:0:
168,295,59200,2,0,P|216:287|251:252,1,99.0000030212403,2|2,3:1|0:0,0:0:0:0:
97,237,59570,1,10,1:2:0:0:
161,383,59755,1,2,3:2:0:0:
250,252,59940,6,0,P|248:203|218:165,1,99.0000030212403,2|2,3:2|0:2,0:0:0:0:
156,120,60218,1,2,0:0:0:0:
156,120,60311,2,0,P|204:118|243:89,1,99.0000030212403,10|2,1:2|0:0,0:0:0:0:
228,4,60681,1,2,1:1:0:0:
228,4,60774,1,0,0:0:0:0:
228,4,60866,1,2,0:0:0:0:
218,165,61051,1,10,1:2:0:0:
400,120,61237,2,0,L|352:116,1,49.5000015106202,2|2,0:0|0:2,0:0:0:0:
305,36,61422,6,0,P|341:69|351:117,1,99.0000030212403,6|2,3:2|0:2,0:0:0:0:
318,204,61700,1,2,0:0:0:0:
318,204,61792,1,8,1:2:0:0:
210,132,61977,2,0,L|259:121,2,49.5000015106202,2|2|2,3:2|0:2|3:1,0:0:0:0:
318,204,62348,1,2,0:0:0:0:
241,271,62533,2,0,L|130:266,1,99.0000030212403,8|2,1:2|0:2,0:0:0:0:
68,210,62811,1,2,0:2:0:0:
68,210,62903,6,0,P|49:161|53:101,1,99.0000030212403,0|0,3:2|0:2,0:2:0:0:
228,37,63274,2,0,P|227:86|209:131,1,99.0000030212403,8|0,1:2|0:2,0:2:0:0:
68,210,63644,2,0,L|179:215,1,99.0000030212403,0|2,3:2|2:2,0:0:0:0:
413,228,64014,2,0,L|302:233,1,99.0000030212403,8|2,1:2|2:2,0:0:0:0:
239,271,64292,1,2,0:2:0:0:
239,271,64385,6,0,P|207:204|210:130,1,148.50000453186,2|2,3:2|0:3,0:0:0:0:
228,37,64755,1,8,1:2:0:0:
364,98,64940,2,0,L|413:93,2,49.5000015106202,2|2|2,0:0|3:2|1:1,0:0:0:0:
209,131,65311,1,2,3:2:0:0:
209,131,65403,1,2,3:2:0:0:
209,131,65496,2,0,P|165:112|139:70,1,99.0000030212403,8|0,1:2|2:2,0:0:0:0:
348,0,65866,6,0,L|366:112,1,99.0000030212403,0|2,3:0|0:0,0:0:0:0:
314,232,66237,2,0,L|210:223,1,99.0000030212403,8|0,1:2|0:0,0:0:0:0:
209,131,66607,1,0,3:0:0:0:
363,97,66792,1,4,1:2:0:0:
314,232,66977,2,0,L|308:318,3,49.5000015106202,6|2|2|2,1:0|0:0|0:0|0:0,0:0:0:0:
393,194,67348,6,0,L|382:341,1,135,4|2,3:1|0:0,0:0:0:0:
304,367,67903,1,0,3:0:0:0:
304,367,68088,2,0,P|263:357|244:337,1,67.5000025749208,0|0,3:0|2:0,0:0:0:0:
310,164,68459,2,0,L|315:250,1,67.5000025749208,0|0,1:0|3:0,0:0:0:0:
505,315,68829,6,0,P|443:345|366:313,1,135.000005149842,2|2,3:2|2:0,0:0:0:0:
436,257,69385,1,0,0:0:0:0:
436,257,69570,2,0,L|448:184,1,67.5000025749208,0|4,0:0|0:0,0:0:0:0:
505,315,69940,1,4,1:2:0:0:
355,247,70125,1,0,3:0:0:0:
355,247,70218,1,0,3:0:0:0:
355,247,70311,6,0,L|344:100,1,135,4|2,3:1|0:0,0:0:0:0:
266,74,70866,1,0,3:0:0:0:
266,74,71051,2,0,P|225:84|206:104,1,67.5000025749208,0|0,3:0|2:0,0:0:0:0:
272,277,71422,2,0,L|277:191,1,67.5000025749208,0|0,1:0|3:0,0:0:0:0:
277,191,71700,1,0,0:0:0:0:
278,173,71792,5,2,3:2:0:0:
191,189,71977,1,2,0:0:0:0:
191,189,72070,1,2,0:0:0:0:
191,189,72162,1,0,1:0:0:0:
123,132,72348,2,0,L|68:134,2,33.7500012874604,0|0|0,0:0|3:0|3:0,0:0:0:0:
278,173,72718,1,0,3:2:0:0:
224,39,72903,6,0,P|191:91|198:206,1,161.999995056153,4|0,0:2|0:0,0:0:0:0:
202,212,73274,6,0,L|103:215,1,99.0000030212403,6|0,3:2|3:2,0:0:0:0:
283,219,73644,1,10,1:2:0:0:
255,89,73829,1,2,3:2:0:0:
202,212,74014,6,0,P|213:259|248:293,1,99.0000030212403,2|2,3:2|3:2,0:0:0:0:
325,314,74292,1,2,0:0:0:0:
325,314,74385,2,0,L|228:330,1,99.0000030212403,10|2,1:2|0:0,0:0:0:0:
388,161,74755,2,0,L|486:177,1,99.0000030212403,2|0,3:1|0:0,0:0:0:0:
306,194,75125,2,0,P|300:143|321:101,1,99.0000030212403,10|2,1:2|0:0,0:0:0:0:
247,291,75496,5,6,1:2:0:0:
147,238,75681,2,0,L|139:190,1,49.5000015106202,2|2,3:2|3:2,0:0:0:0:
126,111,75866,1,8,1:2:0:0:
248,131,76051,2,0,L|200:139,2,49.5000015106202,2|2|2,3:2|0:2|1:1,0:0:0:0:
329,52,76422,2,0,L|321:100,1,49.5000015106202,2|0,0:0|3:2,0:0:0:0:
307,183,76607,1,8,1:2:0:0:
199,139,76792,2,0,L|207:187,1,49.5000015106202,2|2,3:2|3:2,0:0:0:0:
219,267,76977,6,0,L|122:250,1,99.0000030212403,2|2,1:2|3:2,0:0:0:0:
47,236,77255,1,2,3:2:0:0:
47,236,77348,6,0,L|58:308,4,49.5000015106202,0|2|2|2|4,3:0|0:0|0:0|0:0|1:2,0:0:0:0:
376,9,79200,5,0,3:0:0:0:
299,36,79385,1,2,0:0:0:0:
284,120,79570,1,0,3:0:0:0:
350,174,79755,1,2,2:0:0:0:
433,143,79940,5,0,3:0:0:0:
376,9,80125,1,2,0:0:0:0:
284,120,80311,1,0,3:2:0:0:
442,60,80496,1,2,0:0:0:0:
299,36,80681,6,0,P|227:53|205:109,1,116.999994644165,0|0,1:0|0:0,0:0:0:0:
183,88,80959,6,0,P|144:45|87:44,1,116.999994644165,0|0,1:0|0:0,0:0:0:0:
2,28,81237,6,0,L|10:109,2,58.4999973220826,2|0|0,1:0|2:0|1:0,0:0:0:0:
2,28,81792,6,0,P|20:105|107:131,1,175.499991966248
96,109,82162,6,0,P|81:132|80:252,1,135,4|0,2:0|0:0,0:0:0:0:
89,261,82533,1,8,0:0:0:0:
212,192,82718,1,8,3:2:0:0:
96,109,82903,1,2,0:0:0:0:
89,261,83088,1,2,2:2:0:0:
272,256,83274,2,0,P|296:224|288:156,1,90,8|0,0:0|0:0,0:0:0:0:
228,24,83644,5,2,3:3:0:0:
212,192,83829,1,8,0:0:0:0:
212,192,83922,1,8,0:0:0:0:
212,192,84014,1,8,0:0:0:0:
356,112,84200,1,0,0:0:0:0:
144,48,84385,1,8,3:2:0:0:
156,320,84570,2,0,L|208:312,2,45,2|2|0,3:2|0:2|1:2,0:0:0:0:
297,175,84940,1,0,3:0:0:0:
349,346,85125,6,0,P|322:354|206:324,1,135,4|0,2:0|0:0,0:0:0:0:
200,313,85496,1,8,0:0:0:0:
298,212,85681,1,8,3:2:0:0:
349,346,85866,1,2,0:0:0:0:
200,313,86051,1,2,3:3:0:0:
252,137,86237,2,0,P|289:122|352:147,1,90,8|0,0:0|0:0,0:0:0:0:
465,240,86607,5,2,3:3:0:0:
298,212,86792,1,8,0:0:0:0:
298,212,86885,1,8,0:0:0:0:
298,212,86977,1,8,0:0:0:0:
413,94,87163,1,0,0:0:0:0:
420,315,87348,2,0,P|388:288|384:224,1,90,0|2,0:0|0:0,0:0:0:0:
384,216,87625,2,0,L|408:172,2,45,0|2|0,0:0|0:0|0:0,0:0:0:0:
