osu file format v14

[General]
AudioFilename: audio.mp3
AudioLeadIn: 0
PreviewTime: 55496
Countdown: 0
SampleSet: Soft
StackLeniency: 0.3
Mode: 0
LetterboxInBreaks: 0
WidescreenStoryboard: 1

[Editor]
Bookmarks: 24200
DistanceSpacing: 1.6
BeatDivisor: 4
GridSize: 4
TimelineZoom: 1

[Metadata]
Title:Yumeji Labyrinth
TitleUnicode:Yumeji Labyrinth
Artist:LABYRINTHS
ArtistUnicode:LABYRINTHS
Creator:ekafjr
Version:Hard
Source:うらら迷路帖
Tags:urara meirochou chiya kon koume nono harada sayaka kubo yurika hondo kaede
BeatmapID:1291784
BeatmapSetID:612041

[Difficulty]
HPDrainRate:5
CircleSize:4
OverallDifficulty:5
ApproachRate:7.5
SliderMultiplier:1.4
SliderTickRate:1

[Events]
//Background and Video events
0,0,"chiyanono.png",0,0
//Break Periods
//Storyboard Layer 0 (Background)
//Storyboard Layer 1 (Fail)
//Storyboard Layer 2 (Pass)
//Storyboard Layer 3 (Foreground)
//Storyboard Sound Samples

[TimingPoints]
2163,370.37037037037,4,2,1,60,1,0
8088,-100,4,2,1,60,0,0
19940,-100,4,2,1,60,0,0
29200,-100,4,2,1,70,0,0
30311,-100,4,2,1,70,0,0
30496,-100,4,2,1,70,0,0
35125,-100,4,2,1,70,0,0
36237,-100,4,2,1,70,0,0
36422,-100,4,2,1,70,0,0
40681,-125,4,2,1,50,0,0
46607,-125,4,2,1,50,0,0
49570,-100,4,2,1,60,0,0
55496,-100,4,2,1,70,0,1
67348,-100,4,2,1,70,0,0
79200,-100,4,2,1,70,0,0

[Colours]
Combo1 : 0,128,255
Combo2 : 255,0,0
Combo3 : 255,128,192
Combo4 : 0,255,128
Combo5 : 255,255,128

[HitObjects]
152,144,2163,6,0,P|200:180|216:240,2,105,2|0|2,0:0|0:0|0:0,0:0:0:0:
52,104,2903,2,0,P|104:80|140:24,2,105,2|0|0,0:0|0:0|0:0,0:0:0:0:
48,204,3644,5,2,0:0:0:0:
172,264,4014,1,0,0:0:0:0:
48,328,4385,1,2,0:0:0:0:
172,264,4755,1,0,0:0:0:0:
208,128,5125,6,0,P|256:164|324:168,2,105,2|0|0,0:0|0:0|0:0,0:0:0:0:
116,108,5866,2,0,L|116:213,2,105,2|0|0,0:0|0:0|0:0,0:0:0:0:
208,128,6607,6,0,P|256:164|324:168,1,105,2|0,0:0|0:0,0:0:0:0:
392,72,7162,1,0,0:0:0:0:
460,180,7348,1,2,0:0:0:0:
460,180,7533,1,2,0:0:0:0:
476,96,7718,1,2,0:0:0:0:
348,84,8088,6,0,P|300:96|260:88,1,70,4|0,0:0|0:0,0:0:0:0:
196,40,8459,1,8,0:0:0:0:
196,40,8644,1,0,0:0:0:0:
176,136,8829,2,0,P|136:140|104:132,1,70,2|0,0:0|0:0,0:0:0:0:
44,60,9200,1,8,0:0:0:0:
44,60,9385,1,0,0:0:0:0:
32,156,9570,5,4,0:0:0:0:
188,276,9940,2,0,P|232:284|272:272,1,70,12|0,0:0|0:0,0:0:0:0:
296,188,10311,2,0,L|224:188,1,70,6|0,0:0|0:0,0:0:0:0:
128,184,10681,1,8,0:0:0:0:
128,184,11051,5,4,0:0:0:0:
84,256,11237,1,0,0:0:0:0:
156,344,11422,6,0,P|220:344|244:328,1,70,8|0,0:0|0:0,0:0:0:0:
304,276,11792,2,0,L|374:276,1,70,2|0,0:0|0:0,0:0:0:0:
472,256,12162,1,8,0:0:0:0:
472,256,12348,1,8,0:0:0:0:
428,168,12533,6,0,P|416:124|424:84,1,70,4|0,0:0|0:0,0:0:0:0:
468,16,12903,1,8,0:0:0:0:
468,16,13088,1,8,0:0:0:0:
368,16,13274,1,10,0:0:0:0:
288,72,13459,1,0,0:0:0:0:
288,72,13551,1,8,0:0:0:0:
288,72,13644,2,0,P|240:76|196:60,1,70,10|8,0:0|0:3,0:0:0:0:
136,44,14014,6,0,L|136:120,1,70,4|0,0:0|0:0,0:0:0:0:
184,200,14385,2,0,P|188:244|180:280,1,70,12|0,0:0|0:0,0:0:0:0:
148,360,14755,2,0,P|192:368|228:356,1,70,6|0,0:0|0:0,0:0:0:0:
304,324,15125,1,8,0:0:0:0:
304,324,15311,1,0,0:0:0:0:
368,232,15496,6,0,P|324:240|288:228,1,70,4|0,0:0|0:0,0:0:0:0:
240,140,15866,1,8,0:0:0:0:
240,140,16051,1,0,0:0:0:0:
336,80,16237,2,0,L|332:176,1,70,2|0,0:0|0:0,0:0:0:0:
272,244,16607,2,0,P|232:232|192:240,1,70,10|0,0:0|0:0,0:0:0:0:
148,316,16977,5,4,0:0:0:0:
24,232,17348,2,0,P|64:244|104:236,1,70,12|0,0:2|0:0,0:0:0:0:
204,235,17718,1,6,0:0:0:0:
252,312,17903,1,8,0:0:0:0:
252,312,17996,1,8,0:0:0:0:
252,312,18088,2,0,L|284:364,4,35,8|8|8|8|4,0:3|0:0|0:0|0:0|0:0,0:0:0:0:
300,260,19940,5,4,0:0:0:0:
392,248,20126,2,0,L|392:178,2,70,2|8|8,0:0|0:0|0:0,0:0:0:0:
376,344,20681,1,2,0:0:0:0:
280,368,20867,2,0,P|245:356|216:328,2,70,0|0|8,0:0|0:0|0:0,0:0:0:0:
300,260,21422,6,0,P|292:216|232:176,2,105,4|4|0,0:0|0:0|0:0,0:0:0:0:
200,268,22162,1,2,0:0:0:0:
32,120,22533,2,0,L|68:124,3,35,8|8|8|8,0:0|0:0|0:0|0:0,0:0:0:0:
96,172,22903,6,0,L|111:68,1,105,4|0,0:0|0:0,0:0:0:0:
160,36,23274,2,0,P|196:32|240:40,1,70,8|0,0:0|0:0,0:0:0:0:
292,128,23644,2,0,P|326:132|361:127,1,70,2|8,0:0|0:0,0:0:0:0:
412,104,23922,1,8,0:0:0:0:
412,104,24014,2,0,L|424:204,1,70,10|0,0:0|0:0,0:0:0:0:
460,280,24385,5,4,0:3:0:0:
372,300,24570,2,0,L|377:265,1,35,8|8,0:0|0:0,0:0:0:0:
324,284,24755,2,0,L|248:288,1,70,10|0,0:0|0:0,0:0:0:0:
148,256,25125,2,0,P|124:208|132:164,1,70,2|8,0:0|0:0,0:0:0:0:
144,152,25403,1,8,0:0:0:0:
144,152,25496,2,0,L|224:140,1,70,10|0,0:0|0:0,0:0:0:0:
319,134,25866,6,0,P|337:183|329:235,1,105,4|8,0:0|0:0,0:0:0:0:
323,286,26237,2,0,L|247:290,1,70,10|0,0:0|0:0,0:0:0:0:
152,340,26607,2,0,L|72:336,1,70,2|8,0:0|0:0,0:0:0:0:
36,304,26885,1,8,0:0:0:0:
36,304,26977,2,0,L|48:228,1,70,10|0,0:0|0:0,0:0:0:0:
104,140,27348,6,0,P|137:131|171:136,1,70,4|8,0:0|0:0,0:0:0:0:
216,172,27625,1,8,0:0:0:0:
216,172,27718,2,0,L|203:243,1,70,10|8,0:0|0:0,0:0:0:0:
324,188,28088,2,0,L|335:119,1,70,10|0,0:0|0:0,0:0:0:0:
392,24,28459,2,0,L|316:24,1,70,8|8,0:0|0:0,0:0:0:0:
212,24,28829,5,4,0:0:0:0:
24,24,29200,2,0,L|16:136,1,105,8|0,0:0|0:0,0:0:0:0:
12,176,29570,2,0,P|64:164|100:172,1,70,2|0,0:0|0:0,0:0:0:0:
184,188,29940,2,0,P|195:222|195:256,1,70,8|8,0:0|0:0,0:0:0:0:
124,328,30311,5,4,0:0:0:0:
124,328,30681,2,0,P|176:356|224:352,1,105,8|0,0:0|0:0,0:0:0:0:
272,372,31051,2,0,L|272:288,1,70,2|0,0:0|0:0,0:0:0:0:
304,196,31422,2,0,P|352:204|392:192,1,70,8|8,0:0|0:0,0:0:0:0:
440,111,31792,6,0,L|436:42,1,70,4|0,0:0|0:0,0:0:0:0:
336,88,32162,2,0,P|280:80|236:48,1,105,8|0,0:0|0:0,0:0:0:0:
192,28,32533,2,0,P|180:72|160:96,1,70,2|0,0:0|0:0,0:0:0:0:
116,192,32903,1,8,0:0:0:0:
116,192,33088,1,8,0:0:0:0:
232,216,33274,6,0,P|292:192|380:216,1,140,4|8,0:0|0:0,0:0:0:0:
416,304,33829,2,0,L|416:240,2,35,8|8|2,0:0|0:0|0:0,0:0:0:0:
304,308,34200,2,0,L|304:352,2,35,8|8|10,0:0|0:0|0:0,0:0:0:0:
232,216,34570,1,4,0:0:0:0:
196,324,34755,6,0,P|152:320|124:300,1,70,4|0,0:0|0:0,0:0:0:0:
116,196,35125,2,0,P|88:148|92:100,1,105,8|0,0:0|0:0,0:0:0:0:
91,100,35496,2,0,P|136:108|172:96,1,70,2|0,0:0|0:0,0:0:0:0:
232,16,35866,2,0,P|266:9|300:17,1,70,8|8,0:0|0:0,0:0:0:0:
264,124,36237,5,4,0:0:0:0:
180,312,36607,2,0,B|212:340|212:340|304:340,1,105,8|0,0:0|0:0,0:0:0:0:
274,340,36977,2,0,P|286:300|278:256,1,70,2|0,0:0|0:0,0:0:0:0:
208,188,37348,2,0,L|124:192,1,70,8|8,0:0|0:0,0:0:0:0:
36,140,37718,6,0,L|28:209,1,70,4|0,0:0|0:0,0:0:0:0:
104,276,38088,1,8,0:0:0:0:
216,272,38274,2,0,L|188:320,2,35,8|8|10,0:0|0:0|0:0,0:0:0:0:
328,252,38644,1,0,0:0:0:0:
328,252,38829,2,0,P|364:244|408:252,1,70,8|0,0:0|0:0,0:0:0:0:
444,348,39200,6,0,P|510:315|496:248,1,140,4|8,0:0|0:0,0:0:0:0:
460,156,39755,1,8,0:0:0:0:
460,156,39848,1,8,0:0:0:0:
460,156,39940,1,2,0:0:0:0:
368,156,40125,2,0,L|359:122,5,35,8|8|8|8|8|8,0:0|0:0|0:0|0:0|0:0|0:0,0:0:0:0:
336,160,40681,6,0,P|280:180|212:148,1,112,4|2,0:0|0:0,0:0:0:0:
140,136,41237,1,0,0:0:0:0:
160,228,41422,2,0,L|160:352,1,112,2|10,0:0|0:0,0:0:0:0:
336,160,42162,2,0,P|324:112|284:76,2,84,4|0|0,0:0|0:0|0:0,0:0:0:0:
248,156,42903,2,0,L|172:156,1,56,2|0,0:0|0:0,0:0:0:0:
104,160,43274,1,10,0:0:0:0:
220,276,43644,6,0,P|272:264|352:272,1,112,4|2,0:0|0:0,0:0:0:0:
416,276,44200,1,0,0:0:0:0:
376,184,44385,2,0,L|264:184,1,112,2|8,0:0|0:0,0:0:0:0:
84,176,45125,2,0,P|132:184|180:164,2,84,4|0|0,0:0|0:0|0:0,0:0:0:0:
124,88,45866,2,0,L|192:88,1,56,2|0,0:0|0:0,0:0:0:0:
268,88,46237,1,8,0:0:0:0:
268,88,46607,6,0,P|320:96|400:72,1,112,4|2,0:0|0:0,0:0:0:0:
452,52,47162,1,0,0:0:0:0:
452,52,47348,2,0,B|464:180,1,112,2|8,0:0|0:0,0:0:0:0:
396,232,47903,2,0,L|404:276,1,28,8|8,0:0|0:0,0:0:0:0:
428,296,48088,6,0,B|360:276|296:308,1,112,4|8,0:0|0:0,0:0:0:0:
232,332,48644,1,0,0:0:0:0:
156,376,48829,1,2,0:0:0:0:
152,288,49014,2,0,L|123:243,2,28,8|8|4,0:0|0:0|0:0,0:0:0:0:
172,64,49570,6,0,L|256:64,1,70,4|0,0:0|0:0,0:0:0:0:
352,52,49940,2,0,P|392:76|416:120,1,70,8|0,0:0|0:0,0:0:0:0:
432,204,50311,2,0,L|348:204,1,70,2|0,0:0|0:0,0:0:0:0:
252,220,50681,2,0,P|281:246|293:278,1,70,8|0,0:0|0:0,0:0:0:0:
348,372,51051,6,0,L|276:372,1,70,4|0,0:0|0:0,0:0:0:0:
172,336,51422,2,0,P|142:309|130:277,1,70,8|0,0:0|0:0,0:0:0:0:
124,172,51792,2,0,L|220:172,1,70,2|0,0:0|0:0,0:0:0:0:
304,160,52162,2,0,P|312:104|296:64,1,70,8|0,0:0|0:0,0:0:0:0:
212,32,52533,5,12,0:0:0:0:
212,32,52718,1,0,0:0:0:0:
126,102,52903,2,0,L|122:198,1,70,8|0,0:0|0:0,0:0:0:0:
144,284,53274,1,14,0:0:0:0:
144,284,53459,1,0,0:0:0:0:
248,320,53644,2,0,L|260:261,3,35,8|0|0|0,0:0|0:0|0:0|0:0,0:0:0:0:
284,328,54014,6,0,P|328:340|400:316,2,105,4|4|0,0:0|0:0|0:0,0:0:0:0:
332,228,54755,1,2,0:0:0:0:
136,212,55496,6,0,P|184:248|200:308,2,105,4|0|0,0:0|0:0|0:0,0:0:0:0:
52,140,56236,2,0,P|104:116|140:60,2,105,2|0|0,0:0|0:0|0:0,0:0:0:0:
136,212,56977,6,0,L|216:212,1,70,4|0,0:0|0:0,0:0:0:0:
304,156,57348,2,0,P|316:196|308:252,1,70,12|0,0:0|0:0,0:0:0:0:
216,172,57718,2,0,P|204:132|212:76,1,70,6|0,0:0|0:0,0:0:0:0:
312,72,58088,2,0,L|404:72,1,70,8|0,0:0|0:0,0:0:0:0:
440,168,58458,6,0,P|392:204|376:264,2,105,4|0|0,0:0|0:0|0:0,0:0:0:0:
448,56,59199,2,0,L|316:56,2,105,6|0|0,0:0|0:0|0:0,0:0:0:0:
420,164,59940,6,0,P|368:140|296:148,1,105,4|0,0:0|0:0,0:0:0:0:
264,144,60311,2,0,P|264:96|248:60,1,70,8|0,0:0|0:0,0:0:0:0:
156,24,60681,2,0,L|156:94,1,70,10|8,0:0|0:0,0:0:0:0:
156,94,61051,1,8,0:0:0:0:
80,216,61237,1,8,0:0:0:0:
80,216,61329,1,8,0:0:0:0:
80,216,61422,6,0,P|120:200|184:204,2,105,4|0|0,0:0|0:0|0:0,0:0:0:0:
140,308,62162,2,0,P|100:324|36:320,2,105,2|0|0,0:0|0:0|0:0,0:0:0:0:
252,324,62903,6,0,L|332:324,1,70,4|0,0:0|0:0,0:0:0:0:
392,240,63274,2,0,L|312:240,1,70,4|0,0:0|0:0,0:0:0:0:
228,184,63644,2,0,P|212:144|220:88,1,70,4|0,0:0|0:0,0:0:0:0:
292,40,64014,2,0,L|384:40,1,70,8|0,0:0|0:0,0:0:0:0:
464,84,64384,6,0,P|481:141|459:199,2,105,4|0|0,0:0|0:0|0:0,0:0:0:0:
368,140,65125,2,0,L|236:140,2,105,0|0|8,0:0|0:0|0:0,0:0:0:0:
324,244,65866,6,0,P|272:220|200:228,1,105,4|0,0:0|0:0,0:0:0:0:
176,248,66237,2,0,L|176:176,1,70,8|8,0:0|0:0,0:0:0:0:
176,68,66607,2,0,P|136:84|100:84,1,70,10|0,0:0|0:0,0:0:0:0:
109,85,66977,1,12,0:0:0:0:
32,296,67348,6,0,P|66:291|101:296,1,70,4|0,0:0|0:0,0:0:0:0:
196,360,67719,2,0,P|230:364|265:359,1,70,2|0,0:0|0:0,0:0:0:0:
356,292,68089,2,0,L|359:222,1,70,2|0,0:0|0:0,0:0:0:0:
368,112,68459,1,8,0:0:0:0:
368,112,68644,1,0,0:0:0:0:
284,184,68829,6,0,P|232:192|196:184,1,70,4|0,0:0|0:0,0:0:0:0:
104,164,69200,2,0,P|84:220|88:252,1,70,2|0,0:0|0:0,0:0:0:0:
164,308,69570,2,0,P|248:288|320:312,1,140,2|12,0:0|0:0,0:0:0:0:
432,120,70311,6,0,L|432:280,1,140,4|2,0:0|0:0,0:0:0:0:
388,364,70866,2,0,P|352:376|296:368,1,70,0|2,0:0|0:0,0:0:0:0:
232,308,71237,1,0,0:0:0:0:
232,308,71422,2,0,L|232:228,1,70,8|8,0:0|0:0,0:0:0:0:
124,268,71792,6,0,P|84:276|44:268,1,70,4|0,0:0|0:0,0:0:0:0:
84,164,72162,2,0,L|76:88,1,70,8|8,0:0|0:0,0:0:0:0:
184,64,72533,2,0,B|216:84|216:84|344:84,1,140,2|12,0:0|0:0,0:0:0:0:
212,284,73274,6,0,L|292:284,1,70,4|0,0:0|0:0,0:0:0:0:
392,276,73644,2,0,P|404:236|396:204,1,70,10|0,0:0|0:0,0:0:0:0:
312,140,74014,2,0,L|242:140,1,70,2|0,0:0|0:0,0:0:0:0:
132,148,74384,1,8,0:0:0:0:
132,148,74570,1,0,0:0:0:0:
144,36,74755,6,0,P|178:27|213:30,1,70,4|0,0:0|0:0,0:0:0:0:
320,60,75125,2,0,L|390:60,1,70,10|0,0:0|0:0,0:0:0:0:
480,128,75496,2,0,P|492:161|490:196,1,70,2|0,0:0|0:0,0:0:0:0:
428,288,75866,2,0,L|352:288,1,70,8|0,0:0|0:0,0:0:0:0:
244,288,76237,5,4,0:0:0:0:
300,72,76607,2,0,L|220:72,1,70,8|0,0:0|0:0,0:0:0:0:
136,16,76977,1,2,0:0:0:0:
40,76,77162,1,8,0:0:0:0:
40,76,77255,1,8,0:0:0:0:
40,76,77348,2,0,L|36:144,4,35,8|8|8|8|4,0:0|0:0|0:0|0:0|0:0,0:0:0:0:
212,124,79200,5,4,0:0:0:0:
120,136,79386,2,0,L|120:206,2,70,2|8|8,0:0|0:0|0:0,0:0:0:0:
136,40,79941,1,2,0:0:0:0:
232,16,80127,2,0,P|267:28|296:56,2,70,0|0|8,0:0|0:0|0:0,0:0:0:0:
212,124,80682,6,0,P|220:168|280:208,2,105,4|4|0,0:0|0:0|0:0,0:0:0:0:
312,116,81422,1,2,0:0:0:0:
480,264,81793,2,0,L|444:260,3,35,8|8|8|8,0:0|0:0|0:0|0:0,0:0:0:0:
416,212,82163,6,0,L|401:316,1,105,4|0,0:0|0:0,0:0:0:0:
352,348,82534,2,0,P|316:352|272:344,1,70,8|0,0:0|0:0,0:0:0:0:
220,256,82904,2,0,P|186:252|151:257,1,70,2|8,0:0|0:0,0:0:0:0:
100,280,83182,1,8,0:0:0:0:
100,280,83274,2,0,L|88:180,1,70,10|0,0:0|0:0,0:0:0:0:
52,104,83645,5,4,0:3:0:0:
140,84,83830,2,0,L|135:119,1,35,8|8,0:0|0:0,0:0:0:0:
188,100,84015,2,0,L|264:96,1,70,10|0,0:0|0:0,0:0:0:0:
364,128,84385,2,0,P|388:176|380:220,1,70,2|8,0:0|0:0,0:0:0:0:
368,232,84663,1,8,0:0:0:0:
368,232,84756,2,0,L|288:244,1,70,10|0,0:0|0:0,0:0:0:0:
193,250,85126,6,0,P|175:201|183:149,1,105,4|8,0:0|0:0,0:0:0:0:
189,98,85497,2,0,L|265:94,1,70,10|0,0:0|0:0,0:0:0:0:
360,44,85867,2,0,L|436:48,1,70,2|8,0:0|0:0,0:0:0:0:
476,80,86145,1,8,0:0:0:0:
476,80,86237,2,0,L|464:172,1,70,10|0,0:0|0:0,0:0:0:0:
408,244,86608,6,0,P|375:253|341:248,1,70,4|8,0:0|0:0,0:0:0:0:
289,266,86885,1,8,0:0:0:0:
289,266,86978,2,0,L|302:195,1,70,10|8,0:0|0:0,0:0:0:0:
188,196,87348,2,0,L|177:265,1,70,0|0,0:0|0:0,0:0:0:0:
148,372,87718,1,0,0:0:0:0:
