osu file format v14

[General]
AudioFilename: audio.mp3
AudioLeadIn: 0
PreviewTime: 55316
Countdown: 0
SampleSet: Soft
StackLeniency: 0.7
Mode: 0
LetterboxInBreaks: 0
WidescreenStoryboard: 0

[Editor]
Bookmarks: 19940
DistanceSpacing: 0.7
BeatDivisor: 4
GridSize: 4
TimelineZoom: 1

[Metadata]
Title:Yumeji Labyrinth (TV Size)
TitleUnicode:夢路らびりんす (TV Size)
Artist:LABYRINTHS
ArtistUnicode:らびりんず
Creator:Shanipika
Version:Urara
Source:うらら迷路帖
Tags:Urara Meirochou 千矢 chiya 紺 kon 小梅 koume ノノ nono 原田彩楓 Harada Sayaka 久保ユリカ Kubo Yurika 本渡楓 Hondo Kaede 佳村はるか Yoshimura Haruka opening anime japanese hailie
BeatmapID:1814906
BeatmapSetID:868275

[Difficulty]
HPDrainRate:5
CircleSize:3
OverallDifficulty:8
ApproachRate:9
SliderMultiplier:2.5
SliderTickRate:1

[Events]
//Background and Video events
Video,278,"konchanmokawaii.avi"
0,0,"BG.jpg",0,0
//Break Periods
//Storyboard Layer 0 (Background)
//Storyboard Layer 1 (Fail)
//Storyboard Layer 2 (Pass)
//Storyboard Layer 3 (Foreground)
//Storyboard Sound Samples

[TimingPoints]
2168,370.37037037037,4,2,1,45,1,0
8093,-79.9999999999999,4,2,1,55,0,0
14019,-79.9999999999999,4,2,1,60,0,0
19945,-79.9999999999999,4,2,1,50,0,0
22908,-80,4,2,1,70,0,1
29205,-125,4,2,1,50,0,0
40686,-153.846153846153,4,2,1,45,0,0
41797,-100,4,2,1,45,0,0
42167,-153.846153846153,4,2,1,45,0,0
43279,-100,4,2,1,45,0,0
43649,-153.846153846153,4,2,1,45,0,0
46242,-100,4,2,1,45,0,0
46612,-200,4,2,1,45,0,0
49575,-100,4,2,1,60,0,0
55501,-50,4,2,1,75,0,1
67353,-100,4,2,1,60,0,0
69945,-66.6666666666667,4,2,1,70,0,0
70316,-100,4,2,1,60,0,0
72908,-100,4,2,1,70,0,0
73279,-66.6666666666667,4,2,1,70,0,1
77723,-66.6666666666667,4,2,1,60,0,0
79205,-79.9999999999999,4,2,1,50,0,0
81797,-250,4,2,1,50,0,0
82167,-79.9999999999999,4,2,1,70,0,1
87353,324.324324324324,4,2,1,70,1,0
87677,-79.9999999999999,4,2,1,75,0,0

[Colours]
Combo1 : 255,130,130
Combo2 : 145,255,172
Combo3 : 255,255,100
Combo4 : 157,255,255

[HitObjects]
76,43,2168,6,0,B|91:91|88:127|66:182|66:182|119:124,1,187.5,2|0,0:0|0:0,0:0:0:0:
210,69,2723,1,0,0:0:0:0:
125,127,2908,2,0,B|110:175|113:211|134:266|134:266|82:208,1,187.5,2|0,0:0|0:0,0:0:0:0:
28,155,3464,1,0,0:0:0:0:
133,267,3649,2,0,B|158:333|158:384|158:384|175:344|204:319,1,187.5,2|0,0:0|0:0,0:0:0:0:
270,263,4019,2,0,P|241:316|349:303,1,187.5,2|0,0:0|0:0,0:0:0:0:
359,256,4390,2,0,P|357:162|338:60,1,187.5,2|0,0:0|0:0,0:0:0:0:
373,211,4760,2,0,P|408:296|499:386,1,187.5,2|0,0:0|0:0,0:0:0:0:
506,382,5130,6,0,B|477:324|471:246,1,125,2|0,0:0|0:0,0:0:0:0:
477,162,5408,1,0,0:0:0:0:
437,273,5686,1,0,0:0:0:0:
414,54,5871,2,0,P|378:143|373:212,1,125,2|0,0:0|0:0,0:0:0:0:
398,270,6149,1,0,0:0:0:0:
285,118,6427,1,0,0:0:0:0:
260,325,6612,1,2,0:0:0:0:
216,44,6890,1,0,0:0:0:0:
150,321,7167,1,2,0:0:0:0:
135,97,7353,1,2,0:0:0:0:
199,186,7538,1,0,0:0:0:0:
285,118,7723,2,0,P|322:92|312:193,1,187.5,2|0,0:0|0:0,0:0:0:0:
274,292,8093,6,0,P|290:223|380:187,1,156.25,2|0,0:0|0:0,0:0:0:0:
470,225,8371,1,0,3:0:0:0:
486,261,8464,1,0,1:0:0:0:
386,382,8649,1,0,0:0:0:0:
361,185,8834,2,0,P|313:112|201:116,1,156.25,2|0,0:1|0:0,0:0:0:0:
147,172,9112,1,0,0:0:0:0:
130,206,9205,1,8,0:0:0:0:
268,277,9390,1,0,0:0:0:0:
249,97,9575,2,0,P|174:43|87:79,1,156.25,2|0,0:0|0:0,0:0:0:0:
36,332,9945,2,0,P|23:234|55:96,1,234.375,4|0,0:3|0:0,0:0:0:0:
249,97,10316,2,0,P|174:43|170:148,1,234.375,2|0,0:0|0:0,0:0:0:0:
278,75,10686,2,0,P|358:47|452:81,1,156.25,0|0,1:0|0:0,0:0:0:0:
440,347,11056,6,0,P|391:266|421:189,1,156.25,4|0,0:3|0:0,0:0:0:0:
450,104,11334,1,0,0:0:0:0:
425,62,11427,1,8,0:0:0:0:
365,202,11612,1,0,0:0:0:0:
305,342,11797,2,0,P|256:261|286:184,1,156.25,0|0,1:0|0:0,0:0:0:0:
315,99,12075,1,0,0:0:0:0:
290,57,12168,1,0,1:0:0:0:
230,197,12353,1,0,0:0:0:0:
167,346,12538,1,2,1:2:0:0:
185,187,12723,1,0,0:0:0:0:
126,45,12908,1,2,1:2:0:0:
148,187,13093,1,0,0:0:0:0:
71,32,13279,1,2,1:2:0:0:
46,202,13464,1,0,1:0:0:0:
17,232,13556,1,0,1:0:0:0:
5,194,13649,1,8,0:0:0:0:
87,322,13834,1,0,1:0:0:0:
123,307,13927,1,0,1:0:0:0:
88,283,14019,6,0,P|85:351|154:272,1,234.375,4|0,3:1|0:0,0:0:0:0:
83,186,14390,2,0,P|150:172|285:277,1,234.375,8|0,0:0|0:0,0:0:0:0:
347,384,14760,2,0,P|396:293|406:220,1,156.25,0|2,1:0|0:0,0:0:0:0:
288,114,15037,1,2,0:1:0:0:
332,89,15130,1,8,0:0:0:0:
279,260,15316,1,2,0:0:0:0:
173,123,15501,2,0,P|176:51|273:106,1,156.25,0|2,1:0|0:0,0:0:0:0:
348,187,15779,1,2,0:1:0:0:
398,189,15871,1,8,0:0:0:0:
186,220,16056,1,0,0:0:0:0:
509,35,16242,2,0,P|447:87|445:175,1,156.25,0|2,1:0|0:0,0:0:0:0:
489,348,16519,1,8,0:0:0:0:
376,374,16612,1,8,0:0:0:0:
490,317,16797,1,2,0:1:0:0:
356,355,16982,6,0,P|267:354|172:327,1,156.25,0|2,1:0|0:0,0:0:0:0:
339,65,17353,2,0,P|282:63|304:199,1,234.375,0|0,1:2|0:0,0:0:0:0:
503,76,17723,1,0,1:0:0:0:
193,64,17908,1,0,1:0:0:0:
240,104,18001,1,0,1:0:0:0:
256,163,18093,1,4,0:3:0:0:
244,224,18186,1,0,1:0:0:0:
207,275,18279,1,0,1:0:0:0:
149,297,18371,1,2,0:1:0:0:
188,379,18464,1,0,1:0:0:0:
86,141,19945,5,8,0:3:0:0:
56,46,20130,1,2,0:0:0:0:
102,182,20316,1,4,0:3:0:0:
102,182,20501,1,0,0:0:0:0:
206,22,20686,1,0,1:0:0:0:
234,143,20871,1,0,0:0:0:0:
234,143,21056,1,4,0:3:0:0:
327,36,21242,1,2,0:0:0:0:
325,293,21427,2,0,P|337:202|382:88,1,156.25,8|0,0:1|0:0,0:0:0:0:
412,13,21705,2,0,L|412:207,1,156.25,8|0,0:0|0:0,0:0:0:0:
417,272,21982,2,0,L|364:194,1,78.125,8|0,0:0|0:0,0:0:0:0:
284,83,22167,1,8,0:0:0:0:
89,179,22538,5,8,0:3:0:0:
128,173,22630,1,2,0:0:0:0:
159,134,22723,1,2,0:0:0:0:
146,191,22816,1,2,0:1:0:0:
168,275,22908,6,0,P|221:318|313:328,1,156.25,4|0,1:0|0:0,0:0:0:0:
372,183,23186,1,2,0:1:0:0:
439,321,23279,1,8,0:0:0:0:
260,192,23464,1,2,0:0:0:0:
512,271,23649,2,0,P|489:249|429:234,1,78.125,0|0,1:0|0:0,0:0:0:0:
434,131,23834,2,0,P|469:114|508:109,1,78.125,0|0,1:0|1:0,0:0:0:0:
341,2,24019,2,0,P|325:58|334:111,1,78.125,8|0,0:0|0:0,0:0:0:0:
260,192,24205,1,2,0:0:0:0:
211,22,24390,1,4,0:3:0:0:
111,176,24575,1,0,1:0:0:0:
48,112,24667,1,0,1:0:0:0:
48,112,24760,1,8,0:0:0:0:
74,299,24945,1,2,0:0:0:0:
150,82,25130,1,0,1:0:0:0:
171,356,25316,1,2,0:1:0:0:
266,328,25408,1,2,0:1:0:0:
195,270,25501,1,4,0:3:0:0:
352,303,25686,1,2,1:2:0:0:
15,363,25871,6,0,P|17:273|57:141,1,156.25,0|0,1:0|0:0,0:0:0:0:
170,163,26149,1,2,0:1:0:0:
42,83,26242,1,8,0:0:0:0:
246,21,26427,1,2,0:0:0:0:
186,315,26612,2,0,P|192:252|232:209,1,78.125,0|0,1:0|0:0,0:0:0:0:
319,222,26797,2,0,P|334:257|363:283,1,78.125,0|0,1:0|1:0,0:0:0:0:
472,146,26982,2,0,P|433:147|397:133,1,78.125,8|0,0:0|0:0,0:0:0:0:
246,21,27167,1,2,0:0:0:0:
478,41,27353,1,0,1:0:0:0:
415,222,27538,1,0,1:0:0:0:
494,263,27630,1,0,1:0:0:0:
494,263,27723,1,8,0:0:0:0:
364,344,27908,1,0,1:0:0:0:
314,354,28001,1,0,1:0:0:0:
267,344,28093,1,8,0:0:0:0:
82,374,28279,1,2,0:0:0:0:
312,259,28464,1,0,1:0:0:0:
82,280,28649,1,2,1:2:0:0:
43,292,28742,1,2,0:1:0:0:
13,323,28834,22,0,P|33:249|32:146,1,156.25,2|0,1:2|0:0,0:0:0:0:
18,88,29205,2,0,P|63:87|140:129,1,100,8|0,0:0|0:0,0:0:0:0:
165,197,29482,1,0,1:0:0:0:
165,197,29575,2,0,P|214:181|241:161,1,50,0|0,1:0|0:0,0:0:0:0:
281,58,29760,2,0,P|271:115|282:152,1,50,0|0,1:0|0:0,0:0:0:0:
318,187,29945,1,8,0:0:0:0:
397,252,30130,1,0,1:0:0:0:
238,354,30316,22,0,P|295:322|353:323,1,100,2|0,1:2|0:0,0:0:0:0:
366,331,30593,1,2,0:1:0:0:
405,344,30686,2,0,P|450:327|480:246,1,100,8|0,0:0|0:0,0:0:0:0:
458,185,30964,1,0,1:0:0:0:
458,185,31056,2,0,P|455:142|462:112,1,50,0|0,1:0|0:0,0:0:0:0:
417,23,31242,2,0,P|396:39|379:65,1,50,0|0,1:0|0:0,0:0:0:0:
348,157,31427,1,8,0:0:0:0:
397,252,31612,1,0,1:0:0:0:
249,243,31797,22,0,P|206:269|186:293,1,50,0|0,1:0|0:0,0:0:0:0:
165,355,31982,1,2,0:0:0:0:
114,276,32075,2,0,L|133:347,1,50,0|8,0:0|0:0,0:0:0:0:
50,191,32353,2,0,L|28:257,1,50,2|0,3:2|1:0,0:0:0:0:
15,116,32538,2,0,P|51:161|76:175,1,50,0|0,1:0|0:0,0:0:0:0:
139,160,32723,1,2,1:2:0:0:
161,76,32816,2,0,L|166:146,1,50,0|8,0:0|0:0,0:0:0:0:
67,22,33093,1,0,1:0:0:0:
256,71,33279,2,0,P|308:78|358:60,1,100,0|2,1:0|0:0,0:0:0:0:
381,41,33556,1,2,0:1:0:0:
432,40,33649,1,8,0:0:0:0:
438,196,33834,1,2,0:0:0:0:
404,161,33927,1,0,1:0:0:0:
350,167,34019,1,0,1:0:0:0:
373,312,34205,1,2,1:2:0:0:
355,270,34297,1,0,1:0:0:0:
324,250,34390,1,4,0:3:0:0:
281,252,34482,1,0,3:2:0:0:
202,286,34575,1,4,1:2:0:0:
157,283,34667,1,2,3:2:0:0:
121,259,34760,5,0,1:0:0:0:
71,366,34945,1,0,3:0:0:0:
27,234,35130,2,0,P|46:185|100:113,1,100,8|2,0:0|0:0,0:0:0:0:
175,193,35408,1,2,0:1:0:0:
175,193,35501,1,0,1:0:0:0:
141,83,35686,1,0,1:0:0:0:
40,60,35871,1,8,0:0:0:0:
40,60,36056,1,0,1:0:0:0:
167,39,36242,5,0,1:0:0:0:
241,141,36427,2,0,P|275:140|318:119,1,50,2|0,0:0|0:0,0:0:0:0:
362,79,36612,1,8,0:0:0:0:
468,28,36797,1,2,0:0:0:0:
472,60,36890,1,0,1:0:0:0:
479,92,36982,1,0,1:0:0:0:
417,179,37167,1,0,1:0:0:0:
487,263,37353,1,8,0:0:0:0:
434,343,37538,1,0,1:0:0:0:
318,292,37723,6,0,P|290:304|266:332,1,50,0|0,1:0|0:0,0:0:0:0:
217,380,37908,1,2,0:0:0:0:
151,314,38001,2,0,L|178:371,1,50,0|8,0:0|0:0,0:0:0:0:
221,198,38279,2,0,L|199:252,1,50,2|0,0:0|1:0,0:0:0:0:
171,121,38464,2,0,P|133:133|109:156,1,50,0|0,1:0|0:0,0:0:0:0:
58,202,38649,1,2,1:2:0:0:
2,126,38742,2,0,L|31:186,1,50,0|8,0:0|0:0,0:0:0:0:
86,45,39019,1,0,1:0:0:0:
9,281,39205,1,0,1:0:0:0:
76,363,39390,1,2,0:0:0:0:
92,353,39482,1,2,0:0:0:0:
105,336,39575,1,8,0:0:0:0:
117,192,39760,1,2,0:0:0:0:
165,162,39853,1,2,0:1:0:0:
215,166,39945,1,0,1:0:0:0:
294,324,40130,1,8,0:1:0:0:
346,362,40223,1,8,0:1:0:0:
406,360,40316,1,4,1:3:0:0:
447,321,40408,1,8,0:0:0:0:
448,260,40501,1,8,0:0:0:0:
424,199,40593,1,8,0:0:0:0:
469,152,40686,22,0,P|449:51|375:26,1,162.499992561341,4|2,1:0|0:1,0:0:0:0:
297,63,41242,1,0,3:0:0:0:
186,15,41427,2,0,P|129:52|125:133,1,121.874994421006,0|0,1:0|0:0,0:0:0:0:
72,273,41797,22,0,P|30:218|118:236,1,187.5,8|0,0:0|0:0,0:0:0:0:
141,341,42167,38,0,P|146:294|120:211,1,121.874994421006,0|2,1:0|0:0,0:0:0:0:
140,376,42723,1,2,0:1:0:0:
208,244,42908,1,0,1:0:0:0:
337,157,43093,1,8,0:0:0:0:
321,340,43279,22,0,P|379:336|327:255,1,187.5,12|0,0:0|0:0,0:0:0:0:
299,250,43649,38,0,P|363:244|438:316,1,162.499992561341,0|4,1:0|0:3,0:0:0:0:
512,134,44390,2,0,P|451:155|413:252,1,162.499992561341,0|8,1:0|0:0,0:0:0:0:
323,68,45130,2,0,P|369:83|429:148,1,121.874994421006,0|2,1:0|0:0,0:0:0:0:
283,66,45686,1,2,0:1:0:0:
190,120,45871,1,0,1:0:0:0:
62,28,46056,5,12,0:0:0:0:
86,256,46242,2,0,P|118:299|118:211,1,187.5,12|0,0:0|0:0,0:0:0:0:
42,188,46612,6,0,L|247:240,1,187.5,0|0,1:0|0:0,0:0:0:0:
296,360,47353,2,0,P|261:312|260:298,2,62.5,0|4|0,1:0|0:3|0:0,0:0:0:0:
378,323,47908,1,0,1:0:0:0:
416,353,48001,1,0,1:0:0:0:
461,361,48093,6,0,L|484:247,1,93.75,8|2,0:0|0:1,0:0:0:0:
365,232,48649,1,8,0:0:0:0:
503,180,48834,1,0,1:0:0:0:
386,103,49019,1,0,1:0:0:0:
386,103,49112,1,0,1:0:0:0:
386,103,49205,1,8,0:0:0:0:
484,34,49390,1,0,1:0:0:0:
301,67,49575,6,0,P|228:67|164:56,1,125,0|0,1:0|0:0,0:0:0:0:
52,22,49853,1,2,0:1:0:0:
20,49,49945,1,8,0:0:0:0:
199,73,50130,1,2,0:1:0:0:
104,169,50316,22,0,P|96:237|122:313,1,125,0|0,1:0|0:0,0:0:0:0:
218,368,50593,1,2,0:1:0:0:
244,330,50686,1,8,0:0:0:0:
68,278,50871,1,2,0:1:0:0:
270,285,51056,6,0,P|343:302|422:344,1,125,0|0,1:0|0:0,0:0:0:0:
484,369,51334,1,2,0:1:0:0:
512,325,51427,1,8,0:0:0:0:
333,349,51612,1,2,0:1:0:0:
406,196,51797,22,0,P|406:122|366:37,1,125,0|0,1:0|0:0,0:0:0:0:
223,16,52075,1,2,0:1:0:0:
256,62,52167,1,8,0:0:0:0:
378,173,52353,1,2,0:1:0:0:
151,129,52538,5,8,0:0:0:0:
379,80,52723,1,0,1:0:0:0:
174,221,52908,1,8,0:0:0:0:
307,28,53093,1,0,1:0:0:0:
266,261,53279,1,8,0:0:0:0:
211,25,53464,1,0,1:0:0:0:
356,221,53649,1,8,0:0:0:0:
146,96,53834,1,0,1:0:0:0:
150,344,54019,6,0,P|145:245|198:156,1,187.5,4|2,1:3|0:0,0:0:0:0:
164,380,54575,1,2,0:0:0:0:
44,189,54760,1,4,0:0:0:0:
47,360,55501,38,0,P|94:244|105:82,1,250,4|0,1:0|0:0,0:0:0:0:
19,42,55779,1,2,0:0:0:0:
93,91,55871,1,8,0:0:0:0:
251,36,56056,1,2,0:0:0:0:
437,36,56242,2,0,P|401:195|341:298,1,250,0|0,1:0|0:0,0:0:0:0:
221,268,56519,1,2,0:0:0:0:
274,177,56612,1,8,0:0:0:0:
458,368,56797,1,2,0:0:0:0:
496,140,56982,2,0,P|391:224|306:383,1,250,0|0,1:0|3:0,0:0:0:0:
112,140,57353,6,0,P|221:224|299:374,1,250,8|0,0:0|3:0,0:0:0:0:
461,0,57723,6,0,P|398:123|390:292,1,250,0|0,1:0|3:0,0:0:0:0:
203,85,58093,6,0,P|266:208|274:377,1,250,8|0,0:0|3:0,0:0:0:0:
33,362,58464,6,0,P|12:235|99:166,1,250,0|0,1:0|0:0,0:0:0:0:
212,283,58742,2,0,P|264:236|264:129,1,125,2|8,0:0|0:0,0:0:0:0:
19,181,59019,1,0,3:0:0:0:
245,299,59205,2,0,P|349:304|428:189,1,250,0|0,1:0|0:0,0:0:0:0:
273,80,59482,2,0,P|345:22|441:19,1,125,2|8,0:0|0:0,0:0:0:0:
461,287,59760,1,0,3:0:0:0:
376,8,59945,2,0,L|329:266,1,250,0|0,1:0|0:0,0:0:0:0:
267,357,60223,2,0,P|266:273|294:207,1,125,2|8,0:0|0:0,0:0:0:0:
345,111,60501,1,2,0:0:0:0:
216,277,60686,1,0,1:0:0:0:
174,263,60779,1,0,1:0:0:0:
101,335,60871,37,4,0:3:0:0:
66,132,61056,2,0,P|111:73|222:213,1,250,8|8,1:3|0:0,0:0:0:0:
113,222,61334,1,8,0:0:0:0:
16,133,61427,38,0,P|136:71|292:103,1,250,4|0,1:0|0:0,0:0:0:0:
371,243,61705,1,2,0:0:0:0:
467,199,61797,1,8,0:0:0:0:
303,369,61982,1,2,0:0:0:0:
421,109,62167,2,0,P|288:134|172:241,1,250,0|0,1:0|0:0,0:0:0:0:
64,353,62445,1,2,0:0:0:0:
20,260,62538,1,8,0:0:0:0:
281,333,62723,1,2,0:0:0:0:
24,152,62908,2,0,P|172:177|256:264,1,250,0|0,1:0|3:0,0:0:0:0:
459,135,63279,6,0,P|309:138|202:217,1,250,8|0,0:0|3:0,0:0:0:0:
95,13,63649,6,0,P|182:152|180:263,1,250,0|0,1:0|3:0,0:0:0:0:
370,79,64019,6,0,P|283:218|285:329,1,250,8|0,0:0|3:0,0:0:0:0:
501,348,64390,6,0,P|443:231|316:207,1,250,0|0,1:0|0:0,0:0:0:0:
244,334,64667,2,0,P|166:301|146:218,1,125,2|8,0:0|0:0,0:0:0:0:
445,184,64945,1,0,3:0:0:0:
141,224,65130,2,0,P|155:103|273:27,1,250,0|0,1:0|0:0,0:0:0:0:
359,201,65408,2,0,P|434:137|447:50,1,125,2|8,0:0|0:0,0:0:0:0:
155,86,65686,1,2,0:0:0:0:
440,98,65871,1,0,1:0:0:0:
151,203,66056,1,0,3:0:0:0:
335,202,66242,1,0,1:0:0:0:
210,305,66427,1,0,3:0:0:0:
322,309,66612,1,0,1:0:0:0:
482,102,66797,21,10,0:0:0:0:
421,323,66982,2,0,P|422:217|196:135,1,375,8|0,0:0|0:0,0:0:0:0:
93,330,67353,6,0,L|169:119,1,187.5,4|0,1:0|0:0,0:0:0:0:
168,35,67723,2,0,P|146:121|171:176,1,125,2|2,0:0|0:1,0:0:0:0:
256,255,68093,2,0,P|271:184|256:120,1,125,2|2,0:0|0:1,0:0:0:0:
241,95,68371,2,0,P|275:81|333:86,1,62.5,0|8,0:0|0:0,0:0:0:0:
436,109,68649,1,2,0:0:0:0:
238,12,68834,2,0,L|264:188,1,125,0|0,1:0|0:0,0:0:0:0:
217,273,69112,2,0,P|222:221|245:197,1,62.5,2|8,0:0|0:0,0:0:0:0:
306,143,69390,1,2,1:2:0:0:
303,273,69575,1,2,0:0:0:0:
120,170,69760,5,4,1:3:0:0:
10,356,69945,2,0,P|120:352|52:242,1,281.250010728836,8|0,0:0|0:0,0:0:0:0:
28,240,70316,6,0,P|32:127|168:62,1,250,0|8,1:0|0:0,0:0:0:0:
282,104,70871,1,0,1:0:0:0:
149,89,71056,2,0,P|90:132|117:186,2,125,2|0|8,0:0|1:0|0:0,0:0:0:0:
262,151,71612,1,2,0:1:0:0:
170,277,71797,2,0,P|211:202|322:177,1,187.5,0|0,1:0|0:0,0:0:0:0:
389,197,72167,1,8,0:0:0:0:
284,288,72353,1,0,1:0:0:0:
376,162,72538,1,2,0:0:0:0:
490,351,72723,22,0,L|467:267,1,62.5,0|0,1:0|0:0,0:0:0:0:
407,384,72908,2,0,L|451:253,1,125,8|0,0:0|0:0,0:0:0:0:
492,66,73279,6,0,P|374:134|337:333,1,281.250010728836,4|0,1:0|0:0,0:0:0:0:
326,373,73649,2,0,P|314:235|163:110,1,281.250010728836,8|0,0:0|0:0,0:0:0:0:
23,94,74019,2,0,P|24:226|119:324,1,187.500007152558,0|0,1:0|0:0,0:0:0:0:
88,366,74297,2,0,P|57:263|88:205,1,93.7500035762788,2|8,0:0|0:0,0:0:0:0:
127,74,74575,1,2,0:0:0:0:
176,344,74760,2,0,P|227:239|214:96,1,187.500007152558,0|0,1:0|0:0,0:0:0:0:
151,87,75038,2,0,P|180:50|222:30,1,93.7500035762788,2|8,0:0|0:0,0:0:0:0:
348,189,75316,1,2,0:0:0:0:
495,32,75501,2,0,P|406:91|369:274,1,281.250010728836,0|0,1:0|0:0,0:0:0:0:
414,373,75871,6,0,P|403:241|438:84,1,281.250010728836,8|0,0:0|0:0,0:0:0:0:
497,31,76242,2,0,P|394:82|306:228,1,281.250010728836,0|0,1:0|0:0,0:0:0:0:
226,372,76612,6,0,P|225:260|325:95,1,281.250010728836,8|0,0:0|0:0,0:0:0:0:
413,138,76982,2,0,P|398:73|348:144,1,187.500007152558,4|0,0:3|1:0,0:0:0:0:
457,225,77260,1,8,0:0:0:0:
506,157,77353,1,8,0:0:0:0:
502,116,77446,1,2,0:0:0:0:
512,134,77538,1,2,0:0:0:0:
510,176,77630,1,0,1:0:0:0:
505,225,77723,1,8,0:0:0:0:
353,339,79205,5,8,0:3:0:0:
385,210,79390,1,2,0:0:0:0:
314,325,79575,1,4,0:3:0:0:
314,325,79760,1,0,0:0:0:0:
248,132,79945,1,0,1:0:0:0:
260,296,80130,1,0,0:0:0:0:
260,296,80316,1,4,0:3:0:0:
95,197,80501,1,2,0:0:0:0:
182,320,80686,2,0,P|170:229|125:115,1,156.25,8|0,0:1|0:0,0:0:0:0:
95,40,80964,2,0,L|95:234,1,156.25,8|0,0:0|0:0,0:0:0:0:
90,299,81241,2,0,L|143:221,1,78.125,8|0,0:0|0:0,0:0:0:0:
223,110,81426,1,8,0:0:0:0:
449,59,81797,2,0,L|365:78,1,75,8|0,0:3|0:0,0:0:0:0:
311,35,82167,6,0,P|377:112|409:202,1,156.25,4|0,1:0|0:0,0:0:0:0:
251,267,82445,1,2,0:1:0:0:
440,298,82538,1,8,0:0:0:0:
219,359,82723,1,2,0:0:0:0:
51,251,82908,2,0,P|81:214|135:183,1,78.125,0|0,1:0|0:0,0:0:0:0:
146,88,83093,2,0,P|107:83|69:88,1,78.125,0|0,1:0|1:0,0:0:0:0:
244,0,83279,2,0,P|275:23|299:54,1,78.125,8|0,0:0|0:0,0:0:0:0:
361,214,83464,1,2,0:0:0:0:
410,19,83649,1,4,0:3:0:0:
259,243,83834,1,0,1:0:0:0:
134,14,84019,1,8,0:0:0:0:
292,157,84205,1,2,0:0:0:0:
36,79,84390,1,0,1:0:0:0:
26,344,84575,5,2,0:1:0:0:
233,55,84760,1,4,0:3:0:0:
163,146,84945,1,2,1:2:0:0:
252,366,85130,6,0,P|191:303|176:211,1,156.25,0|0,1:0|0:0,0:0:0:0:
344,183,85408,1,2,0:1:0:0:
163,146,85501,1,8,0:0:0:0:
312,291,85686,1,2,0:0:0:0:
66,314,85871,2,0,P|128:289|172:292,1,78.125,0|0,1:0|0:0,0:0:0:0:
232,179,86056,2,0,P|199:156|162:145,1,78.125,0|0,1:0|1:0,0:0:0:0:
333,40,86242,2,0,P|351:74|358:112,1,78.125,8|0,0:0|0:0,0:0:0:0:
312,291,86427,1,2,0:0:0:0:
436,122,86612,1,0,1:0:0:0:
426,300,86797,1,0,1:0:0:0:
364,303,86890,1,0,1:0:0:0:
275,356,86982,1,8,0:0:0:0:
216,330,87075,1,2,0:1:0:0:
134,369,87167,2,0,P|90:357|43:321,1,78.125,0|0,1:0|1:0,0:0:0:0:
281,263,87353,1,8,0:0:0:0:
20,245,87515,37,2,0:0:0:0:
507,247,87677,1,4,1:2:0:0:
