osu file format v14

[General]
AudioFilename: audio.mp3
AudioLeadIn: 0
PreviewTime: 54806
Countdown: 0
SampleSet: Soft
StackLeniency: 0.7
Mode: 0
LetterboxInBreaks: 0
WidescreenStoryboard: 1

[Editor]
DistanceSpacing: 1
BeatDivisor: 4
GridSize: 8
TimelineZoom: 1.7

[Metadata]
Title:Yumeji Labyrinth (TV Size)
TitleUnicode:夢路らびりんす (TV Size)
Artist:LABYRINTHS
ArtistUnicode:らびりんず
Creator:Setu
Version:Strenge's Normal
Source:うらら迷路帖
Tags:shiratamamywife strengemistake calvaria present angelsnow narcissu kencho driftthe japanese pop jpop j-pop anime op opening urara meirochou 原田彩楓 本渡 楓 久保ユリカ 佳村はるか Sayaka Harada Kaede Hondo Yurika Kubo Haruka Yoshimura 千矢 chiya 紺 kon 小梅 koume ノノ nono 高瀬愛虹 山田高弘 大川茂伸 Takase Aiko Yamada Takahiro Okawa Shigenobu
BeatmapID:3329095
BeatmapSetID:1611208

[Difficulty]
HPDrainRate:4
CircleSize:2.5
OverallDifficulty:3
ApproachRate:5
SliderMultiplier:1.1
SliderTickRate:1

[Events]
//Background and Video events
0,0,"82611339_p0.jpg",0,0
//Break Periods
//Storyboard Layer 0 (Background)
//Storyboard Layer 1 (Fail)
//Storyboard Layer 2 (Pass)
//Storyboard Layer 3 (Foreground)
//Storyboard Layer 4 (Overlay)
//Storyboard Sound Samples

[TimingPoints]
1566,370.37037037037,4,2,1,45,1,0
7491,-100,4,2,1,65,0,0
22306,-100,4,2,1,75,0,0
28232,-100,4,2,1,65,0,0
51936,-100,4,2,1,70,0,0
54899,-100,4,2,1,75,0,0
78603,-100,4,2,1,65,0,0
81565,-100,4,2,1,75,0,0

[Colours]
Combo1 : 48,209,144
Combo2 : 93,170,255
Combo3 : 242,164,84

[HitObjects]
84,77,1566,6,0,P|46:145|65:240,1,165,2|0,2:2|2:2,0:0:0:0:
99,265,2306,2,0,L|271:256,1,165,2|0,2:2|2:2,0:0:0:0:
312,283,3047,1,2,2:2:0:0:
406,226,3417,2,0,P|457:209|514:228,2,110,2|2|2,2:2|2:2|2:2,0:0:0:0:
340,138,4528,6,0,P|272:100|177:119,1,165,2|0,2:2|2:2,0:0:0:0:
145,146,5269,2,0,L|128:314,1,165,2|0,2:2|2:2,0:0:0:0:
136,365,6010,1,2,2:2:0:0:
336,273,6751,2,0,P|337:245|326:220,2,55,2|2|0,2:2|2:2|2:2,0:0:0:0:
411,352,7491,6,0,P|461:360|509:325,1,110,4|0,2:2|1:1,0:0:0:0:
509,276,8047,1,2,2:2:0:0:
509,276,8232,2,0,P|504:221|493:167,1,110,2|0,3:2|1:1,0:0:0:0:
466,126,8788,1,2,2:2:0:0:
466,126,8973,1,0,3:3:0:0:
368,75,9343,1,0,1:1:0:0:
268,121,9714,1,0,3:3:0:0:
170,70,10084,1,0,1:0:0:0:
78,131,10454,6,0,P|67:184|62:239,1,110,6|0,3:2|1:1,0:0:0:0:
78,297,11010,1,2,3:2:0:0:
78,297,11195,2,0,P|127:319|181:311,1,110,0|0,3:3|1:1,0:0:0:0:
210,266,11751,1,2,2:1:0:0:
210,266,11936,2,0,P|215:211|226:157,2,110,4|0|0,3:2|1:1|1:1,0:0:0:0:
303,324,13047,1,0,1:1:0:0:
395,384,13417,5,6,3:2:0:0:
488,325,13788,1,10,2:2:0:0:
506,216,14158,2,0,P|459:188|405:194,1,110,2|8,3:2|2:2,0:0:0:0:
364,166,14714,1,2,2:2:0:0:
364,166,14899,2,0,L|346:52,2,110,2|8|0,3:2|2:2|3:3,0:0:0:0:
260,202,16010,1,8,2:2:0:0:
152,226,16380,5,4,3:2:0:0:
60,164,16751,2,0,P|46:115|69:57,1,110,8|2,2:2|3:2,0:0:0:0:
161,6,17491,2,0,L|217:14,1,55,2|2,2:2|2:2,0:0:0:0:
270,22,17862,1,6,2:2:0:0:
269,22,19343,6,0,P|245:70|241:125,1,110,0|0,3:3|3:3,0:0:0:0:
308,212,20084,2,0,P|304:266|279:315,1,110,0|0,3:3|3:3,0:0:0:0:
172,342,20825,2,0,P|128:337|77:360,2,82.5,0|0|2,1:1|1:1|1:1,0:0:0:0:
210,381,21565,1,0,1:1:0:0:
403,276,22306,6,0,P|431:230|425:176,1,110,4|8,2:2|2:2,0:0:0:0:
341,105,23047,2,0,L|349:50,2,55,2|2|2,2:2|3:3|2:2,0:0:0:0:
298,137,23603,1,8,2:2:0:0:
298,137,23788,2,0,P|251:110|197:115,1,110,2|2,3:3|3:2,0:0:0:0:
131,203,24528,2,0,L|146:318,1,110,8|0,3:2|1:1,0:0:0:0:
193,351,25084,1,0,3:3:0:0:
193,351,25269,6,0,P|248:364|308:328,1,110,4|0,2:2|1:1,0:0:0:0:
395,297,26010,2,0,L|462:317,2,55,2|10|10,2:2|3:2|2:2,0:0:0:0:
366,256,26565,1,2,2:2:0:0:
366,256,26751,2,0,L|382:130,1,110,2|0,3:2|1:1,0:0:0:0:
336,45,27491,2,0,P|313:29|286:25,1,55,0|8,3:3|2:2,0:0:0:0:
231,20,27862,2,0,P|204:15|177:21,1,55,2|2,2:2|3:2,0:0:0:0:
127,44,28232,5,6,3:2:0:0:
98,150,28603,2,0,P|44:143|-5:180,2,110,8|0|8,2:2|3:3|2:2,0:0:0:0:
193,205,29714,1,2,3:2:0:0:
286,262,30084,2,0,P|339:268|389:232,2,110,8|0|8,2:2|3:3|2:2,0:0:0:0:
192,319,31195,5,0,3:3:0:0:
97,262,31565,1,8,2:2:0:0:
99,151,31936,2,0,P|102:96|137:45,1,110,0|8,3:3|2:2,0:0:0:0:
233,89,32677,1,0,3:3:0:0:
324,28,33047,1,8,2:2:0:0:
425,69,33417,2,0,P|427:96|420:122,1,55,8|8,2:2|2:2,0:0:0:0:
427,177,33788,2,0,P|429:204|422:230,1,55,8|14,2:2|2:2,0:0:0:0:
373,256,34158,5,0,3:3:0:0:
264,275,34528,2,0,B|258:357|258:357|229:373,2,110,8|0|8,2:2|3:3|2:2,0:0:0:0:
189,193,35640,1,0,3:3:0:0:
116,110,36010,2,0,B|122:28|122:28|151:12,2,110,8|0|8,2:2|3:3|2:2,0:0:0:0:
17,159,37121,5,0,3:3:0:0:
9,268,37491,1,10,3:2:0:0:
102,323,37862,2,0,P|156:332|203:306,1,110,2|8,2:2|2:2,0:0:0:0:
300,254,38603,1,2,3:2:0:0:
388,318,38973,1,8,2:2:0:0:
492,283,39343,2,0,L|485:349,2,55,2|8|8,3:2|3:2|3:2,0:0:0:0:
468,239,39899,1,2,2:2:0:0:
468,239,40084,6,0,B|482:87|482:87|422:50,1,220,4|2,2:2|3:2,0:0:0:0:
324,4,41195,1,0,1:1:0:0:
224,50,41565,2,0,P|166:53|116:94,2,110,2|0|0,3:2|0:0|3:3,0:0:0:0:
316,110,42677,1,4,1:2:0:0:
409,168,43047,6,0,P|422:222|396:277,1,110,0|0,3:3|3:3,0:0:0:0:
298,310,43788,2,0,L|188:302,1,110,0|0,3:3|1:1,0:0:0:0:
98,238,44528,2,0,P|77:187|86:134,1,110,0|2,3:3|3:2,0:0:0:0:
138,37,45269,2,0,L|202:29,1,55,8|4,3:2|2:2,0:0:0:0:
247,23,45640,1,4,1:2:0:0:
353,49,46010,6,0,P|381:151|352:273,1,220,4|8,2:2|3:3,0:0:0:0:
143,310,47491,2,0,P|102:312|66:332,2,82.5,0|0|0,1:1|1:1|1:1,0:0:0:0:
178,352,48232,1,0,1:1:0:0:
286,331,48603,1,0,1:1:0:0:
391,300,48973,6,0,P|420:254|417:200,1,110,6|8,3:2|3:2,0:0:0:0:
340,120,49714,1,2,3:2:0:0:
233,148,50084,1,8,3:2:0:0:
155,70,50454,2,0,P|102:58|52:80,1,110,6|8,3:2|3:2,0:0:0:0:
0,177,51195,1,2,3:2:0:0:
9,286,51565,1,8,3:2:0:0:
88,362,51936,6,0,P|140:373|190:351,1,110,2|0,3:2|3:3,0:0:0:0:
235,319,52491,1,0,3:3:0:0:
235,319,52677,2,0,P|284:297|337:308,1,110,2|0,3:2|3:3,0:0:0:0:
389,340,53232,1,2,3:2:0:0:
389,340,53417,1,0,3:3:0:0:
28,87,54899,6,0,P|76:63|128:77,1,110,6|8,1:2|1:2,0:0:0:0:
175,116,55454,1,2,2:2:0:0:
175,116,55640,2,0,L|166:232,1,110,0|8,3:3|1:2,0:0:0:0:
208,270,56195,1,2,3:2:0:0:
208,270,56380,1,0,3:3:0:0:
307,223,56751,1,8,1:2:0:0:
382,302,57121,1,2,3:2:0:0:
481,255,57492,1,10,1:2:0:0:
493,145,57862,6,0,P|458:113|386:115,1,110,2|8,3:2|1:2,0:0:0:0:
350,132,58417,1,2,2:2:0:0:
350,132,58603,2,0,L|220:119,1,110,2|10,3:1|1:2,0:0:0:0:
196,99,59158,1,2,3:2:0:0:
196,99,59343,2,0,P|142:99|100:134,1,110,2|10,3:2|1:2,0:0:0:0:
72,240,60084,2,0,P|40:239|17:246,2,55,2|2|10,1:1|2:2|1:2,0:0:0:0:
119,279,60640,1,2,2:2:0:0:
119,279,60825,6,0,L|231:266,1,110,6|8,3:2|1:2,0:0:0:0:
285,287,61380,1,2,3:2:0:0:
285,287,61565,2,0,P|311:251|311:173,1,110,2|8,3:1|1:2,0:0:0:0:
291,144,62121,1,2,2:2:0:0:
291,144,62306,1,0,3:3:0:0:
315,36,62677,1,8,1:2:0:0:
420,2,63047,1,0,3:3:0:0:
501,75,63417,1,8,1:2:0:0:
477,183,63788,6,0,L|453:307,1,110,2|8,3:2|1:2,0:0:0:0:
441,346,64343,1,2,2:2:0:0:
441,346,64528,2,0,P|386:352|338:330,1,110,2|8,1:1|1:2,0:0:0:0:
298,300,65084,1,0,2:2:0:0:
298,300,65269,2,0,L|188:312,1,110,0|8,3:3|1:2,0:0:0:0:
87,269,66010,2,0,L|24:276,2,55,0|4|6,3:3|1:2|1:1,0:0:0:0:
132,237,66565,1,2,2:2:0:0:
132,237,66751,6,0,P|125:196|180:72,2,165,4|0|0,3:1|3:3|1:1,0:0:0:0:
207,316,68232,2,0,P|270:331|324:306,1,110,2|2,3:2|2:2,0:0:0:0:
356,284,68788,1,0,2:2:0:0:
356,284,68973,2,0,L|365:211,2,55,2|4|4,2:2|2:2|1:2,0:0:0:0:
453,335,69714,6,0,L|472:203,1,110,4|2,3:1|2:2,0:0:0:0:
478,174,70269,1,0,3:3:0:0:
478,174,70454,2,0,P|495:123|478:72,1,110,0|0,3:3|1:1,0:0:0:0:
383,16,71195,1,2,3:2:0:0:
284,64,71565,2,0,P|229:58|180:83,2,110,0|0|4,1:1|3:3|2:2,0:0:0:0:
371,131,72677,5,6,3:2:0:0:
360,240,73047,1,10,1:2:0:0:
268,300,73417,2,0,P|213:305|163:281,1,110,2|10,3:2|1:2,0:0:0:0:
119,261,73973,1,2,2:2:0:0:
119,261,74158,2,0,P|64:255|14:279,2,110,2|10|6,3:1|1:2|1:2,0:0:0:0:
210,198,75269,1,8,1:2:0:0:
222,88,75640,5,2,1:1:0:0:
313,27,76010,2,0,P|366:13|421:40,1,110,8|2,1:2|1:2,0:0:0:0:
484,119,76751,2,0,L|490:188,1,55,0|2,3:3|2:2,0:0:0:0:
495,228,77121,1,4,1:2:0:0:
495,228,78603,6,0,L|367:239,1,110,0|0,3:3|3:3,0:0:0:0:
277,216,79343,2,0,L|149:227,1,110,0|0,3:3|3:3,0:0:0:0:
79,158,80084,2,0,P|39:151|0:161,2,82.5,0|0|2,1:1|1:1|1:1,0:0:0:0:
124,126,80825,1,0,1:1:0:0:
320,26,81565,6,0,L|328:149,1,110,4|8,2:2|2:2,0:0:0:0:
378,234,82306,2,0,L|440:244,2,55,2|2|8,2:2|2:2|2:2,0:0:0:0:
333,263,82862,1,0,2:2:0:0:
333,263,83047,2,0,P|280:250|229:269,1,110,2|8,3:3|2:2,0:0:0:0:
155,351,83788,2,0,P|102:363|51:344,1,110,2|8,3:2|1:2,0:0:0:0:
5,244,84528,6,0,L|16:122,1,110,4|8,2:2|2:2,0:0:0:0:
23,83,85084,1,8,3:2:0:0:
23,83,85269,2,0,P|23:46|3:18,2,55,2|2|8,2:2|3:3|2:2,0:0:0:0:
128,113,86010,2,0,L|191:101,1,55,2|8,3:3|2:2,0:0:0:0:
235,114,86380,2,0,L|298:102,1,55,8|0,2:2|2:2,0:0:0:0:
343,112,86751,1,0,2:2:0:0:
