osu file format v14

[General]
AudioFilename: audio.mp3
AudioLeadIn: 0
PreviewTime: 54806
Countdown: 0
SampleSet: Soft
StackLeniency: 0.3
Mode: 0
LetterboxInBreaks: 0
WidescreenStoryboard: 1

[Editor]
Bookmarks: 3088
DistanceSpacing: 0.7
BeatDivisor: 4
GridSize: 4
TimelineZoom: 1.7

[Metadata]
Title:Yumeji Labyrinth (TV Size)
TitleUnicode:夢路らびりんす (TV Size)
Artist:LABYRINTHS
ArtistUnicode:らびりんず
Creator:Setu
Version:Present's Hard
Source:うらら迷路帖
Tags:shiratamamywife strengemistake calvaria present angelsnow narcissu kencho driftthe japanese pop jpop j-pop anime op opening urara meirochou 原田彩楓 本渡 楓 久保ユリカ 佳村はるか Sayaka Harada Kaede Hondo Yurika Kubo Haruka Yoshimura 千矢 chiya 紺 kon 小梅 koume ノノ nono 高瀬愛虹 山田高弘 大川茂伸 Takase Aiko Yamada Takahiro Okawa Shigenobu
BeatmapID:3289970
BeatmapSetID:1611208

[Difficulty]
HPDrainRate:5
CircleSize:4
OverallDifficulty:6.5
ApproachRate:8
SliderMultiplier:1.3
SliderTickRate:1

[Events]
//Background and Video events
0,0,"82611339_p0.jpg",0,0
//Break Periods
//Storyboard Layer 0 (Background)
//Storyboard Layer 1 (Fail)
//Storyboard Layer 2 (Pass)
//Storyboard Layer 3 (Foreground)
//Storyboard Layer 4 (Overlay)
//Storyboard Sound Samples

[TimingPoints]
1566,370.37037037037,4,2,1,45,1,0
1566,-111.111111111111,4,2,1,45,0,0
7491,-100,4,2,1,65,0,0
22306,-90.9090909090909,4,2,1,75,0,0
28232,-100,4,2,1,65,0,0
40084,-111.111111111111,4,2,1,65,0,0
48973,-100,4,2,1,65,0,0
51936,-100,4,2,1,70,0,0
54899,-90.9090909090909,4,2,1,75,0,1
66751,-100,4,2,1,75,0,0
78603,-100,4,2,1,65,0,0
81565,-90.9090909090909,4,2,1,75,0,0

[Colours]
Combo1 : 48,209,144
Combo2 : 93,170,255
Combo3 : 242,164,84

[HitObjects]
49,157,1566,5,2,2:2:0:0:
129,64,1843,2,0,P|170:76|229:75,1,87.7499973220826,0|0,2:2|2:2,0:0:0:0:
289,42,2306,1,2,2:2:0:0:
340,153,2584,2,0,P|381:141|440:142,1,87.7499973220826,0|0,2:2|2:2,0:0:0:0:
490,190,3047,2,0,P|511:249|493:315,1,116.999996429443,2|2,2:2|2:2,0:0:0:0:
340,268,3788,2,0,B|274:267|294:309|222:301,1,116.999996429443,2|2,2:2|2:2,0:0:0:0:
67,297,4528,5,2,2:2:0:0:
153,209,4806,2,0,L|143:117,1,87.7499973220826,0|0,2:2|2:2,0:0:0:0:
92,57,5269,1,2,2:2:0:0:
214,68,5547,2,0,L|224:160,1,87.7499973220826,0|0,2:2|2:2,0:0:0:0:
284,210,6010,2,0,P|266:256|285:313,2,87.7499973220826,2|0|0,2:2|2:2|2:2,0:0:0:0:
359,177,6751,2,0,P|390:187|415:210,1,58.4999982147217,2|2,2:2|2:2,0:0:0:0:
438,279,7121,1,0,2:2:0:0:
403,100,7491,6,0,P|349:91|304:108,1,97.5,4|0,2:2|2:2,0:0:0:0:
270,128,7862,2,0,P|243:137|208:134,1,65,0|2,1:1|2:2,0:0:0:0:
118,115,8232,2,0,L|102:16,2,97.5,2|0|2,3:2|2:2|2:2,0:0:0:0:
141,203,8973,2,0,P|144:239|137:269,1,65,0|2,3:3|2:2,0:0:0:0:
200,332,9343,2,0,P|236:329|266:336,1,65,0|0,1:1|2:2,0:0:0:0:
338,282,9714,2,0,B|367:235|367:235|337:157,1,130,0|0,3:3|1:1,0:0:0:0:
158,151,10454,6,0,P|211:151|251:124,1,97.5,6|0,3:2|2:2,0:0:0:0:
283,100,10825,2,0,P|316:83|352:83,1,65,0|2,1:1|3:2,0:0:0:0:
425,120,11195,2,0,L|527:130,2,97.5,0|0|2,3:3|2:2|2:1,0:0:0:0:
340,165,11936,2,0,P|332:196|332:231,1,65,4|2,3:2|2:2,0:0:0:0:
409,276,12306,2,0,P|417:307|417:342,1,65,0|2,1:1|3:2,0:0:0:0:
333,377,12677,1,0,1:1:0:0:
260,321,12862,2,0,L|255:286,2,32.5,0|2|0,1:1|2:2|1:1,0:0:0:0:
180,364,13232,1,0,2:2:0:0:
180,364,13325,1,0,1:1:0:0:
180,364,13417,6,0,B|106:382|120:321|52:340,1,130,6|10,3:2|2:2,0:0:0:0:
32,158,14158,2,0,P|72:136|130:138,1,97.5,2|2,3:2|2:2,0:0:0:0:
252,180,14714,1,2,2:2:0:0:
252,180,14899,2,0,P|241:130|251:80,2,97.5,2|2|2,3:2|2:2|2:2,0:0:0:0:
324,236,15640,2,0,P|364:232|394:213,1,65,0|0,3:3|3:3,0:0:0:0:
441,149,16010,2,0,P|411:135|379:133,1,65,8|0,2:2|3:3,0:0:0:0:
290,116,16380,6,0,B|247:148|247:148|160:122,1,130,4|8,3:2|2:2,0:0:0:0:
93,83,16936,1,0,3:3:0:0:
105,172,17121,2,0,P|108:211|100:240,2,65,2|8|2,3:2|1:2|2:2,0:0:0:0:
18,200,17677,1,2,2:2:0:0:
42,287,17862,6,0,B|76:323|76:323|174:299,1,130,6|0,2:2|2:2,0:0:0:0:
289,181,18603,2,0,B|323:145|323:145|421:169,1,130,0|0,2:2|2:2,0:0:0:0:
478,328,19343,5,0,3:3:0:0:
393,361,19528,1,2,2:2:0:0:
334,290,19714,2,0,P|300:290|266:305,1,65,0|2,3:3|2:2,0:0:0:0:
192,347,20084,1,0,3:3:0:0:
159,262,20269,1,2,2:2:0:0:
230,203,20455,2,0,P|230:169|215:135,1,65,0|2,3:3|2:2,0:0:0:0:
148,83,20825,5,0,1:1:0:0:
260,5,21103,1,0,1:1:0:0:
352,113,21380,1,2,1:1:0:0:
352,113,21565,1,0,1:1:0:0:
352,113,22306,6,0,P|380:159|368:223,1,107.25000327301,4|0,2:2|2:2,0:0:0:0:
403,252,22677,2,0,P|438:249|478:264,1,71.5000021820069,8|8,2:2|3:2,0:0:0:0:
429,350,23047,1,2,2:2:0:0:
331,371,23232,1,2,3:3:0:0:
309,273,23417,1,2,2:2:0:0:
211,294,23602,1,8,2:2:0:0:
127,349,23788,6,0,P|113:319|113:274,1,71.5000021820069,2|8,3:3|2:2,0:0:0:0:
187,216,24158,2,0,P|201:186|201:141,1,71.5000021820069,2|2,3:2|1:3,0:0:0:0:
141,68,24528,1,8,3:2:0:0:
227,17,24714,1,2,3:2:0:0:
294,90,24899,1,0,1:1:0:0:
294,90,25269,6,0,P|281:141|296:206,1,107.25000327301,4|0,2:2|2:2,0:0:0:0:
319,235,25640,2,0,P|335:269|331:313,1,71.5000021820069,0|2,1:1|3:2,0:0:0:0:
412,364,26010,1,2,2:2:0:0:
500,317,26195,1,10,3:2:0:0:
416,262,26380,1,10,2:2:0:0:
504,215,26565,1,2,2:2:0:0:
423,154,26751,6,0,P|405:116|412:77,1,71.5000021820069,2|0,3:2|3:3,0:0:0:0:
321,37,27121,2,0,P|283:55|244:48,1,71.5000021820069,0|2,1:1|3:2,0:0:0:0:
204,138,27491,2,0,P|222:176|215:215,1,71.5000021820069,0|8,3:3|2:2,0:0:0:0:
306,255,27861,2,0,P|344:237|383:244,1,71.5000021820069,2|2,2:2|3:2,0:0:0:0:
442,298,28232,5,6,3:2:0:0:
273,367,28603,2,0,P|234:350|199:353,1,65,8|0,2:2|0:0,0:0:0:0:
131,308,28973,2,0,P|136:263|127:200,2,97.5,0|0|0,3:3|0:0|3:3,0:0:0:0:
61,367,29714,1,2,3:2:0:0:
0,195,30084,2,0,P|34:176|60:173,1,65,8|0,2:2|0:0,0:0:0:0:
129,114,30454,2,0,P|197:140|236:146,2,97.5,0|0|0,3:3|0:0|3:3,0:0:0:0:
80,36,31195,6,0,P|111:24|143:23,1,65,0|0,3:3|3:3,0:0:0:0:
188,25,31473,2,0,P|235:35|280:55,1,97.5,2|0,2:2|0:0,0:0:0:0:
356,105,31936,2,0,P|390:92|415:68,1,65,0|0,3:3|3:3,0:0:0:0:
450,50,32214,2,0,P|469:120|467:164,1,97.5,0|2,2:2|3:2,0:0:0:0:
426,225,32677,5,0,3:3:0:0:
469,304,32862,1,0,2:2:0:0:
386,342,33047,2,0,P|343:345|311:358,1,65,8|0,2:2|0:0,0:0:0:0:
238,317,33417,1,8,2:2:0:0:
150,344,33603,2,0,L|142:379,2,32.5,8|8|8,2:2|2:2|2:2,0:0:0:0:
170,255,33973,1,14,2:2:0:0:
84,285,34158,1,0,3:3:0:0:
56,105,34528,6,0,P|57:73|74:42,1,65,8|0,2:2|0:0,0:0:0:0:
152,0,34899,2,0,P|199:1|262:21,2,97.5,0|2|2,3:3|0:0|2:2,0:0:0:0:
137,90,35640,1,0,3:3:0:0:
316,119,36010,2,0,P|350:120|381:111,1,65,8|0,2:2|0:0,0:0:0:0:
467,136,36380,2,0,P|458:88|462:39,2,97.5,0|2|0,3:3|0:0|3:3,0:0:0:0:
498,260,37121,6,0,P|504:295|493:336,1,65,0|2,3:3|3:2,0:0:0:0:
464,354,37399,2,0,L|362:364,1,97.5,2|0,2:2|0:0,0:0:0:0:
288,316,37862,2,0,P|282:281|293:240,1,65,2|2,2:2|3:2,0:0:0:0:
322,222,38140,2,0,L|424:212,1,97.5,2|2,2:2|2:2,0:0:0:0:
461,131,38603,6,0,P|442:97|416:77,1,65,2|0,3:2|3:3,0:0:0:0:
340,41,38973,2,0,P|312:62|273:66,1,65,8|0,2:2|0:0,0:0:0:0:
200,28,39343,1,2,3:2:0:0:
130,87,39528,1,8,3:2:0:0:
135,109,39621,1,10,2:2:0:0:
138,131,39714,2,0,L|131:166,3,32.5,8|2|2|2,3:2|2:2|2:2|2:2,0:0:0:0:
147,200,40084,6,0,B|240:184|213:259|316:236,1,175.499994644165,4|2,2:2|3:2,0:0:0:0:
384,200,40825,1,2,3:2:0:0:
336,357,41195,1,0,1:1:0:0:
184,296,41565,6,0,P|141:318|78:324,2,87.7499973220826,2|0|0,3:2|2:2|3:3,0:0:0:0:
238,234,42306,1,0,3:3:0:0:
229,152,42491,1,0,1:1:0:0:
219,70,42677,1,4,1:2:0:0:
380,46,43047,6,0,B|414:39|433:21|433:21|428:48|446:93,1,116.999996429443,0|0,3:3|3:3,0:0:0:0:
384,231,43788,2,0,B|350:238|331:256|331:256|336:229|318:184,1,116.999996429443,0|0,3:3|1:1,0:0:0:0:
192,102,44528,2,0,P|146:111|105:139,2,87.7499973220826,0|0|2,3:3|2:2|3:2,0:0:0:0:
273,88,45269,1,8,3:2:0:0:
349,117,45454,1,4,2:2:0:0:
334,35,45640,1,4,1:2:0:0:
334,35,46010,6,0,B|394:14|394:14|499:74,1,175.499994644165,4|0,2:2|2:2,0:0:0:0:
450,140,46751,2,0,P|441:171|445:203,1,58.4999982147217,8|8,3:3|3:3,0:0:0:0:
387,355,47306,1,0,1:1:0:0:
388,355,47399,1,0,1:1:0:0:
387,355,47491,2,0,P|427:373|482:363,2,87.7499973220826,0|0|0,1:1|1:1|1:1,0:0:0:0:
332,293,48232,1,0,1:1:0:0:
262,336,48417,2,0,L|269:369,2,29.2499991073609,0|0|0,1:1|1:1|1:1,0:0:0:0:
85,288,48973,6,0,P|78:259|89:207,1,65,6|0,3:2|0:0,0:0:0:0:
112,190,49251,2,0,P|122:152|108:85,1,97.5,0|2,2:2|2:2,0:0:0:0:
129,5,49714,2,0,P|74:12|34:50,2,97.5,2|0|2,3:2|2:2|3:2,0:0:0:0:
204,54,50454,6,0,P|235:72|269:72,1,65,6|0,3:2|0:0,0:0:0:0:
308,63,50732,2,0,P|328:110|308:170,1,97.5,0|2,2:2|3:2,0:0:0:0:
251,215,51195,2,0,L|269:327,2,97.5,2|0|8,3:2|2:2|2:2,0:0:0:0:
206,135,51936,5,2,3:2:0:0:
172,219,52121,1,2,3:2:0:0:
113,149,52306,2,0,L|106:105,2,32.5,0|0|0,3:3|0:0|3:3,0:0:0:0:
46,211,52677,5,2,3:2:0:0:
8,293,52862,1,2,3:2:0:0:
65,363,53047,2,0,B|94:355|105:339|105:339|123:352|162:343,1,97.5,0|0,3:3|0:0,0:0:0:0:
201,341,53417,6,0,P|236:334|269:330,1,65,0|0,3:3|0:0,0:0:0:0:
306,349,53695,2,0,P|363:362|411:364,1,97.5,2|2,2:2|2:2,0:0:0:0:
481,304,54158,2,0,P|480:237|462:170,1,130,0|2,2:2|2:2,0:0:0:0:
295,67,54899,6,0,P|252:92|183:85,2,107.25000327301,6|2|2,1:2|2:2|2:2,0:0:0:0:
384,22,55640,2,0,P|394:61|390:98,1,71.5000021820069,2|0,3:2|0:0,0:0:0:0:
356,126,55917,2,0,P|352:188|362:257,1,107.25000327301,2|2,2:2|3:2,0:0:0:0:
385,329,56380,2,0,B|342:343|303:317|303:317|280:345|232:350,1,143.000004364014,0|8,3:3|1:2,0:0:0:0:
225,249,56936,1,0,2:2:0:0:
146,311,57121,2,0,P|107:325|75:320,1,71.5000021820069,2|2,3:2|2:2,0:0:0:0:
64,221,57491,2,0,P|103:207|135:212,1,71.5000021820069,10|2,1:2|2:2,0:0:0:0:
203,139,57862,6,0,L|217:31,2,107.25000327301,2|2|2,3:2|2:2|2:2,0:0:0:0:
289,190,58603,2,0,P|325:203|381:198,1,71.5000021820069,2|0,3:1|0:0,0:0:0:0:
398,174,58880,2,0,L|384:66,1,107.25000327301,2|2,2:2|3:2,0:0:0:0:
285,46,59343,2,0,P|249:33|193:38,1,71.5000021820069,2|0,3:2|0:0,0:0:0:0:
174,59,59621,2,0,P|127:95|59:98,1,107.25000327301,2|2,2:2|2:2,0:0:0:0:
14,178,60084,5,2,1:1:0:0:
14,178,60177,1,0,2:2:0:0:
14,178,60269,1,2,2:2:0:0:
90,242,60454,2,0,P|121:222|215:230,1,107.25000327301,10|2,1:2|2:2,0:0:0:0:
234,242,60825,6,0,P|277:266|343:263,2,107.25000327301,6|2|2,3:2|2:2|3:2,0:0:0:0:
304,171,61565,2,0,P|321:128|317:103,1,71.5000021820069,2|0,3:1|0:0,0:0:0:0:
289,62,61843,2,0,B|249:50|249:50|163:84,1,107.25000327301,2|2,2:2|2:2,0:0:0:0:
89,55,62306,2,0,P|44:52|79:123,1,143.000004364014,0|8,3:3|1:2,0:0:0:0:
151,156,62862,1,0,2:2:0:0:
64,206,63047,2,0,P|50:264|59:283,1,71.5000021820069,0|2,3:3|2:2,0:0:0:0:
152,257,63417,2,0,P|210:271|229:262,1,71.5000021820069,8|2,1:2|2:2,0:0:0:0:
310,228,63788,6,0,B|349:232|349:232|371:249|371:249|423:255,2,107.25000327301,2|2|2,3:2|2:3|2:2,0:0:0:0:
359,141,64528,2,0,P|401:159|423:187,1,71.5000021820069,2|0,1:1|0:0,0:0:0:0:
462,200,64806,2,0,P|458:158|471:89,1,107.25000327301,2|0,3:2|2:2,0:0:0:0:
398,22,65269,5,0,3:3:0:0:
318,83,65454,1,2,2:2:0:0:
221,57,65640,1,8,1:2:0:0:
195,154,65825,1,0,2:2:0:0:
291,180,66010,2,0,P|304:218|298:258,1,71.5000021820069,0|4,3:3|1:2,0:0:0:0:
232,321,66380,1,6,1:1:0:0:
232,321,66751,6,0,B|158:339|174:287|96:309,1,130,4|2,3:1|2:2,0:0:0:0:
11,150,67491,2,0,P|-3:110|8:50,2,97.5,0|0|0,3:3|0:0|3:3,0:0:0:0:
53,230,68232,2,0,P|95:211|149:197,1,97.5,2|0,3:2|2:2,0:0:0:0:
280,212,68788,1,0,2:2:0:0:
261,122,68973,1,0,2:2:0:0:
320,53,69158,1,4,2:2:0:0:
320,53,69343,2,0,P|365:47|427:50,1,97.5,4|0,1:2|0:0,0:0:0:0:
458,68,69714,6,0,B|489:172|407:164|457:271,1,195,4|0,3:1|3:3,0:0:0:0:
464,346,70454,2,0,B|418:349|390:320|390:320|380:349|350:365,1,130,0|0,3:3|1:1,0:0:0:0:
309,295,71010,5,0,3:3:0:0:
309,295,71103,1,0,0:0:0:0:
309,295,71195,2,0,P|250:304|201:327,2,97.5,2|2|0,3:2|2:2|2:2,0:0:0:0:
344,210,71936,2,0,P|314:184|295:150,1,65,0|0,3:3|3:3,0:0:0:0:
308,72,72306,1,4,2:2:0:0:
129,32,72677,6,0,P|94:33|65:47,1,65,6|0,3:2|3:3,0:0:0:0:
84,134,73047,2,0,P|119:133|148:119,1,65,10|2,1:2|3:2,0:0:0:0:
225,77,73417,2,0,P|256:70|328:93,2,97.5,2|2|2,3:2|2:2|2:2,0:0:0:0:
145,120,74158,2,0,P|145:154|176:212,1,97.5,2|2,3:1|2:2,0:0:0:0:
310,194,74714,1,2,2:2:0:0:
250,262,74899,2,0,P|241:302|250:339,1,65,6|2,1:2|3:2,0:0:0:0:
327,365,75269,2,0,P|336:325|327:288,1,65,8|2,1:2|3:2,0:0:0:0:
250,262,75640,6,0,B|201:259|201:259|164:275|164:275|101:272,1,130,2|8,1:1|1:2,0:0:0:0:
49,326,76195,1,2,3:2:0:0:
28,237,76380,2,0,P|28:205|45:173,2,65,2|2|0,1:2|3:2|3:3,0:0:0:0:
49,326,76936,1,2,2:2:0:0:
123,273,77121,6,0,B|164:275|164:275|201:259|201:259|250:262,2,130,4|0|0,1:2|2:2|2:2,0:0:0:0:
281,363,78232,1,0,2:2:0:0:
281,363,78603,5,0,3:3:0:0:
368,338,78788,1,2,2:2:0:0:
304,272,78973,2,0,P|307:227|326:206,1,65,0|2,3:3|2:2,0:0:0:0:
403,180,79343,1,0,3:3:0:0:
477,232,79528,1,2,2:2:0:0:
485,141,79714,2,0,P|486:104|470:79,1,65,0|2,3:3|2:2,0:0:0:0:
400,25,80084,6,0,P|353:58|296:63,1,97.5,0|0,1:1|1:1,0:0:0:0:
178,44,80640,1,2,1:1:0:0:
196,132,80825,1,0,1:1:0:0:
196,132,81565,6,0,P|150:160|86:148,1,107.25000327301,4|0,2:2|2:2,0:0:0:0:
50,138,81936,2,0,L|59:211,1,71.5000021820069,8|8,2:2|3:2,0:0:0:0:
115,291,82306,1,2,2:2:0:0:
203,244,82491,1,2,2:2:0:0:
181,341,82676,1,8,2:2:0:0:
271,298,82861,1,0,2:2:0:0:
354,353,83047,6,0,P|368:323|368:278,1,71.5000021820069,2|8,3:3|2:2,0:0:0:0:
294,219,83417,2,0,P|280:189|280:144,1,71.5000021820069,8|0,2:2|2:2,0:0:0:0:
369,109,83787,1,8,3:2:0:0:
293,43,83973,1,2,3:2:0:0:
201,82,84158,1,0,1:1:0:0:
201,82,84528,6,0,P|165:129|167:192,1,107.25000327301,4|0,2:2|2:2,0:0:0:0:
189,218,84899,2,0,P|202:254|200:288,1,71.5000021820069,8|8,2:2|3:2,0:0:0:0:
269,358,85269,1,2,2:2:0:0:
352,303,85454,1,2,3:3:0:0:
427,369,85639,1,8,2:2:0:0:
509,313,85824,1,0,2:2:0:0:
435,244,86010,6,0,L|424:167,1,71.5000021820069,2|8,3:3|2:2,0:0:0:0:
351,105,86380,2,0,L|340:182,1,71.5000021820069,8|0,2:2|2:2,0:0:0:0:
266,243,86751,2,0,L|255:166,1,71.5000021820069,0|2,2:2|2:2,0:0:0:0:
242,73,87121,5,2,2:2:0:0:
