osu file format v14

[General]
AudioFilename: audio.mp3
AudioLeadIn: 0
PreviewTime: 54806
Countdown: 0
SampleSet: Soft
StackLeniency: 0.5
Mode: 0
LetterboxInBreaks: 0
WidescreenStoryboard: 1

[Editor]
Bookmarks: 1566,7491,13417,19343,22306,28232,34158,40084,46010,51936,54899,60825,66751,72677,78603,84528,87491
DistanceSpacing: 2.25
BeatDivisor: 8
GridSize: 4
TimelineZoom: 1.62

[Metadata]
Title:Yumeji Labyrinth (TV Size)
TitleUnicode:夢路らびりんす (TV Size)
Artist:LABYRINTHS
ArtistUnicode:らびりんず
Creator:Setu
Version:Kencho's Insane
Source:うらら迷路帖
Tags:shiratamamywife strengemistake calvaria present angelsnow narcissu kencho driftthe japanese pop jpop j-pop anime op opening urara meirochou 原田彩楓 本渡 楓 久保ユリカ 佳村はるか Sayaka Harada Kaede Hondo Yurika Kubo Haruka Yoshimura 千矢 chiya 紺 kon 小梅 koume ノノ nono 高瀬愛虹 山田高弘 大川茂伸 Takase Aiko Yamada Takahiro Okawa Shigenobu
BeatmapID:3326626
BeatmapSetID:1611208

[Difficulty]
HPDrainRate:5.5
CircleSize:4.1
OverallDifficulty:8.2
ApproachRate:9
SliderMultiplier:1.6
SliderTickRate:1

[Events]
//Background and Video events
0,0,"82611339_p0.jpg",0,0
//Break Periods
//Storyboard Layer 0 (Background)
//Storyboard Layer 1 (Fail)
//Storyboard Layer 2 (Pass)
//Storyboard Layer 3 (Foreground)
//Storyboard Layer 4 (Overlay)
//Storyboard Sound Samples

[TimingPoints]
1566,370.37037037037,4,2,2,45,1,0
1566,-166.666666666667,4,2,2,45,0,0
7121,-125,4,2,2,45,0,0
7491,-125,4,2,1,65,0,0
11936,-100,4,2,1,65,0,0
13417,-83.3333333333333,4,2,1,65,0,1
17862,-166.666666666667,4,2,1,65,0,0
19343,-100,4,2,1,65,0,0
20825,-100,4,2,1,65,0,0
21936,-100,4,2,1,65,0,0
22306,-100,4,2,1,75,0,0
24899,-62.5,4,2,1,75,0,0
25269,-100,4,2,1,75,0,0
28232,-100,4,2,1,65,0,0
40084,-125,4,2,1,65,0,0
48973,-100,4,2,1,65,0,0
51936,-100,4,2,1,70,0,0
53417,-83.3333333333333,4,2,1,70,0,0
54899,-83.3333333333333,4,2,1,75,0,1
66751,-125,4,2,1,75,0,0
72306,-125,4,2,1,75,0,0
72677,-83.3333333333333,4,2,1,75,0,1
77121,-166.666666666667,4,2,1,75,0,0
78603,-100,4,2,1,65,0,0
80084,-100,4,2,1,65,0,0
81565,-100,4,2,1,75,0,0
84158,-62.5,4,2,1,75,0,0
84528,-100,4,2,1,75,0,0

[Colours]
Combo1 : 48,209,144
Combo2 : 93,170,255
Combo3 : 242,164,84

[HitObjects]
310,273,1566,6,0,P|345:271|381:260,2,71.9999978027344,2|0|0,0:0|0:0|0:0,0:0:0:0:
202,273,2306,2,0,P|167:271|131:260,2,71.9999978027344,2|0|0,0:0|0:0|0:0,0:0:0:0:
184,173,3047,6,0,L|169:75,1,95.9999970703126,2|2,0:0|0:0,0:0:0:0:
342,78,3788,2,0,L|328:173,1,95.9999970703126,2|0,0:0|0:0,0:0:0:0:
328,173,4528,6,0,P|363:162|400:163,2,71.9999978027344,2|0|0,0:0|0:0|0:0,0:0:0:0:
184,173,5269,2,0,P|149:162|112:163,2,71.9999978027344,0|0|0,0:0|0:0|0:0,0:0:0:0:
256,248,6010,6,0,L|256:320,2,71.9999978027344,2|0|0,0:0|0:0|0:0,0:0:0:0:
256,136,6751,1,2,0:0:0:0:
312,192,6936,1,2,0:0:0:0:
200,192,7121,2,0,L|169:192,3,32,0|0|0|0,0:0|0:0|0:0|0:0,0:0:0:0:
107,245,7491,6,0,P|60:250|18:228,1,96,4|0,0:0|0:0,0:0:0:0:
75,169,7862,2,0,L|87:107,1,64,0|2,1:0|0:0,0:0:0:0:
200,192,8232,2,0,P|247:197|289:175,1,96,2|0,3:2|0:0,0:0:0:0:
232,116,8603,2,0,L|220:54,1,64,0|2,1:0|0:0,0:0:0:0:
383,155,8973,6,0,P|384:186|375:218,1,64,0|2,3:0|0:0,0:0:0:0:
319,84,9343,2,0,P|345:67|377:59,1,64,0|0,1:0|0:0,0:0:0:0:
289,175,9714,2,0,L|258:171,3,32,0|0|2|0,3:0|0:0|0:0|0:0,0:0:0:0:
295,249,10084,2,0,L|231:242,1,64,0|0,1:2|3:0,0:0:0:0:
139,33,10454,6,0,P|145:64|151:131,1,96,6|0,3:2|0:0,0:0:0:0:
128,210,10825,1,0,1:0:0:0:
231,134,11010,1,2,3:2:0:0:
140,306,11195,2,0,P|134:275|128:208,1,96,0|0,3:0|0:0,0:0:0:0:
151,129,11565,1,0,1:2:0:0:
48,205,11751,1,2,0:1:0:0:
139,33,11936,5,4,3:2:0:0:
231,134,12121,2,0,L|271:130,1,40,2|0,0:0|3:0,0:0:0:0:
382,49,12306,2,0,P|344:45|305:58,1,80,0|2,1:2|3:2,0:0:0:0:
351,157,12677,1,0,1:2:0:0:
483,86,12862,1,0,1:2:0:0:
475,67,12954,1,2,0:0:0:0:
467,48,13047,1,0,1:2:0:0:
441,184,13232,1,0,0:0:0:0:
449,203,13325,1,0,1:0:0:0:
457,222,13417,6,0,P|454:267|443:320,1,95.9999970703126,6|0,3:2|0:0,0:0:0:0:
314,384,13788,2,0,P|311:339|300:286,1,95.9999970703126,10|0,0:0|0:0,0:0:0:0:
197,159,14158,6,0,P|192:226|176:306,1,143.999995605469,2|2,3:2|0:2,0:0:0:0:
138,377,14528,1,8,0:0:0:0:
89,226,14714,1,2,0:0:0:0:
177,16,14899,6,0,P|181:83|198:163,1,143.999995605469,2|2,3:2|0:2,0:0:0:0:
236,234,15269,1,8,2:0:0:0:
285,83,15454,1,2,0:0:0:0:
290,297,15640,1,0,3:0:0:0:
339,146,15825,1,0,3:2:0:0:
339,146,15917,1,8,3:2:0:0:
339,146,16010,1,8,0:0:0:0:
415,239,16195,1,0,3:0:0:0:
456,126,16380,6,0,L|444:30,1,95.9999970703126,4|0,3:2|0:0,0:0:0:0:
327,241,16751,2,0,L|340:132,1,95.9999970703126,8|0,0:0|3:3,0:0:0:0:
477,293,17121,1,2,3:2:0:0:
339,146,17306,5,8,1:2:0:0:
307,150,17399,1,0,1:2:0:0:
275,154,17491,1,2,2:2:0:0:
243,158,17584,1,2,2:2:0:0:
211,162,17677,1,2,2:2:0:0:
179,166,17769,1,2,2:2:0:0:
147,170,17862,6,0,P|159:125|159:74,2,95.9999970703126,6|0|0,0:0|0:0|0:0,0:0:0:0:
22,247,18973,2,0,P|57:249|94:259,1,71.9999978027344,0|0,0:0|0:0,0:0:0:0:
167,289,19343,5,0,3:0:0:0:
231,240,19528,1,2,0:0:0:0:
178,368,19714,1,0,3:0:0:0:
93,258,19899,1,2,2:0:0:0:
295,191,20084,5,0,3:0:0:0:
231,240,20269,1,2,0:0:0:0:
284,112,20454,1,0,3:2:0:0:
369,222,20640,1,2,0:0:0:0:
167,289,20825,6,0,P|151:252|155:214,1,80,0|0,1:0|0:0,0:0:0:0:
188,70,21103,2,0,P|204:106|199:146,1,80,0|0,1:0|0:0,0:0:0:0:
124,24,21380,1,2,1:0:0:0:
37,158,21565,1,0,1:0:0:0:
37,158,21936,6,0,L|76:153,3,40,4|0|0|0,3:0|3:2|0:0|0:0,0:0:0:0:
11,243,22306,6,0,L|131:227,1,120,4|0,2:0|0:0,0:0:0:0:
209,216,22677,5,8,0:0:0:0:
100,300,22862,1,8,3:2:0:0:
160,154,23047,5,2,0:0:0:0:
258,278,23232,1,2,3:3:0:0:
130,227,23417,1,2,0:0:0:0:
288,205,23603,1,8,0:0:0:0:
228,351,23788,5,2,3:3:0:0:
209,216,23973,1,8,0:0:0:0:
337,267,24158,5,2,3:2:0:0:
209,216,24343,1,2,1:3:0:0:
316,131,24528,5,8,3:2:0:0:
209,216,24714,1,2,3:2:0:0:
190,81,24899,6,0,P|148:44|71:61,1,128,0|0,1:2|3:0,0:0:0:0:
28,114,25177,1,0,0:0:0:0:
28,114,25269,6,0,P|5:82|15:6,1,120,4|0,2:0|0:0,0:0:0:0:
81,53,25640,5,0,1:0:0:0:
122,202,25825,1,2,3:2:0:0:
190,81,26010,5,2,0:0:0:0:
121,122,26195,1,10,3:2:0:0:
261,200,26380,1,10,0:2:0:0:
260,120,26565,1,2,0:0:0:0:
53,243,26751,5,2,3:2:0:0:
191,161,26936,1,0,3:0:0:0:
51,83,27121,5,0,1:2:0:0:
191,161,27306,1,2,3:2:0:0:
329,79,27491,5,0,3:0:0:0:
191,161,27677,1,8,0:0:0:0:
331,239,27862,5,2,0:0:0:0:
191,161,28047,1,2,3:2:0:0:
402,190,28232,6,0,P|416:227|413:266,1,80,6|0,3:2|0:0,0:0:0:0:
337,360,28603,2,0,P|303:362|219:347,1,120,8|0,0:0|3:0,0:0:0:0:
150,305,28973,1,0,3:0:0:0:
54,377,29158,1,0,3:0:0:0:
157,288,29343,1,8,0:0:0:0:
5,298,29528,1,0,3:0:0:0:
164,271,29714,6,0,L|244:257,1,80,2|0,3:2|0:0,0:0:0:0:
361,236,30084,2,0,P|352:196|354:118,1,120,8|0,0:0|0:0,0:0:0:0:
385,33,30454,1,0,3:0:0:0:
424,173,30640,1,0,3:3:0:0:
475,38,30825,1,8,0:0:0:0:
354,117,31010,1,0,3:3:0:0:
499,124,31195,6,0,P|513:161|509:200,1,80,0|0,3:0|3:0,0:0:0:0:
497,239,31473,1,2,0:0:0:0:
497,239,31565,2,0,P|464:242|380:262,1,120,8|0,0:0|0:0,0:0:0:0:
310,304,31936,1,0,3:0:0:0:
277,196,32121,2,0,L|268:234,1,40,0|0,3:0|0:0,0:0:0:0:
241,346,32306,1,8,0:0:0:0:
379,262,32491,1,2,3:2:0:0:
199,277,32677,6,0,L|121:259,1,80,0|0,3:0|0:0,0:0:0:0:
90,284,32954,1,0,0:0:0:0:
90,284,33047,2,0,P|102:242|81:164,1,120,8|8,0:0|0:0,0:0:0:0:
42,101,33417,1,8,0:0:0:0:
180,183,33603,1,8,0:0:0:0:
199,178,33695,1,8,0:0:0:0:
218,173,33788,1,8,0:0:0:0:
176,87,33973,1,14,0:2:0:0:
273,238,34158,6,0,P|297:208|304:168,1,80,0|0,3:0|0:0,0:0:0:0:
276,76,34528,2,0,L|396:63,1,120,8|0,0:0|0:0,0:0:0:0:
476,54,34899,1,0,3:0:0:0:
409,183,35084,1,0,3:0:0:0:
396,63,35269,1,8,0:0:0:0:
489,174,35454,1,2,0:0:0:0:
489,174,35547,1,0,0:0:0:0:
489,174,35640,6,0,P|497:214|497:253,1,80,0|0,3:0|0:0,0:0:0:0:
372,377,36010,2,0,P|360:318|360:259,1,120,8|0,0:0|3:0,0:0:0:0:
409,183,36380,1,0,3:0:0:0:
274,234,36566,1,0,3:3:0:0:
353,113,36751,1,8,0:0:0:0:
360,258,36936,1,0,3:0:0:0:
269,144,37121,6,0,P|261:104|261:65,1,80,0|2,3:2|3:2,0:0:0:0:
274,27,37399,1,0,0:0:0:0:
274,27,37491,2,0,P|215:39|156:39,1,120,10|0,3:2|0:0,0:0:0:0:
76,23,37862,1,2,0:0:0:0:
127,156,38047,2,0,L|136:118,1,40,2|0,3:2|0:0,0:0:0:0:
155,39,38232,1,8,0:0:0:0:
48,140,38417,1,2,2:0:0:0:
215,209,38603,6,0,L|293:191,1,80,2|0,3:2|3:3,0:0:0:0:
324,216,38880,1,0,0:0:0:0:
324,216,38973,2,0,P|312:174|333:96,1,120,8|0,0:0|0:0,0:0:0:0:
372,33,39343,1,2,3:2:0:0:
436,164,39528,1,8,3:2:0:0:
444,182,39621,1,10,0:0:0:0:
440,212,39714,5,8,3:2:0:0:
435,241,39806,1,2,0:0:0:0:
443,270,39899,1,2,0:0:0:0:
461,293,39991,1,2,0:0:0:0:
487,309,40084,6,0,P|442:306|364:331,1,128,4|2,0:2|3:2,0:0:0:0:
304,384,40640,1,2,3:2:0:0:
185,337,40825,2,0,L|201:208,1,128,2|0,3:2|1:0,0:0:0:0:
11,178,41565,6,0,P|59:181|105:170,1,96,2|0,3:2|2:0,0:0:0:0:
146,143,41936,2,0,L|138:80,1,64,2|0,3:2|3:3,0:0:0:0:
128,0,42306,1,0,3:2:0:0:
255,97,42491,1,0,1:2:0:0:
255,97,42677,1,4,1:2:0:0:
255,97,43047,6,0,B|325:77|311:117|381:97,1,128,0|0,3:0|3:0,0:0:0:0:
448,54,43603,1,0,0:0:0:0:
375,178,43788,2,0,P|373:209|380:240,1,64,0|0,3:0|0:0,0:0:0:0:
467,312,44158,2,0,P|469:281|462:250,1,64,0|0,1:0|0:0,0:0:0:0:
287,170,44528,6,0,P|239:167|193:178,1,96,0|0,3:0|0:0,0:0:0:0:
152,205,44899,2,0,L|160:268,1,64,2|2,3:2|3:2,0:0:0:0:
170,348,45269,1,8,3:2:0:0:
43,251,45454,1,4,2:2:0:0:
193,178,45640,1,4,1:2:0:0:
193,178,46010,6,0,B|263:158|249:198|319:178,1,128,4|0,0:0|0:0,0:0:0:0:
386,135,46566,1,0,0:0:0:0:
225,251,46751,1,8,3:0:0:0:
286,105,46936,1,8,3:0:0:0:
286,105,47306,1,0,1:0:0:0:
286,105,47399,1,0,1:0:0:0:
286,105,47491,6,0,P|288:139|298:204,1,96,0|0,1:0|1:0,0:0:0:0:
332,272,47862,1,0,1:0:0:0:
218,209,48047,1,0,1:0:0:0:
165,333,48232,1,0,1:0:0:0:
209,182,48417,1,0,1:0:0:0:
209,182,48510,1,0,1:0:0:0:
209,182,48603,2,0,L|199:152,1,32,0|0,1:0|0:0,0:0:0:0:
114,74,48788,2,0,L|124:104,1,32,0|0,3:0|3:0,0:0:0:0:
86,185,48973,6,0,B|43:187|1:175|1:175|18:204,1,120,6|0,3:2|0:0,0:0:0:0:
81,283,49343,2,0,P|88:322|93:362,1,80,8|2,3:2|0:0,0:0:0:0:
186,230,49714,2,0,B|245:222|245:222|301:247,1,120,2|0,3:2|0:0,0:0:0:0:
305,146,50084,2,0,P|309:106|317:66,1,80,8|2,3:2|3:2,0:0:0:0:
406,210,50454,6,0,P|347:211|300:247,1,120,6|0,3:2|0:0,0:0:0:0:
272,323,50825,1,8,3:2:0:0:
305,146,51010,1,2,3:2:0:0:
153,242,51195,2,0,P|94:241|47:205,1,120,2|0,3:2|0:0,0:0:0:0:
19,129,51566,1,8,3:2:0:0:
52,306,51751,1,8,0:0:0:0:
245,194,51936,5,2,3:2:0:0:
270,20,52121,1,2,3:2:0:0:
230,208,52306,5,0,3:2:0:0:
421,225,52491,1,0,3:0:0:0:
227,312,52677,5,2,3:2:0:0:
191,83,52862,1,2,3:2:0:0:
136,364,53047,5,0,3:2:0:0:
184,109,53232,1,2,3:2:0:0:
318,260,53417,6,0,B|355:285|355:285|392:244|446:252,2,143.999995605469,0|2|2,3:0|0:2|0:0,0:0:0:0:
427,342,54158,1,0,0:0:0:0:
350,186,54343,2,0,L|355:155,3,31.9999990234375,2|2|2|2,0:0|0:0|0:0|0:0,0:0:0:0:
318,260,54899,6,0,P|255:290|184:282,1,143.999995605469,6|2,1:2|0:0,0:0:0:0:
122,224,55269,1,8,1:2:0:0:
77,371,55454,1,2,0:0:0:0:
39,134,55640,2,0,P|102:104|173:112,1,143.999995605469,0|0,3:2|0:0,0:0:0:0:
235,170,56010,1,8,1:2:0:0:
280,23,56195,1,2,3:2:0:0:
318,260,56380,6,0,L|333:355,1,95.9999970703126,0|2,3:2|0:0,0:0:0:0:
174,112,56751,2,0,L|189:17,1,95.9999970703126,8|0,1:2|0:0,0:0:0:0:
406,79,57121,2,0,P|362:97|314:93,1,95.9999970703126,2|2,3:2|2:2,0:0:0:0:
98,3,57491,2,0,P|144:0|189:17,1,95.9999970703126,10|2,1:2|0:0,0:0:0:0:
51,217,57862,6,0,B|27:137|75:157|51:75,1,143.999995605469,2|2,3:2|0:0,0:0:0:0:
14,0,58232,1,8,1:2:0:0:
127,180,58417,1,2,0:0:0:0:
344,143,58603,2,0,B|264:167|284:119|202:143,1,143.999995605469,2|0,3:1|0:0,0:0:0:0:
127,180,58973,1,10,1:2:0:0:
307,67,59158,1,2,3:2:0:0:
413,282,59343,6,0,B|439:339|500:349|500:349|503:320,1,143.999995605469,2|2,3:2|0:0,0:0:0:0:
512,235,59714,1,10,1:2:0:0:
344,143,59899,1,2,0:0:0:0:
241,219,60084,1,2,1:1:0:0:
241,219,60177,1,0,0:0:0:0:
241,219,60269,1,2,0:0:0:0:
307,67,60454,1,10,1:2:0:0:
422,175,60640,1,2,0:0:0:0:
422,175,60732,1,2,0:2:0:0:
422,175,60825,6,0,B|426:127|426:127|404:85|404:85|408:36,1,143.999995605469,6|2,3:2|0:0,0:0:0:0:
486,69,61195,1,8,1:2:0:0:
344,143,61380,1,2,3:2:0:0:
128,125,61565,2,0,B|176:129|176:129|218:107|218:107|267:111,1,143.999995605469,2|0,3:1|0:0,0:0:0:0:
234,189,61936,1,8,1:2:0:0:
160,47,62120,1,2,0:2:0:0:
28,208,62306,6,0,P|64:240|110:247,1,95.9999970703126,0|0,3:2|0:2,0:0:0:0:
266,111,62677,2,0,P|218:106|177:127,1,95.9999970703126,8|0,1:2|0:2,0:0:0:0:
130,329,63047,2,0,P|171:305|193:264,1,95.9999970703126,0|2,3:2|2:2,0:0:0:0:
112,73,63417,2,0,P|92:117|100:163,1,95.9999970703126,8|2,1:2|2:2,0:0:0:0:
262,314,63788,6,0,P|276:246|234:189,1,143.999995605469,2|2,3:2|0:3,0:0:0:0:
193,263,64158,1,8,1:2:0:0:
266,111,64343,1,2,0:0:0:0:
31,112,64528,2,0,P|17:180|59:237,1,143.999995605469,2|2,1:1|3:2,0:0:0:0:
100,163,64898,1,8,1:2:0:0:
27,315,65083,1,0,2:2:0:0:
262,314,65269,5,0,3:0:0:0:
217,120,65454,2,0,L|209:167,1,47.9999985351563,2|0,0:0|0:0,0:0:0:0:
193,263,65640,1,8,1:2:0:0:
100,163,65825,1,0,0:0:0:0:
322,223,66010,1,0,3:0:0:0:
133,354,66195,1,4,1:2:0:0:
344,223,66380,2,0,P|392:228|434:253,1,95.9999970703126,6|2,1:0|0:0,0:0:0:0:
209,167,66751,6,0,P|202:135|190:41,1,128,4|2,3:1|0:0,0:0:0:0:
263,0,67306,1,0,3:0:0:0:
107,40,67491,2,0,P|78:36|44:30,1,64,0|0,3:0|2:0,0:0:0:0:
0,97,67769,1,0,0:0:0:0:
0,97,67862,2,0,P|11:123|22:156,1,64,0|0,1:0|3:0,0:0:0:0:
67,332,68232,6,0,P|38:295|35:247,1,96,2|0,3:2|0:0,0:0:0:0:
46,217,68603,2,0,P|34:190|23:157,1,64,2|0,2:0|0:0,0:0:0:0:
115,266,68973,1,0,0:0:0:0:
209,167,69158,1,4,0:0:0:0:
209,167,69343,2,0,L|201:104,1,64,4|0,1:2|3:0,0:0:0:0:
254,273,69714,6,0,L|191:265,2,64,4|0|2,3:1|0:0|0:0,0:0:0:0:
381,289,70269,1,0,3:0:0:0:
270,350,70454,1,0,3:0:0:0:
323,234,70640,1,0,2:0:0:0:
323,234,70825,1,0,1:0:0:0:
347,361,71010,1,0,3:0:0:0:
254,273,71195,6,0,P|244:243|247:212,1,64,2|0,3:2|0:0,0:0:0:0:
261,182,71473,1,2,0:0:0:0:
261,182,71565,1,0,1:0:0:0:
337,155,71751,1,0,0:0:0:0:
323,234,71936,1,0,3:0:0:0:
275,103,72121,1,0,3:2:0:0:
275,103,72306,2,0,L|212:95,1,64,4|0,0:2|0:0,0:0:0:0:
55,162,72677,6,0,P|58:117|69:64,1,95.9999970703126,6|0,3:2|3:2,0:0:0:0:
198,0,73047,2,0,P|201:45|212:98,1,95.9999970703126,10|2,1:2|3:2,0:0:0:0:
315,225,73417,6,0,P|320:158|336:78,1,143.999995605469,2|2,3:2|0:0,0:0:0:0:
374,7,73788,1,10,1:2:0:0:
423,158,73973,1,2,0:0:0:0:
335,368,74158,6,0,P|331:301|314:221,1,143.999995605469,2|0,3:1|0:0,0:0:0:0:
276,150,74528,1,10,1:2:0:0:
227,301,74714,1,0,0:0:0:0:
222,87,74899,1,6,1:2:0:0:
173,238,75084,1,2,3:2:0:0:
173,238,75177,1,2,3:2:0:0:
173,238,75269,1,8,1:2:0:0:
97,145,75454,1,2,3:2:0:0:
56,258,75640,6,0,L|68:354,1,95.9999970703126,2|2,1:1|0:0,0:0:0:0:
185,143,76010,2,0,L|172:252,1,95.9999970703126,8|2,1:2|3:2,0:0:0:0:
35,91,76380,1,2,1:2:0:0:
173,238,76565,5,2,3:2:0:0:
205,234,76658,1,2,3:2:0:0:
237,230,76751,1,0,3:0:0:0:
269,226,76843,1,2,0:0:0:0:
301,222,76936,1,2,0:0:0:0:
333,218,77028,1,2,0:0:0:0:
365,214,77121,6,0,P|353:259|353:310,2,95.9999970703126,4|0|0,1:2|0:0|0:0,0:0:0:0:
490,137,78232,2,0,P|455:135|418:125,1,71.9999978027344,0|0,0:0|0:0,0:0:0:0:
345,95,78603,5,0,3:0:0:0:
281,144,78788,1,2,0:0:0:0:
334,16,78973,1,0,3:0:0:0:
419,126,79158,1,2,2:0:0:0:
217,193,79343,5,0,3:0:0:0:
281,144,79528,1,2,0:0:0:0:
228,272,79714,1,0,3:2:0:0:
143,162,79899,1,2,0:0:0:0:
345,95,80084,6,0,P|361:132|357:170,1,80,0|0,1:0|0:0,0:0:0:0:
324,314,80362,2,0,P|308:278|313:238,1,80,0|0,1:0|0:0,0:0:0:0:
388,360,80640,1,2,1:0:0:0:
475,226,80825,1,0,1:0:0:0:
475,226,81195,6,0,L|436:231,3,40,0|0|0|0,0:0|0:0|0:0|0:0,0:0:0:0:
501,141,81565,6,0,L|381:157,1,120,4|0,2:0|0:0,0:0:0:0:
303,168,81936,5,8,0:0:0:0:
412,84,82121,1,8,3:2:0:0:
352,230,82306,5,2,0:0:0:0:
254,106,82491,1,2,2:2:0:0:
382,157,82677,1,8,0:0:0:0:
224,179,82862,1,0,0:0:0:0:
284,33,83047,5,2,3:3:0:0:
303,168,83232,1,8,0:0:0:0:
175,117,83417,5,8,0:0:0:0:
303,168,83603,1,0,0:0:0:0:
196,253,83788,5,8,3:2:0:0:
303,168,83973,1,2,3:2:0:0:
322,303,84158,6,0,P|364:340|441:323,1,128,0|0,1:2|3:0,0:0:0:0:
484,270,84436,1,0,0:0:0:0:
484,270,84528,6,0,P|507:302|497:378,1,120,4|0,2:0|0:0,0:0:0:0:
431,331,84899,5,8,0:0:0:0:
390,182,85084,1,8,3:2:0:0:
322,303,85269,5,2,0:0:0:0:
391,262,85454,1,2,3:3:0:0:
251,184,85640,1,8,0:0:0:0:
252,264,85825,1,0,0:0:0:0:
459,141,86010,5,2,3:3:0:0:
321,223,86195,1,8,0:0:0:0:
461,301,86380,5,8,0:0:0:0:
321,223,86565,1,0,0:0:0:0:
183,305,86751,5,0,0:0:0:0:
321,223,86936,1,2,0:0:0:0:
181,145,87121,5,2,0:0:0:0:
