osu file format v14

[General]
AudioFilename: audio.mp3
AudioLeadIn: 0
PreviewTime: 54806
Countdown: 0
SampleSet: Soft
StackLeniency: 0.5
Mode: 0
LetterboxInBreaks: 0
WidescreenStoryboard: 1

[Editor]
DistanceSpacing: 0.7
BeatDivisor: 4
GridSize: 8
TimelineZoom: 1.7

[Metadata]
Title:Yumeji Labyrinth (TV Size)
TitleUnicode:夢路らびりんす (TV Size)
Artist:LABYRINTHS
ArtistUnicode:らびりんず
Creator:Setu
Version:Fantasia
Source:うらら迷路帖
Tags:shiratamamywife strengemistake calvaria present angelsnow narcissu kencho driftthe japanese pop jpop j-pop anime op opening urara meirochou 原田彩楓 本渡 楓 久保ユリカ 佳村はるか Sayaka Harada Kaede Hondo Yurika Kubo Haruka Yoshimura 千矢 chiya 紺 kon 小梅 koume ノノ nono 高瀬愛虹 山田高弘 大川茂伸 Takase Aiko Yamada Takahiro Okawa Shigenobu
BeatmapID:3323034
BeatmapSetID:1611208

[Difficulty]
HPDrainRate:6
CircleSize:4
OverallDifficulty:8.8
ApproachRate:9.2
SliderMultiplier:1.5
SliderTickRate:1

[Events]
//Background and Video events
0,0,"82611339_p0.jpg",0,0
//Break Periods
//Storyboard Layer 0 (Background)
//Storyboard Layer 1 (Fail)
//Storyboard Layer 2 (Pass)
//Storyboard Layer 3 (Foreground)
//Storyboard Layer 4 (Overlay)
//Storyboard Sound Samples

[TimingPoints]
1566,370.37037037037,4,2,1,45,1,0
1566,-133.333333333333,4,2,1,45,0,0
7491,-111.111111111111,4,2,1,65,0,0
13788,-100,4,2,1,65,0,0
17121,-76.9230769230769,4,2,1,65,0,0
17862,-400,4,2,1,65,0,0
19343,-76.9230769230769,4,2,1,65,0,0
20825,-95.2380952380951,4,2,1,65,0,0
22306,-68.9655172413793,4,2,1,75,0,1
28232,-80,4,2,1,65,0,0
40084,-117.647058823529,4,2,1,65,0,0
49714,-95.238095238095,4,2,1,65,0,0
50454,-80,4,2,1,65,0,0
51936,-80,4,2,1,70,0,0
54899,-66.6666666666667,4,2,1,75,0,1
66751,-83.3333333333333,4,2,1,75,0,0
78603,-83.3333333333333,4,2,1,65,0,0
81195,-166.666666666667,4,2,1,65,0,0
81565,-68.9655172413793,4,2,1,75,0,1
87121,-68.9655172413793,4,2,1,75,0,0

[Colours]
Combo1 : 48,209,144
Combo2 : 93,170,255
Combo3 : 242,164,84

[HitObjects]
122,148,1566,6,0,P|110:107|123:64,2,84.3750032186509,2|0|0,2:2|2:2|2:2,0:0:0:0:
196,183,2306,2,0,P|207:223|194:266,2,84.3750032186509,2|0|0,2:2|2:2|2:2,0:0:0:0:
80,215,3047,6,0,P|106:224|134:224,1,56.2500021457673,2|0,2:2|0:0,0:0:0:0:
240,120,3417,2,0,P|213:110|185:110,1,56.2500021457673,2|0,2:2|0:0,0:0:0:0:
150,294,3788,6,0,P|175:282|195:263,1,56.2500021457673,2|0,2:2|0:0,0:0:0:0:
171,37,4158,2,0,P|145:48|125:67,1,56.2500021457673,2|0,2:2|0:0,0:0:0:0:
296,176,4528,2,0,P|333:188|390:175,2,84.3750032186509,2|0|0,2:2|2:2|2:2,0:0:0:0:
456,227,5269,2,0,P|427:253|409:308,2,84.3750032186509,2|0|0,2:2|2:2|2:2,0:0:0:0:
330,339,6010,2,0,P|321:300|282:258,2,84.3750032186509,2|0|0,2:2|2:2|2:2,0:0:0:0:
296,176,6751,1,2,2:2:0:0:
195,262,6936,1,2,2:2:0:0:
252,50,7121,1,0,2:2:0:0:
274,79,7213,1,0,2:2:0:0:
307,97,7306,1,0,2:2:0:0:
344,102,7398,1,0,2:2:0:0:
380,91,7491,6,0,P|413:74|475:76,1,101.249996910095,4|0,2:2|2:2,0:0:0:0:
499,110,7862,2,0,L|489:185,1,67.4999979400635,0|2,1:1|2:2,0:0:0:0:
296,176,8232,6,0,P|263:159|200:161,1,101.249996910095,2|0,3:2|2:2,0:0:0:0:
177,195,8603,2,0,L|187:270,1,67.4999979400635,0|2,1:1|2:2,0:0:0:0:
330,339,8973,6,0,L|338:272,1,67.4999979400635,0|2,3:3|2:2,0:0:0:0:
168,127,9343,2,0,L|176:194,1,67.4999979400635,0|0,1:1|2:2,0:0:0:0:
380,91,9714,2,0,L|296:78,1,67.4999979400635,0|2,3:3|2:2,0:0:0:0:
166,281,10084,1,0,1:0:0:0:
347,195,10269,1,0,3:0:0:0:
179,50,10454,6,0,P|143:93|83:95,1,101.249996910095,6|0,3:2|2:2,0:0:0:0:
38,62,10825,1,0,1:1:0:0:
189,153,11010,1,2,3:2:0:0:
53,330,11195,6,0,P|38:286|71:223,1,101.249996910095,0|0,3:3|2:2,0:0:0:0:
119,198,11565,1,0,1:1:0:0:
243,356,11751,1,2,2:1:0:0:
258,146,11936,5,4,3:2:0:0:
128,284,12121,1,2,2:2:0:0:
100,99,12306,1,0,1:1:0:0:
338,152,12491,5,2,3:2:0:0:
331,184,12583,1,0,0:0:0:0:
308,210,12676,1,0,1:1:0:0:
179,50,12862,5,0,1:1:0:0:
179,50,12954,1,2,2:2:0:0:
179,50,13047,1,0,1:1:0:0:
450,6,13232,5,0,2:2:0:0:
450,6,13325,1,0,1:1:0:0:
450,6,13417,2,0,P|467:60|435:122,1,101.249996910095,6|0,3:2|0:0,0:0:0:0:
309,68,13788,2,0,L|393:53,1,75,10|0,2:2|2:2,0:0:0:0:
357,254,14158,2,0,L|231:234,1,112.5,2|2,3:2|2:2,0:0:0:0:
177,270,14528,1,8,2:2:0:0:
309,68,14714,1,2,2:2:0:0:
64,12,14899,6,0,L|77:137,1,112.5,2|2,3:2|2:2,0:0:0:0:
130,178,15269,1,8,2:2:0:0:
24,353,15454,1,2,2:2:0:0:
5,166,15640,1,0,3:3:0:0:
177,270,15825,1,0,3:3:0:0:
177,270,15917,1,8,3:2:0:0:
177,270,16010,1,8,2:2:0:0:
65,248,16195,1,0,3:3:0:0:
251,233,16380,6,0,P|259:278|238:326,1,75,4|0,3:2|2:2,0:0:0:0:
130,178,16751,2,0,P|122:133|143:85,1,75,8|0,2:2|3:3,0:0:0:0:
325,16,17121,1,2,3:2:0:0:
392,170,17306,5,8,1:2:0:0:
359,165,17398,1,0,1:1:0:0:
327,161,17491,1,2,2:2:0:0:
295,156,17583,1,2,2:2:0:0:
263,152,17676,1,2,2:2:0:0:
231,147,17768,1,2,2:2:0:0:
198,143,17861,5,6,2:2:0:0:
153,301,19343,5,0,3:3:0:0:
266,122,19528,1,2,2:2:0:0:
67,182,19714,1,0,3:3:0:0:
224,315,19899,1,2,2:2:0:0:
205,81,20084,5,0,3:3:0:0:
153,301,20269,1,2,2:2:0:0:
327,161,20454,1,0,3:3:0:0:
115,89,20640,1,2,2:2:0:0:
392,210,20825,6,0,P|408:172|391:118,1,78.7499975967408,0|0,1:1|2:2,0:0:0:0:
249,176,21103,2,0,L|334:159,1,78.7499975967408,0|0,1:1|2:2,0:0:0:0:
337,83,21380,1,2,1:1:0:0:
318,243,21565,1,0,1:1:0:0:
318,243,21936,5,4,3:3:0:0:
321,262,22028,1,0,3:2:0:0:
324,281,22121,1,0,2:2:0:0:
327,301,22213,1,0,2:2:0:0:
331,322,22306,6,0,P|281:339|221:315,1,108.750003318787,4|0,2:2|0:0,0:0:0:0:
90,260,22584,1,0,2:2:0:0:
90,260,22677,2,0,P|128:254|155:229,1,54.3750016593934,8|0,2:2|0:0,0:0:0:0:
232,143,22862,2,0,L|221:64,1,54.3750016593934,8|0,3:2|0:0,0:0:0:0:
214,15,23047,5,2,2:2:0:0:
91,182,23232,1,2,3:3:0:0:
91,182,23325,1,0,0:0:0:0:
91,182,23417,1,2,2:2:0:0:
300,256,23603,1,8,2:2:0:0:
71,74,23788,5,2,3:3:0:0:
323,31,23973,1,8,2:2:0:0:
323,31,24065,1,0,0:0:0:0:
323,31,24158,1,2,3:2:0:0:
177,266,24343,1,2,1:3:0:0:
214,15,24528,5,8,3:2:0:0:
409,184,24714,1,2,3:2:0:0:
409,184,24806,1,0,0:0:0:0:
409,184,24899,2,0,L|288:171,1,108.750003318787,0|0,1:1|3:3,0:0:0:0:
68,277,25269,6,0,L|189:264,1,108.750003318787,4|0,2:2|0:0,0:0:0:0:
250,306,25548,1,0,2:2:0:0:
250,306,25640,2,0,P|258:276|250:237,1,54.3750016593934,0|0,1:1|0:0,0:0:0:0:
104,133,25825,1,2,3:2:0:0:
104,133,25917,1,0,0:0:0:0:
104,133,26010,5,2,2:2:0:0:
169,363,26195,1,10,3:2:0:0:
287,86,26380,1,10,2:2:0:0:
68,277,26565,1,2,2:2:0:0:
68,277,26658,1,0,0:0:0:0:
68,277,26751,5,2,3:2:0:0:
343,371,26936,1,0,3:3:0:0:
343,371,27028,1,0,0:0:0:0:
343,371,27121,1,0,1:1:0:0:
216,55,27306,1,2,3:2:0:0:
216,55,27399,1,0,0:0:0:0:
216,55,27491,6,0,P|210:91|227:128,1,54.3750016593934,0|0,3:3|0:0,0:0:0:0:
441,251,27677,2,0,P|447:215|430:178,1,54.3750016593934,8|0,2:2|0:0,0:0:0:0:
202,262,27862,2,0,L|273:250,1,54.3750016593934,2|0,2:2|0:0,0:0:0:0:
379,99,28047,1,2,3:2:0:0:
379,99,28140,1,0,0:0:0:0:
379,99,28232,6,0,L|268:83,1,93.75,6|0,3:2|2:2,0:0:0:0:
34,167,28603,2,0,P|70:208|124:204,1,93.75,8|0,2:2|0:0,0:0:0:0:
112,86,28881,1,0,3:3:0:0:
112,86,28973,2,0,L|98:162,1,46.875,0|0,3:3|0:0,0:0:0:0:
202,262,29158,2,0,L|184:160,1,93.75,0|8,3:3|2:2,0:0:0:0:
286,85,29528,1,0,3:3:0:0:
458,340,29714,6,0,P|403:332|329:324,1,93.75,2|0,3:2|2:2,0:0:0:0:
443,112,30084,2,0,P|489:130|509:187,1,93.75,8|0,2:2|0:0,0:0:0:0:
434,235,30362,1,0,2:2:0:0:
434,235,30454,2,0,P|434:194|442:171,1,46.875,0|0,3:3|0:0,0:0:0:0:
359,53,30640,2,0,P|367:100|340:149,1,93.75,0|8,3:3|2:2,0:0:0:0:
277,241,31010,1,0,3:3:0:0:
164,144,31195,6,0,P|112:130|54:145,1,93.75,0|0,3:3|3:3,0:0:0:0:
51,166,31473,1,2,2:2:0:0:
51,166,31565,2,0,L|39:278,1,93.75,8|0,2:2|0:0,0:0:0:0:
34,337,31843,1,0,2:2:0:0:
34,337,31936,1,0,3:3:0:0:
152,219,32121,1,0,3:3:0:0:
11,80,32306,1,8,2:2:0:0:
41,259,32491,1,2,3:2:0:0:
192,138,32677,6,0,P|219:133|254:141,3,46.875,0|0|0|0,3:3|0:0|2:2|2:2,0:0:0:0:
303,192,33047,2,0,P|330:197|365:189,3,46.875,8|0|0|8,2:2|0:0|0:0|2:2,0:0:0:0:
415,144,33417,2,0,L|426:86,1,46.875,8|0,2:2|0:0,0:0:0:0:
224,220,33603,1,8,2:2:0:0:
224,220,33695,1,8,2:2:0:0:
224,220,33788,2,0,L|235:278,1,46.875,8|0,2:2|0:0,0:0:0:0:
332,120,33973,1,14,2:2:0:0:
433,354,34158,6,0,P|376:328|294:337,1,140.625,0|0,3:3|0:0,0:0:0:0:
221,359,34528,2,0,L|234:255,1,93.75,8|0,2:2|0:0,0:0:0:0:
349,198,34807,1,0,2:2:0:0:
349,198,34899,2,0,L|358:261,1,46.875,0|0,3:3|0:0,0:0:0:0:
238,135,35084,2,0,L|250:27,1,93.75,0|8,3:3|2:2,0:0:0:0:
404,18,35454,5,2,2:2:0:0:
404,18,35547,1,0,2:2:0:0:
404,18,35640,2,0,P|434:61|523:57,1,140.625,0|0,3:3|0:0,0:0:0:0:
486,147,36010,2,0,L|476:250,1,93.75,8|0,2:2|0:0,0:0:0:0:
349,198,36288,1,0,3:3:0:0:
349,198,36381,2,0,L|290:206,1,46.875,0|0,3:3|0:0,0:0:0:0:
244,88,36565,2,0,L|342:101,1,93.75,0|8,3:3|2:2,0:0:0:0:
404,18,36936,1,0,3:3:0:0:
181,17,37121,6,0,P|152:72|191:162,1,140.625,0|0,3:3|2:2,0:0:0:0:
244,88,37491,1,10,3:2:0:0:
179,308,37677,1,0,0:0:0:0:
179,308,37769,1,0,2:2:0:0:
179,308,37862,1,2,2:2:0:0:
67,89,38047,1,2,3:2:0:0:
302,204,38232,1,8,2:2:0:0:
78,343,38417,1,2,2:2:0:0:
244,88,38603,6,0,P|271:77|303:80,3,46.875,2|0|0|0,3:2|0:0|3:3|2:2,0:0:0:0:
70,165,38973,2,0,P|46:163|25:153,3,46.875,8|0|0|0,2:2|0:0|0:0|2:2,0:0:0:0:
242,269,39343,2,0,P|253:296|254:322,1,46.875,2|0,3:2|0:0,0:0:0:0:
187,195,39528,5,8,3:2:0:0:
231,180,39620,1,10,2:2:0:0:
276,190,39714,2,0,P|294:196|337:187,1,46.875,8|2,3:2|2:2,0:0:0:0:
442,124,39899,1,2,2:2:0:0:
442,124,39991,1,2,2:2:0:0:
442,124,40084,6,0,L|432:259,1,127.50000243187,4|2,2:2|3:2,0:0:0:0:
304,122,40640,1,2,3:2:0:0:
409,46,40825,2,0,P|454:41|509:91,1,95.6250018239022,2|0,3:2|0:0,0:0:0:0:
479,151,41195,2,0,P|434:156|379:106,1,95.6250018239022,0|0,1:1|0:0,0:0:0:0:
304,122,41565,6,0,P|253:131|191:152,2,95.6250018239022,2|0|0,3:2|2:2|3:3,0:0:0:0:
392,130,42306,1,0,3:3:0:0:
295,255,42491,1,0,1:1:0:0:
243,54,42677,1,4,1:2:0:0:
243,54,42769,1,0,0:0:0:0:
243,54,42862,1,0,0:0:0:0:
356,271,43047,6,0,P|301:255|273:253,1,63.7500012159348,0|0,3:3|0:0,0:0:0:0:
181,70,43417,2,0,P|212:64|242:53,1,63.7500012159348,0|0,3:3|2:2,0:0:0:0:
389,19,43788,2,0,L|378:96,1,63.7500012159348,0|0,3:3|2:2,0:0:0:0:
218,296,44158,2,0,L|207:219,1,63.7500012159348,0|0,1:1|2:2,0:0:0:0:
425,236,44528,6,0,P|433:289|396:338,1,95.6250018239022,0|0,3:3|2:2,0:0:0:0:
356,271,44899,1,2,3:2:0:0:
490,189,45084,1,2,3:2:0:0:
351,119,45269,1,8,3:2:0:0:
425,236,45454,1,4,2:2:0:0:
474,21,45640,1,4,1:2:0:0:
474,21,46010,6,0,P|442:45|349:36,1,127.50000243187,4|0,2:2|2:2,0:0:0:0:
293,2,46565,1,0,2:2:0:0:
356,271,46751,1,8,3:3:0:0:
356,271,46936,1,8,3:3:0:0:
490,189,47306,5,0,1:1:0:0:
490,189,47399,1,0,1:1:0:0:
490,189,47491,2,0,L|478:289,2,95.6250018239022,0|0|0,1:1|1:1|1:1,0:0:0:0:
437,126,48232,1,0,1:1:0:0:
356,271,48417,1,0,1:1:0:0:
335,295,48509,1,0,1:1:0:0:
308,311,48603,2,0,P|272:318|221:306,1,63.7500012159348,0|0,1:1|0:0,0:0:0:0:
116,211,48973,6,0,L|217:196,1,95.6250018239022,6|0,3:2|2:2,0:0:0:0:
281,232,49343,2,0,P|292:188|278:147,1,63.7500012159348,8|2,3:2|2:2,0:0:0:0:
399,85,49714,6,0,L|276:66,1,118.124996395111,2|0,3:2|2:2,0:0:0:0:
213,101,50084,2,0,P|202:60|215:22,1,78.7499975967408,8|2,3:2|3:2,0:0:0:0:
210,196,50454,6,0,L|62:177,1,140.625,6|0,3:2|2:2,0:0:0:0:
24,118,50825,2,0,P|-5:176|26:237,1,93.75,8|2,3:2|3:2,0:0:0:0:
171,327,51195,6,0,L|319:308,1,140.625,2|0,3:2|2:2,0:0:0:0:
357,249,51566,2,0,P|386:307|355:368,1,93.75,8|8,3:2|2:2,0:0:0:0:
210,196,51936,5,2,3:2:0:0:
399,85,52121,1,2,3:2:0:0:
310,309,52306,1,0,3:3:0:0:
212,26,52491,1,0,3:3:0:0:
462,207,52677,5,2,3:2:0:0:
171,327,52862,1,2,3:2:0:0:
313,38,53047,1,0,3:3:0:0:
405,355,53232,5,2,3:2:0:0:
84,249,53417,1,0,3:3:0:0:
84,249,54899,6,0,P|148:227|222:308,1,168.750006437302,6|2,1:2|2:2,0:0:0:0:
140,310,55269,1,8,1:2:0:0:
253,112,55454,1,2,2:2:0:0:
429,300,55640,6,0,P|365:322|291:241,1,168.750006437302,0|0,3:3|2:2,0:0:0:0:
373,239,56010,1,8,1:2:0:0:
140,310,56195,1,2,3:2:0:0:
316,62,56380,6,0,L|445:83,1,112.500004291535,0|2,3:3|2:2,0:0:0:0:
205,177,56751,2,0,L|76:198,1,112.500004291535,8|0,1:2|2:2,0:0:0:0:
253,112,57121,2,0,P|282:159|257:236,1,112.500004291535,2|2,3:2|2:2,0:0:0:0:
43,257,57491,2,0,P|14:210|39:133,1,112.500004291535,10|2,1:2|2:2,0:0:0:0:
143,264,57862,6,0,P|120:327|-7:339,1,168.750006437302,2|2,3:2|2:2,0:0:0:0:
43,257,58232,1,8,1:2:0:0:
220,361,58417,1,2,2:2:0:0:
375,82,58603,6,0,L|198:63,1,168.750006437302,2|0,3:1|2:2,0:0:0:0:
131,53,58973,1,10,1:2:0:0:
290,299,59158,1,2,3:2:0:0:
56,216,59343,6,0,P|105:224|183:131,1,168.750006437302,2|2,3:2|2:2,0:0:0:0:
131,53,59714,1,10,1:2:0:0:
208,273,59899,1,2,2:2:0:0:
296,20,60084,1,2,1:1:0:0:
296,20,60177,1,0,2:2:0:0:
296,20,60269,2,0,P|260:21|229:31,1,56.2500021457673,2|0,2:2|0:0,0:0:0:0:
100,144,60454,1,10,1:2:0:0:
347,376,60640,5,2,2:2:0:0:
347,376,60732,1,2,2:2:0:0:
347,376,60825,2,0,P|381:300|346:214,1,168.750006437302,6|2,3:2|2:2,0:0:0:0:
289,185,61195,1,8,1:2:0:0:
477,337,61380,1,2,3:2:0:0:
290,299,61565,6,0,L|96:321,1,168.750006437302,2|0,3:1|2:2,0:0:0:0:
64,361,61936,1,8,1:2:0:0:
139,49,62121,1,2,2:2:0:0:
354,222,62306,6,0,L|471:239,1,112.500004291535,0|0,3:3|2:2,0:0:0:0:
320,80,62677,2,0,L|203:97,1,112.500004291535,8|0,1:2|2:2,0:0:0:0:
396,120,63047,2,0,P|404:64|364:8,1,112.500004291535,0|2,3:3|2:2,0:0:0:0:
139,49,63417,2,0,P|128:110|166:164,1,112.500004291535,8|2,1:2|2:2,0:0:0:0:
305,248,63788,6,0,L|320:71,1,168.750006437302,2|2,3:2|2:3,0:0:0:0:
275,10,64158,1,8,1:2:0:0:
396,120,64343,1,2,2:2:0:0:
217,203,64528,2,0,P|159:235|70:169,1,168.750006437302,2|2,1:1|3:2,0:0:0:0:
151,152,64899,1,8,1:2:0:0:
305,248,65084,1,0,2:2:0:0:
213,351,65269,5,0,3:3:0:0:
309,106,65454,1,2,2:2:0:0:
309,106,65547,1,0,2:2:0:0:
309,106,65640,2,0,P|316:141|324:174,1,56.2500021457673,8|0,1:2|0:0,0:0:0:0:
398,348,65825,1,0,2:2:0:0:
163,279,66010,5,0,3:3:0:0:
410,149,66195,1,4,1:2:0:0:
310,379,66380,1,6,1:1:0:0:
151,152,66565,1,2,2:2:0:0:
437,276,66751,6,0,B|388:254|349:286|349:286|307:316|246:288,1,179.999994506836,4|2,3:1|2:2,0:0:0:0:
299,226,67306,1,0,3:3:0:0:
477,343,67491,2,0,P|509:303|504:242,1,89.9999972534181,0|0,3:3|0:0,0:0:0:0:
392,123,67862,1,0,1:1:0:0:
310,379,68047,1,0,3:3:0:0:
89,194,68232,6,0,P|156:157|228:170,1,134.999995880127,2|0,3:2|2:2,0:0:0:0:
234,176,68603,2,0,L|222:271,1,89.9999972534181,2|0,2:2|2:2,0:0:0:0:
151,79,68973,1,2,2:2:0:0:
312,20,69158,1,4,2:2:0:0:
312,20,69343,2,0,L|412:10,1,89.9999972534181,4|0,1:2|3:3,0:0:0:0:
507,230,69714,6,0,P|436:233|379:138,1,179.999994506836,4|2,3:1|2:2,0:0:0:0:
473,57,70269,1,0,3:3:0:0:
473,57,70454,2,0,L|465:155,1,89.9999972534181,0|0,3:3|2:2,0:0:0:0:
324,255,70825,1,0,1:1:0:0:
378,150,71010,1,0,3:3:0:0:
378,150,71103,1,0,0:0:0:0:
378,150,71195,5,2,3:2:0:0:
453,340,71380,1,0,0:0:0:0:
506,231,71565,1,0,1:1:0:0:
262,211,71751,1,0,2:2:0:0:
262,211,71843,1,0,0:0:0:0:
262,211,71936,2,0,P|247:262|271:313,1,89.9999972534181,0|0,3:3|3:3,0:0:0:0:
415,267,72306,2,0,L|323:255,1,89.9999972534181,4|0,2:2|2:2,0:0:0:0:
225,132,72677,6,0,P|293:130|342:189,1,134.999995880127,6|0,3:2|0:0,0:0:0:0:
453,89,73047,2,0,L|354:76,1,89.9999972534181,10|2,1:2|3:2,0:0:0:0:
262,211,73417,1,2,3:2:0:0:
474,326,73603,1,0,0:0:0:0:
474,326,73695,1,2,2:2:0:0:
474,326,73788,2,0,P|498:279|477:215,1,89.9999972534181,10|2,1:2|2:2,0:0:0:0:
216,280,74158,6,0,L|68:304,1,134.999995880127,2|0,3:1|2:2,0:0:0:0:
22,260,74528,1,10,1:2:0:0:
162,374,74714,1,0,2:2:0:0:
203,77,74899,5,6,1:2:0:0:
142,282,75084,1,2,3:2:0:0:
142,282,75177,1,2,3:2:0:0:
142,282,75269,1,8,1:2:0:0:
323,168,75454,1,2,3:2:0:0:
130,112,75640,6,0,P|122:67|143:19,1,89.9999972534181,2|2,1:1|2:2,0:0:0:0:
397,135,76010,2,0,P|405:180|384:228,1,89.9999972534181,8|2,1:2|3:2,0:0:0:0:
216,280,76381,1,2,1:2:0:0:
277,69,76566,5,2,3:2:0:0:
310,64,76658,1,2,3:2:0:0:
342,60,76751,1,0,3:3:0:0:
374,55,76843,1,2,2:2:0:0:
406,51,76936,1,2,2:2:0:0:
438,46,77028,1,2,2:2:0:0:
471,42,77121,5,4,1:2:0:0:
336,86,78603,5,0,3:3:0:0:
208,275,78788,1,2,2:2:0:0:
423,204,78974,1,0,3:3:0:0:
244,63,79159,1,2,2:2:0:0:
283,307,79344,5,0,3:3:0:0:
336,86,79529,1,2,2:2:0:0:
153,218,79714,1,0,3:3:0:0:
373,299,79900,1,2,2:2:0:0:
153,218,80084,6,0,L|44:235,1,89.9999972534181,0|0,1:1|2:2,0:0:0:0:
178,122,80362,2,0,L|287:139,1,89.9999972534181,0|0,1:1|2:2,0:0:0:0:
208,275,80640,1,2,1:1:0:0:
107,64,80825,1,0,1:1:0:0:
107,64,81195,6,0,L|97:137,1,67.4999979400635,0|0,2:2|2:2,0:0:0:0:
95,151,81565,2,0,P|42:161|-12:98,1,108.750003318787,4|0,2:2|0:0,0:0:0:0:
107,64,81843,1,0,2:2:0:0:
107,64,81936,2,0,L|177:54,1,54.3750016593934,8|0,2:2|0:0,0:0:0:0:
211,241,82121,2,0,L|141:231,1,54.3750016593934,8|0,3:2|0:0,0:0:0:0:
266,135,82306,5,2,2:2:0:0:
189,356,82491,1,2,2:2:0:0:
189,356,82584,1,0,2:2:0:0:
189,356,82677,1,8,2:2:0:0:
96,144,82862,1,0,2:2:0:0:
325,311,83047,5,2,3:3:0:0:
74,254,83232,1,8,2:2:0:0:
74,254,83325,1,8,2:2:0:0:
74,254,83417,1,8,2:2:0:0:
253,56,83603,1,0,2:2:0:0:
189,356,83788,1,8,3:2:0:0:
12,153,83973,1,2,3:2:0:0:
12,153,84065,1,2,2:2:0:0:
12,153,84158,2,0,L|124:140,1,108.750003318787,0|0,1:1|3:3,0:0:0:0:
361,68,84528,6,0,L|249:55,1,108.750003318787,4|0,2:2|0:0,0:0:0:0:
177,17,84806,1,0,2:2:0:0:
177,17,84899,2,0,P|168:47|177:80,1,54.3750016593934,8|0,2:2|0:0,0:0:0:0:
344,202,85084,2,0,P|353:172|344:139,1,54.3750016593934,8|0,3:2|0:0,0:0:0:0:
252,55,85269,5,2,2:2:0:0:
431,0,85454,1,2,3:3:0:0:
177,17,85640,1,8,2:2:0:0:
349,149,85825,1,0,2:2:0:0:
94,240,86010,5,2,3:3:0:0:
257,62,86195,1,8,2:2:0:0:
257,62,86288,1,8,2:2:0:0:
257,62,86380,1,8,2:2:0:0:
311,348,86565,1,0,2:2:0:0:
85,84,86751,5,0,2:2:0:0:
349,149,86936,1,2,2:2:0:0:
252,224,87121,1,2,2:2:0:0:
