osu file format v14

[General]
AudioFilename: audio.mp3
AudioLeadIn: 0
PreviewTime: 54806
Countdown: 0
SampleSet: Soft
StackLeniency: 0.5
Mode: 0
LetterboxInBreaks: 0
WidescreenStoryboard: 1

[Editor]
DistanceSpacing: 0.7
BeatDivisor: 4
GridSize: 4
TimelineZoom: 1.7

[Metadata]
Title:Yumeji Labyrinth (TV Size)
TitleUnicode:夢路らびりんす (TV Size)
Artist:LABYRINTHS
ArtistUnicode:らびりんず
Creator:Setu
Version:DriftThe's Another ft. Setu
Source:うらら迷路帖
Tags:shiratamamywife strengemistake calvaria present angelsnow narcissu kencho driftthe japanese pop jpop j-pop anime op opening urara meirochou 原田彩楓 本渡 楓 久保ユリカ 佳村はるか Sayaka Harada Kaede Hondo Yurika Kubo Haruka Yoshimura 千矢 chiya 紺 kon 小梅 koume ノノ nono 高瀬愛虹 山田高弘 大川茂伸 Takase Aiko Yamada Takahiro Okawa Shigenobu
BeatmapID:3289588
BeatmapSetID:1611208

[Difficulty]
HPDrainRate:5
CircleSize:4
OverallDifficulty:8.5
ApproachRate:9
SliderMultiplier:1.5
SliderTickRate:1

[Events]
//Background and Video events
0,0,"82611339_p0.jpg",0,0
//Break Periods
2,53617,54299
//Storyboard Layer 0 (Background)
//Storyboard Layer 1 (Fail)
//Storyboard Layer 2 (Pass)
//Storyboard Layer 3 (Foreground)
//Storyboard Layer 4 (Overlay)
//Storyboard Sound Samples

[TimingPoints]
1566,370.37037037037,4,2,1,45,1,0
7491,-83.3333333333333,4,2,1,65,0,0
13417,-71.4285714285714,4,2,1,65,0,0
14158,-66.6666666666667,4,2,1,65,0,0
16751,-62.5,4,2,1,65,0,0
17121,-90.9090909090909,4,2,1,65,0,0
19343,-90.9090909090909,4,2,1,65,0,1
20825,-52.6315789473684,4,2,1,65,0,1
21936,-90.9090909090909,4,2,1,65,0,1
22306,-66.6666666666667,4,2,1,75,0,1
24343,-83.3333333333333,4,2,1,75,0,1
25269,-66.6666666666667,4,2,1,75,0,1
28232,-66.6666666666667,4,2,1,65,0,0
28603,-76.9230769230769,4,2,1,65,0,0
31195,-71.4285714285714,4,2,1,65,0,0
34158,-76.9230769230769,4,2,1,65,0,0
38603,-68.9655172413793,4,2,1,65,0,0
40084,-86.9565217391304,4,2,1,65,0,0
40825,-95.2380952380952,4,2,1,65,0,0
41195,-68.9655172413793,4,2,1,65,0,0
41565,-74.0740740740741,4,2,1,65,0,0
43047,-80,4,2,1,65,0,0
44528,-74.0740740740741,4,2,1,65,0,0
45269,-64.5161290322581,4,2,1,65,0,0
45640,-117.647058823529,4,2,1,65,0,0
48973,-95.238095238095,4,2,1,65,0,0
49714,-80,4,2,1,65,0,0
51936,-80,4,2,1,70,0,0
54899,-66.6666666666667,4,2,1,75,0,1
56380,-76.9230769230769,4,2,1,75,0,1
66195,-105.263157894737,4,2,1,75,0,1
66751,-86.9565217391306,4,2,1,75,0,0
71195,-95.238095238095,4,2,1,75,0,0
72677,-74.0740740740741,4,2,1,75,0,0
75640,-76.9230769230769,4,2,1,75,0,0
76380,-71.4285714285714,4,2,1,75,0,0
78603,-71.4285714285714,4,2,1,65,0,0
80084,-52.6315789473684,4,2,1,65,0,0
81195,-90.909090909091,4,2,1,65,0,0
81565,-66.6666666666667,4,2,1,75,0,1
87306,-62.5,4,2,1,75,0,0

[Colours]
Combo1 : 48,209,144
Combo2 : 93,170,255
Combo3 : 242,164,84

[HitObjects]
85,195,1566,6,0,P|140:217|176:276,2,112.5,2|0|0,2:2|2:2|2:2,0:0:0:0:
292,89,2306,2,0,P|237:111|201:170,2,112.5,2|0|0,2:2|2:2|2:2,0:0:0:0:
124,115,3047,6,0,L|38:101,1,75,2|0,2:2|0:0,0:0:0:0:
209,158,3417,2,0,L|295:144,1,75,2|0,2:2|0:0,0:0:0:0:
89,201,3788,2,0,L|79:286,1,75,2|0,2:2|0:0,0:0:0:0:
249,349,4158,2,0,L|239:264,1,75,2|0,2:2|0:0,0:0:0:0:
282,71,4528,6,0,P|327:79|361:159,2,112.5,2|0|0,2:2|2:2|2:2,0:0:0:0:
203,164,5269,2,0,L|79:150,2,112.5,2|0|0,2:2|2:2|2:2,0:0:0:0:
275,237,6010,2,0,L|289:356,1,112.5,2|0,2:2|2:2,0:0:0:0:
341,182,6565,5,0,2:2:0:0:
271,151,6751,1,2,2:2:0:0:
198,170,6936,1,2,2:2:0:0:
254,21,7121,1,0,2:2:0:0:
269,54,7213,1,0,2:2:0:0:
297,79,7306,1,0,2:2:0:0:
332,92,7398,1,0,2:2:0:0:
369,90,7491,6,0,P|415:73|501:100,1,134.999995880127,4|0,2:2|2:2,0:0:0:0:
507,119,7862,2,0,L|497:214,1,89.9999972534181,0|2,1:1|2:2,0:0:0:0:
255,359,8232,2,0,L|237:220,1,134.999995880127,2|0,3:2|2:2,0:0:0:0:
247,201,8603,2,0,P|283:187|348:217,1,89.9999972534181,0|2,1:1|2:2,0:0:0:0:
447,305,8973,6,0,L|338:327,1,89.9999972534181,0|2,3:3|2:2,0:0:0:0:
155,179,9343,2,0,L|264:201,1,89.9999972534181,0|0,1:1|2:2,0:0:0:0:
378,173,9714,2,0,L|365:79,1,89.9999972534181,0|2,3:3|2:2,0:0:0:0:
179,265,10084,2,0,L|166:359,1,89.9999972534181,0|0,1:1|3:3,0:0:0:0:
35,143,10454,6,0,P|29:79|77:22,1,134.999995880127,6|0,3:2|2:2,0:0:0:0:
145,20,10825,1,0,1:1:0:0:
77,214,11010,1,2,3:2:0:0:
237,157,11195,6,0,L|385:141,1,134.999995880127,0|0,3:3|2:2,0:0:0:0:
433,190,11565,1,0,1:1:0:0:
330,27,11751,1,2,2:1:0:0:
199,264,11936,5,4,3:2:0:0:
371,142,12121,1,2,2:2:0:0:
226,43,12306,1,0,1:1:0:0:
254,327,12491,5,2,3:2:0:0:
278,290,12583,1,0,0:0:0:0:
278,245,12676,1,0,1:1:0:0:
145,20,12862,5,0,1:1:0:0:
145,65,12955,1,2,2:2:0:0:
170,102,13047,1,0,1:1:0:0:
330,27,13232,5,0,2:2:0:0:
330,27,13325,1,0,1:1:0:0:
330,27,13417,2,0,L|498:43,1,157.499995193482,6|0,3:2|0:0,0:0:0:0:
512,123,13788,2,0,P|463:136|425:176,1,104.999996795654,10|0,2:2|2:2,0:0:0:0:
314,296,14158,6,0,P|259:309|169:221,1,168.750006437302,2|2,3:2|2:2,0:0:0:0:
231,193,14528,1,8,2:2:0:0:
128,35,14714,1,2,2:2:0:0:
0,165,14899,6,0,L|175:143,1,168.750006437302,2|2,3:2|2:2,0:0:0:0:
231,193,15269,1,8,2:2:0:0:
143,361,15454,1,2,2:2:0:0:
319,301,15640,2,0,L|331:185,1,112.500004291535,0|0,3:3|3:3,0:0:0:0:
292,125,15917,1,8,3:2:0:0:
292,125,16010,1,8,2:2:0:0:
180,266,16195,1,0,3:3:0:0:
357,374,16380,5,4,3:2:0:0:
379,358,16472,1,0,0:0:0:0:
394,334,16565,1,0,2:2:0:0:
224,193,16751,2,0,P|134:196|100:299,1,180,8|0,2:2|0:0,0:0:0:0:
139,357,17121,1,2,3:2:0:0:
320,289,17306,5,8,1:2:0:0:
323,261,17398,1,0,1:1:0:0:
326,234,17491,1,2,2:2:0:0:
330,207,17583,1,2,2:2:0:0:
333,179,17676,1,2,2:2:0:0:
337,152,17768,1,2,2:2:0:0:
340,125,17861,5,6,2:2:0:0:
31,173,19343,5,0,3:3:0:0:
148,113,19528,1,2,2:2:0:0:
208,230,19714,1,0,3:3:0:0:
90,290,19899,1,2,2:2:0:0:
158,108,20084,5,0,3:3:0:0:
212,240,20269,1,2,2:2:0:0:
26,162,20454,1,0,3:3:0:0:
79,294,20640,1,2,2:2:0:0:
129,36,20825,6,0,B|215:10|189:80|283:43,1,142.49999619484,0|0,1:1|2:2,0:0:0:0:
381,2,21103,2,0,L|360:159,1,142.49999619484,0|0,1:1|2:2,0:0:0:0:
317,216,21380,2,0,P|288:192|278:141,1,71.2499980974198,2|0,1:1|0:0,0:0:0:0:
446,92,21565,5,0,1:1:0:0:
399,280,21936,6,0,L|409:333,3,41.2500012588501,4|0|0|0,3:3|3:2|2:2|2:2,0:0:0:0:
387,349,22306,2,0,P|335:370|254:347,1,112.500004291535,4|0,2:2|0:0,0:0:0:0:
181,278,22584,1,0,2:2:0:0:
181,278,22677,2,0,L|170:363,1,56.2500021457673,8|0,2:2|0:0,0:0:0:0:
324,271,22862,2,0,L|313:186,1,56.2500021457673,8|0,3:2|0:0,0:0:0:0:
368,154,23047,5,2,2:2:0:0:
277,358,23232,1,2,3:3:0:0:
277,358,23325,1,0,0:0:0:0:
277,358,23417,1,2,2:2:0:0:
155,163,23603,1,8,2:2:0:0:
254,254,23788,5,2,3:3:0:0:
9,193,23973,1,8,2:2:0:0:
9,193,24065,1,0,0:0:0:0:
9,193,24158,1,2,3:2:0:0:
180,20,24343,1,2,1:3:0:0:
133,286,24528,5,8,3:2:0:0:
229,130,24714,2,0,L|251:74,1,44.999998626709,2|0,3:2|0:0,0:0:0:0:
151,167,24899,2,0,L|44:149,1,89.9999972534181,0|0,1:1|3:3,0:0:0:0:
254,254,25269,6,0,P|311:264|370:230,1,112.500004291535,4|0,2:2|0:0,0:0:0:0:
454,172,25547,1,0,2:2:0:0:
454,172,25640,2,0,L|458:229,1,56.2500021457673,0|0,1:1|0:0,0:0:0:0:
297,383,25825,2,0,L|301:326,1,56.2500021457673,2|0,3:2|0:0,0:0:0:0:
367,165,26010,5,2,2:2:0:0:
511,341,26195,1,10,3:2:0:0:
297,383,26380,1,10,2:2:0:0:
379,277,26565,1,2,2:2:0:0:
379,277,26658,1,0,0:0:0:0:
379,277,26751,5,2,3:2:0:0:
157,162,26936,1,0,3:3:0:0:
162,189,27028,1,0,0:0:0:0:
167,217,27121,1,0,1:1:0:0:
340,87,27306,5,2,3:2:0:0:
345,60,27398,1,0,0:0:0:0:
350,32,27491,1,0,3:3:0:0:
141,88,27677,1,8,2:2:0:0:
295,226,27862,1,2,2:2:0:0:
148,324,28047,1,2,3:2:0:0:
148,324,28140,1,0,0:0:0:0:
148,324,28232,6,0,P|85:321|40:247,1,112.500004291535,6|0,3:2|2:2,0:0:0:0:
141,88,28603,2,0,L|131:206,1,97.4999955368044,8|0,2:2|0:0,0:0:0:0:
247,235,28880,1,0,3:3:0:0:
247,235,28973,2,0,L|313:222,1,48.7499977684022,0|0,3:3|0:0,0:0:0:0:
356,129,29158,1,0,3:3:0:0:
356,129,29251,2,0,L|290:116,1,48.7499977684022,0|8,0:0|2:2,0:0:0:0:
141,88,29528,1,0,3:3:0:0:
386,55,29714,6,0,P|429:93|429:156,1,97.4999955368044,2|0,3:2|2:2,0:0:0:0:
312,327,30084,2,0,L|297:226,1,97.4999955368044,8|0,2:2|0:0,0:0:0:0:
381,216,30361,1,0,2:2:0:0:
381,216,30454,2,0,L|443:227,1,48.7499977684022,0|0,3:3|2:2,0:0:0:0:
299,120,30639,1,0,3:3:0:0:
299,120,30732,2,0,L|237:131,1,48.7499977684022,0|8,2:2|2:2,0:0:0:0:
386,55,31010,1,0,3:3:0:0:
171,30,31195,6,0,P|117:39|93:145,1,157.499995193482,0|2,3:3|2:2,0:0:0:0:
152,173,31565,1,8,2:2:0:0:
51,288,31751,1,0,0:0:0:0:
51,288,31843,1,0,2:2:0:0:
51,288,31936,2,0,P|91:277|156:274,1,104.999996795654,0|0,3:3|3:3,0:0:0:0:
273,346,32306,1,8,2:2:0:0:
152,173,32491,1,2,3:2:0:0:
318,71,32677,6,0,L|309:146,3,52.4999983978272,0|0|0|0,3:3|0:0|2:2|2:2,0:0:0:0:
422,174,33047,2,0,L|413:99,3,52.4999983978272,8|0|0|8,2:2|0:0|0:0|2:2,0:0:0:0:
319,231,33417,2,0,L|252:243,1,52.4999983978272,8|0,2:2|0:0,0:0:0:0:
408,325,33603,1,8,2:2:0:0:
408,325,33695,1,8,2:2:0:0:
408,325,33788,2,0,L|475:337,1,52.4999983978272,8|0,2:2|0:0,0:0:0:0:
319,231,33973,1,14,2:2:0:0:
171,338,34158,6,0,P|107:340|52:250,1,146.249993305207,0|0,3:3|0:0,0:0:0:0:
119,224,34528,2,0,L|131:125,1,97.4999955368044,8|0,2:2|0:0,0:0:0:0:
82,60,34806,1,0,3:3:0:0:
82,60,34899,2,0,L|18:69,1,48.7499977684022,0|0,3:3|0:0,0:0:0:0:
208,195,35084,1,0,3:3:0:0:
208,195,35177,2,0,L|272:204,1,48.7499977684022,0|8,0:0|2:2,0:0:0:0:
192,62,35454,1,2,2:2:0:0:
42,250,35640,6,0,P|92:300|180:269,1,146.249993305207,0|0,3:3|0:0,0:0:0:0:
102,158,36010,2,0,L|0:171,1,97.4999955368044,8|0,2:2|0:0,0:0:0:0:
192,62,36288,1,0,3:3:0:0:
192,62,36380,2,0,L|199:126,1,48.7499977684022,0|0,3:3|2:2,0:0:0:0:
344,245,36565,1,0,3:3:0:0:
345,245,36658,2,0,L|352:181,1,48.7499977684022,0|8,2:2|2:2,0:0:0:0:
296,116,36936,1,0,3:3:0:0:
301,315,37121,6,0,P|355:325|424:253,1,146.249993305207,0|0,3:3|2:2,0:0:0:0:
350,196,37491,1,10,3:2:0:0:
468,80,37677,1,0,0:0:0:0:
468,80,37769,1,0,2:2:0:0:
468,80,37862,2,0,B|496:130|496:130|478:239,1,146.249993305207,2|0,2:2|2:2,0:0:0:0:
420,269,38232,1,8,2:2:0:0:
296,116,38417,1,2,2:2:0:0:
216,294,38603,6,0,P|225:326|226:349,3,54.3750016593934,2|0|0|0,3:2|0:0|3:3|2:2,0:0:0:0:
113,238,38973,2,0,P|115:210|123:185,3,54.3750016593934,8|0|0|0,2:2|0:0|0:0|2:2,0:0:0:0:
54,303,39343,2,0,L|-14:296,1,54.3750016593934,2|0,3:2|0:0,0:0:0:0:
71,125,39528,5,8,3:2:0:0:
121,107,39620,1,10,2:2:0:0:
171,124,39713,1,8,3:2:0:0:
200,169,39805,1,2,2:2:0:0:
226,194,39899,1,2,2:2:0:0:
261,201,39992,1,2,2:2:0:0:
295,191,40084,6,0,P|368:187|441:277,1,172.500003290176,4|2,2:2|3:2,0:0:0:0:
467,384,40640,1,2,3:2:0:0:
281,288,40825,2,0,B|315:255|343:256|358:269|358:269|346:283|340:317,1,118.124996395111,2|0,3:2|0:0,0:0:0:0:
435,252,41195,2,0,B|416:196|355:189|355:189|398:182|413:160,1,163.12500497818,0|0,1:1|0:0,0:0:0:0:
363,95,41565,6,0,B|453:59|435:132|529:85,2,151.875000579357,2|0|0,3:2|2:2|3:3,0:0:0:0:
232,203,42306,1,0,3:3:0:0:
193,134,42491,1,0,1:1:0:0:
193,134,42584,1,0,0:0:0:0:
193,134,42677,2,0,P|254:126|309:208,1,151.875000579357,4|0,1:2|0:0,0:0:0:0:
417,253,43047,6,0,B|376:235|376:235|345:279|288:267,1,140.625,0|0,3:3|0:0,0:0:0:0:
232,203,43417,1,0,3:3:0:0:
363,95,43603,1,0,2:2:0:0:
183,40,43788,2,0,L|194:137,1,93.75,0|0,3:3|2:2,0:0:0:0:
17,228,44158,2,0,L|28:131,1,93.75,0|0,1:1|2:2,0:0:0:0:
213,219,44528,6,0,P|146:236|104:318,1,151.875000579357,0|0,3:3|2:2,0:0:0:0:
92,376,44899,1,2,3:2:0:0:
17,228,45084,1,2,3:2:0:0:
199,310,45269,2,0,L|267:299,1,58.1250004434586,8|0,3:2|0:0,0:0:0:0:
361,222,45454,5,4,2:2:0:0:
361,222,45547,1,0,0:0:0:0:
361,222,45640,2,0,L|369:116,1,95.6250018239022,4|0,1:2|0:0,0:0:0:0:
319,61,46010,6,0,P|270:25|185:38,1,127.50000243187,4|0,2:2|2:2,0:0:0:0:
113,197,46565,1,0,2:2:0:0:
113,197,46751,2,0,L|200:185,1,63.7500012159348,8|8,3:3|3:3,0:0:0:0:
427,279,47306,5,0,1:1:0:0:
427,279,47399,1,0,1:1:0:0:
427,279,47491,6,0,L|420:332,1,31.8750006079674,0|0,1:1|0:0,0:0:0:0:
259,359,47769,1,0,1:1:0:0:
252,341,47862,1,0,1:1:0:0:
333,173,48047,1,0,1:1:0:0:
326,275,48232,1,0,1:1:0:0:
252,155,48417,5,0,1:1:0:0:
264,125,48509,1,0,1:1:0:0:
287,104,48603,2,0,P|314:92|365:95,1,63.7500012159348,0|0,1:1|0:0,0:0:0:0:
257,248,48973,6,0,L|119:228,1,118.124996395111,6|0,3:2|2:2,0:0:0:0:
66,278,49343,2,0,P|52:233|63:188,1,78.7499975967408,8|2,3:2|2:2,0:0:0:0:
252,155,49714,6,0,L|394:134,1,140.625,2|0,3:2|2:2,0:0:0:0:
471,182,50084,2,0,P|484:137|472:92,1,93.75,8|2,3:2|3:2,0:0:0:0:
251,69,50454,6,0,P|193:91|174:184,1,140.625,6|0,3:2|2:2,0:0:0:0:
257,248,50825,2,0,L|251:145,1,93.75,8|2,3:2|3:2,0:0:0:0:
183,299,51195,6,0,L|341:280,1,140.625,2|0,3:2|2:2,0:0:0:0:
150,226,51565,2,0,P|114:255|101:307,1,93.75,8|8,3:2|2:2,0:0:0:0:
228,366,51936,5,2,3:2:0:0:
190,135,52121,1,2,3:2:0:0:
13,275,52306,1,0,3:3:0:0:
277,231,52491,1,0,3:3:0:0:
58,65,52677,5,2,3:2:0:0:
100,299,52862,1,2,3:2:0:0:
285,111,53047,1,0,3:3:0:0:
270,79,53140,1,0,0:0:0:0:
246,53,53232,1,2,3:2:0:0:
215,38,53324,1,0,0:0:0:0:
180,34,53417,5,0,3:3:0:0:
97,236,54899,6,0,B|165:222|165:222|210:236|210:236|281:219,1,168.750006437302,6|2,1:2|2:2,0:0:0:0:
336,210,55269,1,8,1:2:0:0:
221,16,55454,1,2,2:2:0:0:
17,228,55640,6,0,P|48:302|141:301,1,168.750006437302,0|0,3:3|2:2,0:0:0:0:
193,232,56010,1,8,1:2:0:0:
42,109,56195,1,2,3:2:0:0:
221,16,56380,6,0,L|318:6,1,97.4999955368044,0|2,3:3|2:2,0:0:0:0:
417,186,56751,2,0,L|321:176,1,97.4999955368044,8|0,1:2|2:2,0:0:0:0:
479,244,57121,2,0,P|501:194|479:130,1,97.4999955368044,2|2,3:2|2:2,0:0:0:0:
260,119,57491,2,0,P|237:167|260:231,1,97.4999955368044,10|2,1:2|2:2,0:0:0:0:
315,63,57862,6,0,P|256:40|179:112,1,146.249993305207,2|2,3:2|2:2,0:0:0:0:
260,119,58232,1,8,1:2:0:0:
129,307,58417,1,2,2:2:0:0:
46,240,58603,2,0,L|225:220,1,146.249993305207,2|0,3:1|2:2,0:0:0:0:
260,267,58973,1,10,1:2:0:0:
157,49,59158,1,2,3:2:0:0:
234,341,59343,6,0,P|301:335|330:237,1,146.249993305207,2|2,3:2|2:2,0:0:0:0:
385,196,59714,1,10,1:2:0:0:
395,358,59899,1,2,2:2:0:0:
279,46,60084,1,2,1:1:0:0:
279,46,60177,1,0,2:2:0:0:
279,46,60269,1,2,2:2:0:0:
260,267,60454,1,10,1:2:0:0:
349,125,60640,1,2,2:2:0:0:
349,125,60732,1,2,2:2:0:0:
349,125,60825,6,0,P|416:123|461:219,1,146.249993305207,6|2,3:2|2:2,0:0:0:0:
479,67,61195,1,8,1:2:0:0:
337,271,61380,1,2,3:2:0:0:
230,82,61565,6,0,L|56:103,1,146.249993305207,2|0,3:1|2:2,0:0:0:0:
18,60,61936,1,8,1:2:0:0:
159,278,62121,1,2,2:2:0:0:
311,96,62306,6,0,P|300:41|267:12,1,97.4999955368044,0|0,3:3|2:2,0:0:0:0:
81,265,62677,2,0,P|92:320|125:349,1,97.4999955368044,8|0,1:2|2:2,0:0:0:0:
230,82,63047,2,0,L|113:68,1,97.4999955368044,0|2,3:3|2:2,0:0:0:0:
159,278,63417,2,0,L|276:264,1,97.4999955368044,8|2,1:2|2:2,0:0:0:0:
425,190,63788,6,0,L|271:172,1,146.249993305207,2|2,3:2|2:3,0:0:0:0:
311,96,64158,1,8,1:2:0:0:
331,262,64343,1,2,2:2:0:0:
204,227,64528,6,0,P|185:170|230:92,1,146.249993305207,2|2,1:1|3:2,0:0:0:0:
279,173,64899,1,8,1:2:0:0:
151,297,65084,1,0,2:2:0:0:
104,127,65269,5,0,3:3:0:0:
267,272,65454,1,2,2:2:0:0:
267,272,65547,1,0,2:2:0:0:
267,272,65640,1,8,1:2:0:0:
51,352,65825,1,0,2:2:0:0:
122,222,66010,1,0,3:3:0:0:
228,348,66195,6,0,P|257:354|279:352,1,35.6249990487099,4|0,1:2|0:0,0:0:0:0:
372,257,66380,2,0,L|255:273,1,106.87499714613,6|0,1:1|0:0,0:0:0:0:
355,179,66751,6,0,P|404:182|442:292,1,172.500003290176,4|2,3:1|2:2,0:0:0:0:
345,350,67306,1,0,3:3:0:0:
355,179,67491,1,0,3:3:0:0:
512,292,67677,1,0,2:2:0:0:
512,292,67769,1,0,0:0:0:0:
512,292,67862,1,0,1:1:0:0:
372,257,68047,5,0,3:3:0:0:
487,147,68232,2,0,B|489:102|489:102|456:57,1,86.2500016450882,2|0,3:2|0:0,0:0:0:0:
329,108,68510,2,0,B|366:132|366:132|422:126,1,86.2500016450882,2|0,2:2|0:0,0:0:0:0:
388,43,68788,1,2,2:2:0:0:
274,196,68973,1,2,2:2:0:0:
201,20,69158,1,4,2:2:0:0:
274,196,69343,2,0,L|261:291,1,86.2500016450882,4|0,1:2|3:3,0:0:0:0:
168,344,69714,6,0,P|111:347|39:261,1,172.500003290176,4|2,3:1|2:2,0:0:0:0:
140,168,70269,1,0,3:3:0:0:
140,168,70454,2,0,L|133:262,1,86.2500016450882,0|0,3:3|2:2,0:0:0:0:
70,117,70825,1,0,1:1:0:0:
209,52,71010,1,0,3:3:0:0:
209,52,71103,1,0,0:0:0:0:
209,52,71195,6,0,L|309:61,1,78.7499975967408,2|0,3:2|0:0,0:0:0:0:
392,214,71565,1,0,1:1:0:0:
479,127,71751,1,0,2:2:0:0:
479,127,71843,1,0,0:0:0:0:
479,127,71936,2,0,L|488:31,1,78.7499975967408,0|0,3:3|3:3,0:0:0:0:
290,200,72306,2,0,L|299:296,1,78.7499975967408,4|0,2:2|2:2,0:0:0:0:
332,128,72677,6,0,P|275:119|207:226,1,151.875000579357,6|0,3:2|0:0,0:0:0:0:
73,85,73047,2,0,L|190:77,1,101.250000386238,10|2,1:2|3:2,0:0:0:0:
290,200,73417,1,2,3:2:0:0:
116,344,73603,1,0,0:0:0:0:
116,344,73695,1,2,2:2:0:0:
116,344,73788,2,0,L|106:226,1,101.250000386238,10|2,1:2|2:2,0:0:0:0:
276,121,74158,6,0,P|326:128|370:215,1,151.875000579357,2|0,3:1|2:2,0:0:0:0:
307,280,74528,1,10,1:2:0:0:
405,85,74714,1,0,2:2:0:0:
290,200,74899,5,6,1:2:0:0:
260,47,75084,1,2,3:2:0:0:
260,47,75177,1,2,3:2:0:0:
260,47,75269,1,8,1:2:0:0:
443,157,75454,1,2,3:2:0:0:
198,98,75640,6,0,L|98:109,1,97.4999955368044,2|2,1:1|2:2,0:0:0:0:
0,288,76010,2,0,L|100:299,1,97.4999955368044,8|2,1:2|3:2,0:0:0:0:
199,213,76380,1,2,1:2:0:0:
105,25,76565,5,2,3:2:0:0:
78,27,76657,1,2,3:2:0:0:
55,38,76750,1,0,3:3:0:0:
35,55,76842,1,2,2:2:0:0:
22,78,76935,1,2,2:2:0:0:
17,104,77027,1,2,2:2:0:0:
20,129,77120,5,4,1:2:0:0:
481,173,78603,5,0,3:3:0:0:
364,113,78788,1,2,2:2:0:0:
304,230,78974,1,0,3:3:0:0:
422,290,79159,1,2,2:2:0:0:
354,108,79344,5,0,3:3:0:0:
300,240,79529,1,2,2:2:0:0:
486,162,79714,1,0,3:3:0:0:
433,294,79900,1,2,2:2:0:0:
380,32,80084,6,0,P|315:37|274:120,1,142.49999619484,0|0,1:1|2:2,0:0:0:0:
73,45,80362,2,0,L|229:29,1,142.49999619484,0|0,1:1|2:2,0:0:0:0:
186,210,80640,2,0,L|106:195,1,71.2499980974198,2|0,1:1|0:0,0:0:0:0:
162,122,80825,1,0,1:1:0:0:
355,336,81195,6,0,P|368:346|385:378,3,41.2500012588501,0|0|0|0,2:2|2:2|2:2|2:2,0:0:0:0:
326,322,81565,2,0,L|338:197,1,112.500004291535,4|0,2:2|0:0,0:0:0:0:
434,135,81843,1,0,2:2:0:0:
434,135,81936,2,0,L|501:124,1,56.2500021457673,8|0,2:2|0:0,0:0:0:0:
290,50,82121,2,0,L|223:39,1,56.2500021457673,8|0,3:2|0:0,0:0:0:0:
406,7,82306,5,2,2:2:0:0:
336,210,82491,1,2,2:2:0:0:
336,210,82584,1,0,2:2:0:0:
336,210,82677,1,8,2:2:0:0:
234,40,82862,1,0,2:2:0:0:
341,119,83047,5,2,3:3:0:0:
178,263,83232,1,8,2:2:0:0:
178,263,83325,1,8,2:2:0:0:
178,263,83417,1,8,2:2:0:0:
90,47,83603,1,0,2:2:0:0:
336,210,83788,1,8,3:2:0:0:
128,184,83973,6,0,L|63:216,1,56.2500021457673,2|2,3:2|2:2,0:0:0:0:
197,142,84158,2,0,L|210:18,1,112.500004291535,0|0,1:1|3:3,0:0:0:0:
231,222,84528,6,0,P|288:232|347:198,1,112.500004291535,4|0,2:2|0:0,0:0:0:0:
443,131,84806,1,0,2:2:0:0:
443,131,84899,2,0,L|447:188,1,56.2500021457673,8|0,2:2|0:0,0:0:0:0:
331,360,85084,2,0,L|334:301,1,56.2500021457673,8|0,3:2|0:0,0:0:0:0:
346,127,85269,5,2,2:2:0:0:
458,342,85454,1,2,3:3:0:0:
459,48,85640,1,8,2:2:0:0:
333,303,85825,1,0,2:2:0:0:
208,30,86010,5,2,3:3:0:0:
446,187,86195,1,8,2:2:0:0:
446,187,86288,1,8,2:2:0:0:
446,187,86380,1,8,2:2:0:0:
196,312,86565,1,0,2:2:0:0:
362,27,86751,5,0,2:2:0:0:
333,303,86936,1,2,2:2:0:0:
185,176,87121,1,2,2:2:0:0:
