osu file format v14

[General]
AudioFilename: audio.mp3
AudioLeadIn: 0
PreviewTime: 55405
Countdown: 0
SampleSet: Soft
StackLeniency: 0.7
Mode: 0
LetterboxInBreaks: 0
WidescreenStoryboard: 0

[Editor]
Bookmarks: 8090,14016,18461,28831,40683
DistanceSpacing: 1.1
BeatDivisor: 2
GridSize: 32
TimelineZoom: 1.9

[Metadata]
Title:Yumeji Labyrinth
TitleUnicode:夢路らびりんす
Artist:LABYRINTHS
ArtistUnicode:らびりんず
Creator:Shortthu
Version:Easy
Source:うらら迷路帖
Tags:Underforest Hikan InternalLight Urara Meirochou 千矢 Chiya 巽 紺 Tatsumi Kon 雪見 小梅 Yukimi Koume 棗 ノノ Natsume Nono 棗 ニナ opening op ost tv size
BeatmapID:1199039
BeatmapSetID:565869

[Difficulty]
HPDrainRate:2
CircleSize:3
OverallDifficulty:2
ApproachRate:3
SliderMultiplier:0.899999999999999
SliderTickRate:1

[Events]
//Background and Video events
Video,375,"video.avi"
0,0,"easy.png",0,0
//Break Periods
//Storyboard Layer 0 (Background)
//Storyboard Layer 1 (Fail)
//Storyboard Layer 2 (Pass)
//Storyboard Layer 3 (Foreground)
//Storyboard Sound Samples

[TimingPoints]
2165,370.37037037037,4,2,2,50,1,0
8090,-100,4,2,1,70,0,0
55498,-100,4,2,1,70,0,1
67350,-100,4,2,1,50,0,0
73276,-100,4,2,1,70,0,1
77720,-100,4,2,1,70,0,0
82164,-100,4,2,2,70,0,0
86794,-100,4,2,1,70,0,0

[Colours]
Combo1 : 237,238,239
Combo2 : 165,154,154
Combo3 : 241,216,182
Combo4 : 175,183,231

[HitObjects]
232,112,2165,6,0,B|272:96|320:112|320:112|376:132|420:108,1,180,2|2,0:0|0:0,0:0:0:0:
276,264,3646,2,0,B|236:280|188:264|188:264|132:244|88:268,1,180,2|2,0:0|0:0,0:0:0:0:
232,112,5127,6,0,P|284:40|380:44,1,180,2|2,0:0|0:0,0:0:0:0:
464,224,6609,2,0,P|412:296|316:292,1,180,2|2,0:0|0:0,0:0:0:0:
368,208,7720,1,2,0:0:0:0:
320,120,8090,6,0,P|288:84|152:104,1,180,4|0,0:0|0:0,0:0:0:0:
232,164,9202,1,8,0:0:0:0:
164,236,9572,2,0,P|132:296|132:328,1,89.9999999999999,0|10,0:0|0:0,0:0:0:0:
228,308,10313,2,0,P|294:321|325:311,1,89.9999999999999,0|8,0:0|0:0,0:0:0:0:
396,260,11053,6,0,L|416:68,1,180,0|0,0:0|0:0,0:0:0:0:
328,28,12164,1,8,0:0:0:0:
228,36,12535,2,0,P|128:88|100:168,1,180,0|0,0:0|0:0,0:0:0:0:
100,244,13646,1,8,0:0:0:0:
176,308,14016,6,0,P|244:330|280:362,2,89.9999999999999,14|8|2,0:0|0:0|0:0,0:0:0:0:
80,336,15127,1,8,0:0:0:0:
5,270,15498,2,0,P|21:177|98:147,1,180,2|2,0:0|0:0,0:0:0:0:
256,192,16979,12,2,18461,0:0:0:0:
373,28,19942,6,0,P|433:52|469:160,1,180,2|2,0:0|0:0,0:0:0:0:
433,246,21053,1,2,0:0:0:0:
488,328,21424,2,0,P|408:340|338:269,1,180,10|10,0:0|0:0,0:0:0:0:
448,148,22905,6,8,P|328:72|192:120,1,270,14|8,0:0|0:0,0:0:0:0:
248,196,24387,2,0,P|188:200|112:104,1,180,2|0,0:0|0:0,0:0:0:0:
116,16,25498,1,10,0:0:0:0:
216,16,25868,6,0,B|348:52|348:52|420:172,1,270,6|8,0:0|0:0,0:0:0:0:
428,264,27350,2,0,P|396:344|304:364,1,180,0|2,0:0|0:0,0:0:0:0:
330,268,28461,1,2,0:0:0:0:
350,171,28831,6,0,P|265:192|232:277,1,180,4|2,0:0|0:0,0:0:0:0:
227,370,29942,1,8,0:0:0:0:
137,328,30313,2,0,B|118:238|118:238|39:174,1,180,2|2,0:0|0:0,0:0:0:0:
35,84,31424,1,8,0:0:0:0:
133,112,31794,6,0,L|237:92,1,89.9999999999999,0|8,0:0|0:0,0:0:0:0:
277,177,32535,2,0,L|188:193,1,89.9999999999999,2|8,0:0|0:0,0:0:0:0:
90,206,33276,2,0,P|126:271|222:285,2,135,0|2|8,0:0|0:0|0:0,0:0:0:0:
188,192,34757,6,0,P|252:102|328:100,1,180,4|2,0:0|0:0,0:0:0:0:
410,122,35868,1,8,0:0:0:0:
507,102,36239,2,0,P|483:188|392:222,1,180,2|2,0:0|0:0,0:0:0:0:
307,205,37350,1,8,0:0:0:0:
373,131,37720,6,0,P|334:107|290:105,1,89.9999999999999,2|8,0:0|0:0,0:0:0:0:
194,82,38461,2,0,P|195:131|232:186,1,89.9999999999999,2|8,0:0|0:0,0:0:0:0:
307,205,39202,2,0,L|362:26,1,180,2|2,0:0|0:0,0:0:0:0:
454,28,40313,1,2,0:0:0:0:
490,118,40683,6,0,B|514:178|470:246|470:246|430:202,1,180,6|2,0:0|0:0,0:0:0:0:
374,138,41794,1,8,0:0:0:0:
306,69,42164,2,0,B|258:21|258:21|218:97|238:145,1,180,2|2,0:0|0:0,0:0:0:0:
245,226,43276,1,8,0:0:0:0:
340,260,43646,6,0,L|440:296,1,89.9999999999999,2|2,0:0|0:0,0:0:0:0:
356,360,44387,2,0,L|271:329,1,89.9999999999999,2|8,0:0|0:0,0:0:0:0:
178,295,45127,2,0,P|154:192|210:132,1,180,2|2,0:0|0:0,0:0:0:0:
287,100,46239,1,12,0:0:0:0:
382,125,46609,6,0,L|426:301,1,180,0|8,0:0|0:0,0:0:0:0:
239,367,48090,2,0,L|195:192,1,180,8|2,0:0|0:0,0:0:0:0:
13,113,49572,6,0,L|113:89,1,89.9999999999999,4|8,0:0|0:0,0:0:0:0:
176,156,50313,2,0,L|263:134,1,89.9999999999999,2|8,0:0|0:0,0:0:0:0:
279,35,51053,2,0,P|351:86|357:173,1,180,2|2,0:0|0:0,0:0:0:0:
320,260,52164,1,8,0:0:0:0:
269,345,52535,6,0,P|355:350|394:322,2,135,8|2|10,0:0|0:0|0:0,0:0:0:0:
188,292,54016,1,2,0:0:0:0:
260,27,55498,6,0,P|360:64|374:135,1,180,6|2,0:0|0:0,0:0:0:0:
337,218,56609,1,8,0:0:0:0:
296,308,56979,2,0,L|192:304,1,89.9999999999999,2|10,0:0|0:0,0:0:0:0:
112,332,57720,2,0,L|12:336,1,89.9999999999999,2|10,0:0|0:0,0:0:0:0:
3,238,58461,6,0,L|47:35,1,180,2|2,0:0|0:0,0:0:0:0:
135,91,59572,1,8,0:0:0:0:
227,53,59942,2,0,L|367:65,2,135,2|0|2,0:0|0:0|0:0,0:0:0:0:
196,144,61424,6,0,P|131:200|112:306,1,180,6|2,0:0|0:0,0:0:0:0:
186,351,62535,1,8,0:0:0:0:
250,276,62905,2,0,P|288:235|329:224,1,89.9999999999999,2|10,0:0|0:0,0:0:0:0:
336,320,63646,2,0,P|377:302|407:266,1,89.9999999999999,2|10,0:0|0:0,0:0:0:0:
423,170,64387,6,0,L|286:47,1,180,2|2,0:0|0:0,0:0:0:0:
192,71,65498,1,8,0:0:0:0:
96,96,65868,2,0,P|68:212|96:276,1,180,10|10,0:0|0:0,0:0:0:0:
164,332,66979,1,8,0:0:0:0:
256,292,67350,6,0,P|332:264|392:276,2,135,6|2|8,0:0|0:0|0:0,0:0:0:0:
156,292,68831,2,0,P|80:264|20:276,2,135,2|2|0,0:0|0:0|0:0,0:0:0:0:
249,258,70313,2,0,B|269:216|249:171|249:171|226:125|258:67,1,180,2|0,0:0|0:0,0:0:0:0:
338,128,71424,1,8,0:0:0:0:
436,115,71794,2,0,B|463:156|439:200|439:200|391:216|376:259,1,180,2|0,0:0|0:0,0:0:0:0:
308,332,72905,1,8,0:0:0:0:
248,252,73276,6,0,P|248:200|264:148,2,89.9999999999999,14|10|10,0:0|0:0|0:0,0:0:0:0:
208,344,74387,1,10,0:0:0:0:
108,340,74757,2,0,P|36:316|4:212,1,180,10|10,0:0|0:0,0:0:0:0:
20,128,75868,1,10,0:0:0:0:
100,72,76239,5,6,0:0:0:0:
256,192,76331,12,10,77720,0:0:0:0:
440,180,79201,6,0,P|444:256|360:320,1,180,2|2,0:0|0:0,0:0:0:0:
352,220,80312,1,2,0:0:0:0:
256,196,80683,2,0,B|188:137|188:137|146:57,1,180,10|10,0:0|0:0,0:0:0:0:
47,52,81794,1,0,0:0:0:0:
0,141,82164,6,0,P|-20:219|140:275,1,270,6|0,0:0|0:0,0:0:0:0:
74,203,83646,2,0,L|243:111,1,180,2|2,0:0|0:0,0:0:0:0:
331,118,84757,1,0,0:0:0:0:
363,210,85127,6,0,B|283:322|283:322|151:362,1,270,6|0,0:0|0:0,0:0:0:0:
147,262,86609,2,0,P|183:186|279:170,1,180,2|10,0:0|0:0,0:0:0:0:
363,210,87720,1,0,0:0:0:0:
