osu file format v14

[General]
AudioFilename: ulala.mp3
AudioLeadIn: 0
PreviewTime: 49572
Countdown: 0
SampleSet: Soft
StackLeniency: 0.5
Mode: 0
LetterboxInBreaks: 0
WidescreenStoryboard: 0

[Editor]
Bookmarks: 22905,28831,40683,55498,67350,82164
DistanceSpacing: 1.2
BeatDivisor: 4
GridSize: 16
TimelineZoom: 1.3

[Metadata]
Title:Yumeji Labyrinth
TitleUnicode:夢路らびりんす
Artist:LABYRINTHS
ArtistUnicode:らびりんず
Creator:Binguo
Version:Pata-Mon's Insane
Source:うらら迷路帖
Tags:Urara Meirochou J.C.STAFF 原田彩楓 はらた さやか Harata Sayaka 本渡楓 ほんど かえで Hondo Kaede 久保 ユリカ くぼ ゆりか Kubo Yurika 佳村 はるか よしむらはるか Yoshimura Haruka Pata-Mon Hanazawa Kana Kamiya
BeatmapID:1199886
BeatmapSetID:565555

[Difficulty]
HPDrainRate:6
CircleSize:4.5
OverallDifficulty:7
ApproachRate:8.2
SliderMultiplier:1.6
SliderTickRate:1

[Events]
//Background and Video events
0,0,"urara.jpg",0,0
//Break Periods
//Storyboard Layer 0 (Background)
//Storyboard Layer 1 (Fail)
//Storyboard Layer 2 (Pass)
//Storyboard Layer 3 (Foreground)
//Storyboard Sound Samples

[TimingPoints]
2165,370.37037037037,4,2,23,50,1,0
2165,-166.666666666667,4,2,23,50,0,0
8090,-125,4,2,23,50,0,0
11053,-111.111111111111,4,2,23,50,0,0
14016,-100,4,2,23,50,0,0
17350,-66.6666666666667,4,2,23,50,0,0
18090,-100,4,2,23,50,0,0
19942,-100,4,2,23,40,0,0
22535,-66.6666666666667,4,2,23,40,0,0
22905,-90.9090909090909,4,2,23,50,0,1
28831,-111.111111111111,4,2,23,50,0,0
29202,-111.111111111111,4,2,23,40,0,0
33461,-111.111111111111,4,2,23,30,0,0
33646,-111.111111111111,4,2,23,40,0,0
33831,-111.111111111111,4,2,23,30,0,0
34016,-111.111111111111,4,2,23,40,0,0
34572,-111.111111111111,4,2,23,30,0,0
34757,-111.111111111111,4,2,23,40,0,0
39387,-111.111111111111,4,2,23,30,0,0
39572,-111.111111111111,4,2,23,40,0,0
39757,-111.111111111111,4,2,23,30,0,0
39942,-111.111111111111,4,2,23,40,0,0
40683,-125,4,2,23,40,0,0
41794,-83.3333333333333,4,2,23,40,0,0
42164,-125,4,2,23,40,0,0
43276,-83.3333333333333,4,2,23,40,0,0
43646,-125,4,2,23,40,0,0
46053,-83.3333333333333,4,2,23,40,0,0
46609,-142.857142857143,4,2,23,40,0,0
49572,-100,4,2,23,50,0,0
52535,-100,4,2,23,40,0,0
52905,-100,4,2,23,45,0,0
53276,-100,4,2,23,50,0,0
53646,-100,4,2,23,55,0,0
54016,-100,4,2,23,60,0,0
55498,-90.9090909090909,4,2,23,50,0,0
60868,-66.6666666666667,4,2,23,50,0,0
61424,-90.9090909090909,4,2,23,50,0,0
66794,-66.6666666666667,4,2,23,50,0,0
67350,-111.111111111111,4,2,23,50,0,0
69757,-83.3333333333333,4,2,23,50,0,0
70313,-111.111111111111,4,2,23,50,0,0
71609,-111.111111111111,4,2,23,40,0,0
71794,-111.111111111111,4,2,23,50,0,0
72720,-83.3333333333333,4,2,23,50,0,0
73276,-100,4,2,23,50,0,0
76609,-66.6666666666667,4,2,23,50,0,0
77350,-100,4,2,23,50,0,0
79202,-100,4,2,23,40,0,0
81794,-66.6666666666667,4,2,23,40,0,0
82164,-90.9090909090909,4,2,23,50,0,1
87720,-66.6666666666667,4,2,23,50,0,1
87905,-100,4,2,23,5,0,0

[Colours]
Combo1 : 0,255,128
Combo2 : 255,108,38
Combo3 : 128,255,255
Combo4 : 255,255,128

[HitObjects]
165,121,2165,6,0,P|195:120|241:104,2,71.9999978027344,2|0|0,0:0|0:0|0:0,0:0:0:0:
95,102,2905,2,0,P|83:135|81:171,1,71.9999978027344,2|0,0:0|0:0,0:0:0:0:
102,201,3276,2,0,L|171:201,1,47.9999985351563
210,239,3646,2,0,L|279:239,1,47.9999985351563,2|0,0:0|0:0,0:0:0:0:
319,145,4016,6,0,P|318:168|314:192,1,47.9999985351563,2|0,0:0|0:0,0:0:0:0:
258,239,4387,2,0,P|261:300|276:344,1,95.9999970703126,2|0,0:0|0:0,0:0:0:0:
271,333,5127,6,0,P|234:343|184:342,2,71.9999978027344,2|0|0,0:0|0:0|0:0,0:0:0:0:
334,298,5868,2,0,P|361:325|385:368,2,71.9999978027344,2|0|0,0:0|0:0|0:0,0:0:0:0:
273,261,6609,2,0,P|282:223|308:181,2,71.9999978027344,2|0|0,0:0|0:0|0:0,0:0:0:0:
379,354,7350,5,2,0:0:0:0:
200,344,7535,1,2,0:0:0:0:
297,194,7720,1,2,0:0:0:0:
297,194,8090,6,0,P|253:182|178:186,1,96,2|0,0:0|0:0,0:0:0:0:
172,205,8461,2,0,L|80:202,1,64,8|0,0:0|0:0,0:0:0:0:
31,100,8831,2,0,P|75:88|150:92,1,96,2|0,0:0|0:0,0:0:0:0:
156,111,9202,2,0,L|248:108,1,64,8|0,0:0|0:0,0:0:0:0:
297,194,9572,1,2,0:0:0:0:
159,19,9942,6,0,L|240:17,1,64,8|0,0:0|0:0,0:0:0:0:
297,194,10313,2,0,P|234:160|221:100,1,128,2|8,0:0|0:0,0:0:0:0:
220,109,11053,6,0,P|291:124|305:171,1,107.999996704102,2|2,0:0|0:0,0:0:0:0:
297,194,11424,2,0,P|333:193|372:182,1,71.9999978027344,8|2,0:0|0:0,0:0:0:0:
357,57,11794,2,0,P|389:107|399:164,1,107.999996704102,2|2,0:0|0:0,0:0:0:0:
367,184,12164,2,0,P|401:193|437:194,1,71.9999978027344,8|2,0:0|0:0,0:0:0:0:
266,157,12535,5,2,0:0:0:0:
333,262,12720,1,2,0:0:0:0:
437,194,12905,1,10,0:0:0:0:
370,89,13090,1,2,0:0:0:0:
333,262,13276,2,0,P|334:313|354:364,1,71.9999978027344,2|0,0:0|0:0,0:0:0:0:
370,363,13553,1,8,0:0:0:0:
373,366,13646,1,8,0:0:0:0:
454,252,13831,1,8,0:0:0:0:
457,249,13924,1,8,0:0:0:0:
460,246,14016,6,0,P|459:195|441:143,1,80,2|0,0:0|0:0,0:0:0:0:
373,43,14387,2,0,P|364:82|365:122,1,80,8|0,0:0|0:0,0:0:0:0:
282,173,14757,2,0,P|225:173|150:160,1,120,2|2,0:0|0:0,0:0:0:0:
130,127,15127,2,0,L|45:133,1,80,8|2,0:0|0:0,0:0:0:0:
41,270,15498,6,0,P|100:279|160:279,1,120,2|2,0:0|0:0,0:0:0:0:
201,254,15868,2,0,L|286:260,1,80,8|2,0:0|0:0,0:0:0:0:
374,191,16239,1,2,0:0:0:0:
315,50,16424,1,8,0:0:0:0:
315,50,16516,1,8,0:0:0:0:
315,50,16609,6,0,P|290:81|281:120,1,80,8|0,0:0|0:0,0:0:0:0:
281,260,16979,2,0,P|291:299|315:330,1,80,2|0,0:0|0:0,0:0:0:0:
315,50,17350,6,0,P|264:68|286:122,1,120.000004577637,8|0,0:0|0:0,0:0:0:0:
281,260,17720,2,0,P|263:309|316:330,1,120.000004577637,2|8,0:0|0:0,0:0:0:0:
358,267,17998,1,8,0:0:0:0:
361,264,18090,6,0,L|407:269,2,40,2|0|0,0:0|0:0|0:0,0:0:0:0:
194,353,18461,1,2,0:0:0:0:
41,221,19942,5,2,0:0:0:0:
120,277,20127,1,2,0:0:0:0:
199,221,20313,1,2,0:0:0:0:
168,130,20498,1,2,0:0:0:0:
41,221,20683,5,2,0:0:0:0:
120,277,20868,1,2,0:0:0:0:
199,221,21053,1,2,0:0:0:0:
168,130,21239,1,2,0:0:0:0:
41,221,21424,6,0,P|23:282|39:331,1,80,10|0,0:0|0:0,0:0:0:0:
120,277,21702,2,0,P|161:310|228:313,1,80,10|0,0:0|0:0,0:0:0:0:
199,221,21979,2,0,P|229:204|253:175,1,40,10|0,0:0|0:0,0:0:0:0:
168,130,22164,1,10,0:0:0:0:
168,130,22535,6,0,P|128:202|199:221,1,180.000006866455,8|0,0:3|0:0,0:0:0:0:
263,149,22905,6,0,B|273:88|235:78|246:18,1,132.00000402832,2|2,0:0|0:0,0:0:0:0:
266,152,23276,1,10,0:0:0:0:
248,23,23461,1,2,0:0:0:0:
168,130,23646,2,0,P|168:165|176:199,1,44.0000013427735,2|0,0:0|0:0,0:0:0:0:
269,155,23831,2,0,P|280:187|300:217,1,44.0000013427735,2|8,0:0|0:0,0:0:0:0:
372,143,24016,2,0,P|394:169|422:190,1,44.0000013427735,10|0,0:0|0:0,0:0:0:0:
465,97,24202,2,0,P|495:114|528:124,1,44.0000013427735,2|0,0:0|0:0,0:0:0:0:
379,40,24387,5,2,0:0:0:0:
372,143,24572,1,2,0:0:0:0:
401,175,24664,1,8,0:0:0:0:
430,207,24757,1,10,0:0:0:0:
379,40,24942,1,2,0:0:0:0:
266,133,25127,2,0,P|290:211|355:248,1,132.00000402832,2|2,0:0|0:0,0:0:0:0:
266,133,25498,2,0,L|253:227,1,88.000002685547,10|0,0:0|0:0,0:0:0:0:
459,210,25868,6,0,P|459:143|446:80,1,132.00000402832,2|2,0:0|0:0,0:0:0:0:
456,207,26239,1,10,0:0:0:0:
443,77,26424,1,2,0:0:0:0:
309,137,26609,2,0,L|379:134,1,44.0000013427735,2|0,0:0|0:0,0:0:0:0:
265,220,26794,2,0,L|334:229,1,44.0000013427735,2|8,0:0|0:0,0:0:0:0:
207,295,26979,2,0,L|273:315,1,44.0000013427735,10|0,0:0|0:0,0:0:0:0:
137,357,27164,2,0,L|198:389,1,44.0000013427735,2|0,0:0|0:0,0:0:0:0:
119,266,27350,5,2,0:0:0:0:
249,308,27535,1,2,0:0:0:0:
257,264,27627,1,8,0:0:0:0:
265,220,27720,1,10,0:0:0:0:
119,266,27905,1,2,0:0:0:0:
127,222,27998,1,8,0:0:0:0:
135,178,28090,5,10,0:0:0:0:
265,220,28276,1,2,0:0:0:0:
119,266,28461,1,10,0:0:0:0:
249,308,28646,1,2,0:0:0:0:
135,178,28831,1,2,0:0:0:0:
135,178,29202,6,0,P|174:168|213:168,1,71.9999978027344,8|0,0:0|0:0,0:0:0:0:
247,180,29479,1,2,0:0:0:0:
250,183,29572,1,2,0:0:0:0:
135,178,29757,1,2,0:0:0:0:
234,97,29942,1,8,0:0:0:0:
191,241,30127,1,2,0:0:0:0:
79,115,30313,1,2,0:0:0:0:
79,115,30683,6,0,P|83:158|91:195,1,71.9999978027344,8|0,0:0|0:0,0:0:0:0:
106,226,30961,1,2,0:0:0:0:
109,229,31053,1,2,0:0:0:0:
79,115,31239,1,2,0:0:0:0:
21,223,31424,1,8,0:0:0:0:
172,175,31609,1,2,0:0:0:0:
82,306,31794,6,0,P|124:319|171:318,1,71.9999978027344,2|0,0:0|0:0,0:0:0:0:
190,300,32072,2,0,L|252:300,1,35.9999989013672,2|8,0:0|0:0,0:0:0:0:
348,148,32350,2,0,L|286:148,1,35.9999989013672,2|2,0:0|0:0,0:0:0:0:
269,224,32535,1,2,0:0:0:0:
351,71,32720,1,2,0:0:0:0:
348,68,32813,2,0,L|286:68,1,35.9999989013672,2|8,0:0|0:0,0:0:0:0:
269,224,33090,1,2,0:0:0:0:
413,174,33276,5,2,0:0:0:0:
269,224,33461,2,0,L|207:224,2,35.9999989013672,2|2|10,0:0|0:0|0:0,0:0:0:0:
413,174,33831,2,0,L|475:174,2,35.9999989013672,2|2|2,0:0|0:0|0:0,0:0:0:0:
299,74,34202,1,8,0:0:0:0:
256,74,34294,1,8,0:0:0:0:
213,74,34387,1,8,0:0:0:0:
233,224,34572,2,0,L|295:224,1,35.9999989013672,6|0,0:0|0:0,0:0:0:0:
182,154,34757,1,2,0:0:0:0:
182,154,35127,6,0,P|137:161|98:183,1,71.9999978027344,8|0,0:0|0:0,0:0:0:0:
85,206,35405,1,2,0:0:0:0:
82,209,35498,1,2,0:0:0:0:
182,154,35683,1,2,0:0:0:0:
69,117,35868,1,8,0:0:0:0:
167,237,36053,1,2,0:0:0:0:
197,71,36239,1,2,0:0:0:0:
197,71,36609,6,0,P|243:69|298:87,1,71.9999978027344,8|0,0:0|0:0,0:0:0:0:
305,98,36887,1,2,0:0:0:0:
308,101,36979,1,2,0:0:0:0:
197,71,37164,1,2,0:0:0:0:
304,10,37350,1,8,0:0:0:0:
229,148,37535,1,2,0:0:0:0:
396,121,37720,6,0,P|406:154|408:200,1,71.9999978027344,2|0,0:0|0:0,0:0:0:0:
374,218,37998,2,0,L|374:280,1,35.9999989013672,2|8,0:0|0:0,0:0:0:0:
222,376,38276,2,0,L|222:314,1,35.9999989013672,2|2,0:0|0:0,0:0:0:0:
298,297,38461,1,2,0:0:0:0:
145,379,38646,1,2,0:0:0:0:
142,376,38739,2,0,L|142:314,1,35.9999989013672,2|8,0:0|0:0,0:0:0:0:
298,297,39016,1,2,0:0:0:0:
181,194,39202,5,2,0:0:0:0:
222,340,39387,2,0,L|222:402,2,35.9999989013672,2|2|10,0:0|0:0|0:0,0:0:0:0:
181,194,39757,2,0,L|181:132,2,35.9999989013672,2|2|2,0:0|0:0|0:0,0:0:0:0:
76,303,40127,1,10,0:0:0:0:
45,273,40220,1,10,0:0:0:0:
14,243,40313,2,0,L|8:176,1,35.9999989013672,2|2,0:0|0:0,0:0:0:0:
81,156,40498,2,0,L|87:89,1,35.9999989013672,10|2,0:0|0:0,0:0:0:0:
14,69,40683,6,0,P|83:77|152:58,1,128,2|8,0:0|0:0,0:0:0:0:
214,26,41239,1,2,0:0:0:0:
367,100,41424,2,0,P|319:95|274:82,1,96,2|0,0:0|0:0,0:0:0:0:
214,26,41794,6,0,P|252:78|200:117,1,143.999995605469,10|0,0:0|0:0,0:0:0:0:
199,117,42164,6,0,P|194:153|197:235,1,96,2|2,0:0|0:0,0:0:0:0:
230,234,42535,2,0,L|224:310,1,64,8|2,0:0|0:0,0:0:0:0:
309,179,42905,1,10,0:0:0:0:
131,273,43090,1,8,0:0:0:0:
331,295,43276,6,0,P|353:225|309:179,1,143.999995605469,10|0,0:0|0:0,0:0:0:0:
309,179,43646,6,0,L|306:115,1,64,2|0,0:0|0:0,0:0:0:0:
411,27,44016,2,0,L|413:90,1,64,8|0,0:0|0:0,0:0:0:0:
312,243,44387,2,0,L|309:179,1,64,2|0,0:0|0:0,0:0:0:0:
414,91,44757,2,0,L|416:154,1,64,8|0,0:0|0:0,0:0:0:0:
230,268,45127,6,0,P|225:216|228:148,1,96,2|2,0:0|0:0,0:0:0:0:
200,139,45498,2,0,P|192:113|202:62,1,64,8|2,0:0|0:0,0:0:0:0:
230,268,45868,1,2,0:0:0:0:
241,133,46053,6,0,P|279:119|318:124,1,47.9999985351563,2|0,0:0|0:0,0:0:0:0:
230,268,46239,2,0,P|187:253|165:160,1,143.999995605469,10|0,0:0|0:0,0:0:0:0:
289,205,46609,6,0,P|310:300|222:354,1,167.999994873047,2|0,0:0|0:0,0:0:0:0:
189,310,47350,2,8,L|116:305,1,55.9999982910157,10|8,0:0|0:0,0:0:0:0:
133,306,47905,5,8,0:0:0:0:
130,303,47998,1,8,0:0:0:0:
127,300,48090,2,0,P|121:264|121:221,1,55.9999982910157,2|0,0:0|0:0,0:0:0:0:
145,211,48368,2,0,L|147:160,1,27.9999991455078,2|8,0:0|0:0,0:0:0:0:
14,137,48646,2,0,L|12:188,1,27.9999991455078,2|0,0:0|0:0,0:0:0:0:
87,97,48831,2,0,L|85:23,1,55.9999982910157,2|0,0:0|0:0,0:0:0:0:
59,8,49109,1,8,0:0:0:0:
56,5,49202,1,8,0:0:0:0:
56,5,49572,6,0,P|114:17|179:16,1,120,2|2,0:0|0:0,0:0:0:0:
221,3,49942,2,0,L|313:12,1,80,8|2,0:0|0:0,0:0:0:0:
56,104,50313,2,0,P|114:116|179:115,1,120,2|2,0:0|0:0,0:0:0:0:
221,102,50683,2,0,L|313:111,1,80,8|2,0:0|0:0,0:0:0:0:
475,208,51053,6,0,P|417:220|352:219,1,120,2|2,0:0|0:0,0:0:0:0:
310,206,51424,2,0,L|218:215,1,80,8|2,0:0|0:0,0:0:0:0:
475,307,51794,2,0,P|417:319|352:318,1,120,2|2,0:0|0:0,0:0:0:0:
310,305,52164,2,0,L|218:314,1,80,8|2,0:0|0:0,0:0:0:0:
96,259,52535,5,10,0:0:0:0:
136,353,52720,1,10,0:0:0:0:
230,313,52905,1,10,0:0:0:0:
190,219,53090,1,10,0:0:0:0:
69,326,53276,5,10,0:0:0:0:
123,192,53461,1,10,0:0:0:0:
257,246,53646,1,10,0:0:0:0:
203,380,53831,1,10,0:0:0:0:
123,192,54016,5,10,0:0:0:0:
123,192,55498,6,0,P|183:217|248:209,1,132.00000402832,2|2,0:0|0:0,0:0:0:0:
283,169,55868,2,0,L|370:180,1,88.000002685547,8|2,0:0|0:0,0:0:0:0:
512,247,56239,2,0,P|447:255|386:230,1,132.00000402832,2|2,0:0|0:0,0:0:0:0:
370,180,56609,2,0,L|283:169,1,88.000002685547,8|2,0:0|0:0,0:0:0:0:
120,254,56979,2,0,L|207:243,1,88.000002685547,2|0,0:0|0:0,0:0:0:0:
235,74,57350,6,0,P|187:124|184:206,1,88.000002685547,8|0,0:0|0:0,0:0:0:0:
207,243,57720,2,0,P|269:274|354:247,1,88.000002685547,2|0,0:0|0:0,0:0:0:0:
376,219,58090,2,0,P|386:147|341:81,1,88.000002685547,8|0,0:0|0:0,0:0:0:0:
289,84,58461,6,0,P|279:156|324:222,1,88.000002685547,2|0,0:0|0:0,0:0:0:0:
302,219,58739,2,0,L|295:270,1,44.0000013427735,2|8,0:0|0:0,0:0:0:0:
195,233,59016,1,2,0:0:0:0:
382,134,59202,2,0,P|444:136|498:177,1,88.000002685547,2|0,0:0|0:0,0:0:0:0:
505,183,59479,2,0,L|497:251,1,44.0000013427735,2|8,0:0|0:0,0:0:0:0:
410,236,59757,1,2,0:0:0:0:
282,169,59942,6,0,P|279:109|313:54,1,88.000002685547,2|0,0:0|0:0,0:0:0:0:
318,44,60220,2,0,L|309:-16,1,44.0000013427735,2|8,0:0|0:0,0:0:0:0:
382,134,60498,1,2,0:0:0:0:
317,269,60683,5,8,0:0:0:0:
275,283,60776,1,8,0:0:0:0:
233,297,60868,2,0,L|184:242,1,60.0000022888184,2|0,0:0|0:0,0:0:0:0:
359,255,61053,2,0,P|364:317|341:379,1,120.000004577637,10|8,0:0|0:0,0:0:0:0:
233,297,61331,1,8,0:0:0:0:
230,300,61424,6,0,P|176:283|83:295,1,132.00000402832,2|2,0:0|0:0,0:0:0:0:
60,321,61794,2,0,P|23:298|-3:250,1,88.000002685547,8|2,0:0|0:0,0:0:0:0:
81,142,62164,2,0,P|135:159|228:147,1,132.00000402832,2|2,0:0|0:0,0:0:0:0:
251,121,62535,2,0,P|287:143|314:192,1,88.000002685547,8|2,0:0|0:0,0:0:0:0:
242,353,62905,2,0,L|247:241,1,88.000002685547,2|0,0:0|0:0,0:0:0:0:
410,218,63276,6,0,P|370:269|307:287,1,88.000002685547,8|0,0:0|0:0,0:0:0:0:
246,265,63646,2,0,P|208:207|214:139,1,88.000002685547,2|0,0:0|0:0,0:0:0:0:
251,94,64016,2,0,P|332:77|392:113,1,88.000002685547,8|0,0:0|0:0,0:0:0:0:
205,190,64387,6,0,P|161:190|121:173,1,88.000002685547,2|0,0:0|0:0,0:0:0:0:
87,133,64664,2,0,L|22:137,1,44.0000013427735,2|8,0:0|0:0,0:0:0:0:
182,87,64942,1,2,0:0:0:0:
311,181,65127,2,0,P|287:258|234:292,1,88.000002685547,2|0,0:0|0:0,0:0:0:0:
239,291,65405,2,0,L|244:363,1,44.0000013427735,2|8,0:0|0:0,0:0:0:0:
205,190,65683,1,2,0:0:0:0:
347,324,65868,5,2,0:0:0:0:
242,335,66053,1,2,0:0:0:0:
201,319,66146,1,8,0:0:0:0:
160,303,66239,1,10,0:0:0:0:
287,222,66424,1,2,0:0:0:0:
246,206,66516,1,8,0:0:0:0:
205,190,66609,1,10,0:0:0:0:
242,335,66794,6,0,L|160:303,1,60.0000022888184,2|0,0:0|0:0,0:0:0:0:
287,222,66979,2,0,P|361:313|348:395,1,180.000006866455,10|0,0:0|0:0,0:0:0:0:
242,335,67350,6,0,P|176:326|73:344,1,143.999995605469,2|8,0:0|0:0,0:0:0:0:
19,367,67905,1,2,0:0:0:0:
32,282,68090,2,0,P|32:252|28:210,1,71.9999978027344,2|0,0:0|0:0,0:0:0:0:
5,172,68368,2,0,L|11:118,1,35.9999989013672,2|8,0:0|0:0,0:0:0:0:
21,50,68646,1,2,0:0:0:0:
170,43,68831,6,0,P|162:70|105:111,1,71.9999978027344,2|0,0:0|0:0,0:0:0:0:
89,103,69109,2,0,L|83:157,1,35.9999989013672,2|8,0:0|0:0,0:0:0:0:
158,186,69387,1,2,0:0:0:0:
116,263,69572,1,2,0:0:0:0:
158,186,69757,6,0,L|216:182,1,47.9999985351563,2|0,0:0|0:0,0:0:0:0:
116,263,69942,2,0,P|77:220|85:139,1,143.999995605469,10|0,0:0|0:0,0:0:0:0:
206,183,70313,6,0,B|264:174|296:201|350:190,1,143.999995605469,2|8,0:0|0:0,0:0:0:0:
487,172,70868,1,2,0:0:0:0:
411,130,71053,1,2,0:0:0:0:
473,258,71239,1,2,0:0:0:0:
349,190,71424,1,8,0:0:0:0:
387,267,71609,5,2,0:0:0:0:
384,270,71702,1,2,0:0:0:0:
381,273,71794,2,0,P|345:279|287:278,1,71.9999978027344,2|0,0:0|0:0,0:0:0:0:
273,255,72072,2,0,L|220:255,1,35.9999989013672,2|8,0:0|0:0,0:0:0:0:
349,190,72350,1,2,0:0:0:0:
253,339,72535,1,2,0:0:0:0:
349,190,72720,6,0,L|424:190,1,47.9999985351563,2|0,0:0|0:0,0:0:0:0:
237,255,72905,2,0,P|226:148|273:85,1,143.999995605469,10|0,0:0|0:0,0:0:0:0:
397,190,73276,6,0,P|396:236|384:287,1,80,2|0,0:0|0:0,0:0:0:0:
338,114,73646,2,0,P|378:91|428:76,1,80,8|0,0:0|0:0,0:0:0:0:
302,204,74016,2,0,P|262:180|224:144,1,80,2|0,0:0|0:0,0:0:0:0:
220,112,74294,2,0,P|202:106|160:104,1,40,2|8,0:0|0:0,0:0:0:0:
91,139,74572,1,2,0:0:0:0:
131,251,74757,6,0,P|130:188|114:146,1,80,2|0,0:0|0:0,0:0:0:0:
91,139,75035,2,0,L|44:134,1,40,2|8,0:0|0:0,0:0:0:0:
181,103,75313,1,2,0:0:0:0:
227,187,75498,2,0,P|271:197|329:193,1,80,2|0,0:0|0:0,0:0:0:0:
340,28,75868,6,0,P|334:67|340:107,1,80,8|0,0:0|0:0,0:0:0:0:
394,234,76239,2,0,P|400:273|394:313,1,80,2|0,0:0|0:0,0:0:0:0:
418,14,76609,6,0,P|441:71|418:121,1,120.000004577637,8|0,0:0|0:0,0:0:0:0:
316,220,76979,2,0,P|293:277|316:327,1,120.000004577637,2|8,0:0|0:0,0:0:0:0:
390,352,77257,1,8,0:0:0:0:
393,355,77350,6,0,L|447:351,2,40,2|0|0,0:0|0:0|0:0,0:0:0:0:
316,220,77720,1,2,0:0:0:0:
471,221,79202,5,2,0:0:0:0:
392,277,79387,1,2,0:0:0:0:
313,221,79572,1,2,0:0:0:0:
344,130,79757,1,2,0:0:0:0:
471,221,79942,5,2,0:0:0:0:
392,277,80127,1,2,0:0:0:0:
313,221,80313,1,2,0:0:0:0:
344,130,80498,1,2,0:0:0:0:
471,221,80683,6,0,P|489:282|473:331,1,80,10|0,0:0|0:0,0:0:0:0:
392,277,80961,2,0,P|351:310|284:313,1,80,10|0,0:0|0:0,0:0:0:0:
313,221,81239,2,0,P|283:204|259:175,1,40,10|0,0:0|0:0,0:0:0:0:
344,130,81424,1,10,0:0:0:0:
344,130,81794,6,0,P|384:202|313:221,1,180.000006866455,8|0,0:3|0:0,0:0:0:0:
249,149,82164,6,0,B|239:88|277:78|266:18,1,132.00000402832,2|2,0:0|0:0,0:0:0:0:
252,152,82535,1,10,0:0:0:0:
269,23,82720,1,2,0:0:0:0:
129,33,82905,2,0,L|172:37,1,44.0000013427735,2|0,0:0|0:0,0:0:0:0:
88,131,83090,2,0,L|131:127,1,44.0000013427735,2|0,0:0|0:0,0:0:0:0:
64,234,83276,2,0,L|105:222,1,44.0000013427735,10|0,0:0|0:0,0:0:0:0:
58,340,83461,2,0,L|97:321,1,44.0000013427735,2|0,0:0|0:0,0:0:0:0:
227,153,83646,5,2,0:0:0:0:
132,127,83831,1,2,0:0:0:0:
106,222,84016,1,10,0:0:0:0:
201,248,84202,1,2,0:0:0:0:
132,127,84387,2,0,P|65:91|-16:97,1,132.00000402832,2|2,0:0|0:0,0:0:0:0:
132,127,84757,2,0,L|118:18,1,88.000002685547,10|0,0:0|0:0,0:0:0:0:
243,210,85127,6,0,P|243:144|254:78,1,132.00000402832,2|2,0:0|0:0,0:0:0:0:
246,213,85498,1,10,0:0:0:0:
257,82,85683,1,2,0:0:0:0:
371,169,85868,2,0,P|348:163|330:153,1,44.0000013427735,2|0,0:0|0:0,0:0:0:0:
282,244,86053,2,0,P|263:231|249:216,1,44.0000013427735,2|0,0:0|0:0,0:0:0:0:
172,284,86239,2,0,P|158:265|150:246,1,44.0000013427735,10|0,0:0|0:0,0:0:0:0:
55,284,86424,2,0,P|48:261|47:241,1,44.0000013427735,2|0,0:0|0:0,0:0:0:0:
103,155,86609,5,2,0:0:0:0:
55,26,86794,2,0,P|48:49|47:69,1,44.0000013427735,10|8,0:0|0:0,0:0:0:0:
151,26,86979,2,0,P|158:49|159:69,1,44.0000013427735,10|8,0:0|0:0,0:0:0:0:
103,155,87164,1,2,0:0:0:0:
255,63,87350,1,10,0:0:0:0:
207,192,87535,5,2,0:0:0:0:
151,26,87720,2,0,P|209:25|255:63,1,120.000004577637,2|0,0:0|0:0,0:0:0:0:
