osu file format v14

[General]
AudioFilename: ulala.mp3
AudioLeadIn: 0
PreviewTime: 49572
Countdown: 0
SampleSet: Soft
StackLeniency: 0.2
Mode: 0
LetterboxInBreaks: 0
WidescreenStoryboard: 0

[Editor]
DistanceSpacing: 0.9
BeatDivisor: 4
GridSize: 4
TimelineZoom: 2

[Metadata]
Title:Yumeji Labyrinth
TitleUnicode:夢路らびりんす
Artist:LABYRINTHS
ArtistUnicode:らびりんず
Creator:Binguo
Version:Kana's Normal
Source:うらら迷路帖
Tags:Urara Meirochou J.C.STAFF 原田彩楓 はらた さやか Harata Sayaka 本渡楓 ほんど かえで Hondo Kaede 久保 ユリカ くぼ ゆりか Kubo Yurika 佳村 はるか よしむらはるか Yoshimura Haruka Pata-Mon Hanazawa Kana Kamiya
BeatmapID:1213026
BeatmapSetID:565555

[Difficulty]
HPDrainRate:3
CircleSize:3.5
OverallDifficulty:4
ApproachRate:4
SliderMultiplier:1.1
SliderTickRate:1

[Events]
//Background and Video events
0,0,"urara.jpg",0,0
//Break Periods
//Storyboard Layer 0 (Background)
//Storyboard Layer 1 (Fail)
//Storyboard Layer 2 (Pass)
//Storyboard Layer 3 (Foreground)
//Storyboard Sound Samples

[TimingPoints]
2165,370.37037037037,4,2,1,30,1,0
8090,-100,4,2,1,45,0,0
19942,-100,4,2,1,60,0,0
23646,-100,4,2,1,100,0,0
23739,-100,4,2,1,60,0,0
26609,-100,4,2,1,100,0,0
26702,-100,4,2,1,60,0,0
55498,-100,4,2,1,60,0,1
67350,-100,4,2,1,60,0,0
82905,-100,4,2,1,100,0,0
82998,-100,4,2,1,60,0,0
85868,-100,4,2,1,100,0,0
85961,-100,4,2,1,60,0,0

[Colours]
Combo1 : 0,255,128
Combo2 : 255,108,38
Combo3 : 128,255,255
Combo4 : 255,255,128

[HitObjects]
96,81,2165,6,0,P|82:106|77:180,2,82.5,4|0|4,0:1|0:0|0:1,0:0:0:0:
136,52,2905,2,0,L|270:53,1,110,4|0,0:1|0:0,0:0:0:0:
289,76,3461,1,0,0:0:0:0:
317,116,3646,2,0,P|304:163|299:224,1,110,2|4,0:3|0:1,0:0:0:0:
389,265,4387,2,0,P|402:218|407:157,1,110,4|0,0:1|0:0,0:0:0:0:
403,58,5127,6,0,P|457:51|495:60,2,82.5,4|0|0,0:1|0:0|0:1,0:0:0:0:
356,76,5868,2,0,L|238:61,1,110,4|0,0:1|0:0,0:0:0:0:
197,70,6424,1,0,0:0:0:0:
156,98,6609,2,0,P|154:150|165:201,2,82.5,0|0|0,3:0|0:0|0:0,0:0:0:0:
122,61,7350,2,0,L|45:49,2,55,2|0|8,0:0|0:0|0:3,0:0:0:0:
63,140,8090,6,0,P|52:199|54:260,1,110,2|4,0:0|0:3,0:0:0:0:
77,292,8646,1,0,0:0:0:0:
124,278,8831,2,0,P|175:264|238:273,1,110,2|4,0:0|0:3,0:0:0:0:
277,289,9387,1,0,0:0:0:0:
318,315,9572,2,0,P|391:325|451:316,1,110,2|4,0:0|0:3,0:0:0:0:
440,223,10313,2,0,P|367:213|307:222,1,110,2|4,0:0|0:3,0:0:0:0:
243,170,11053,6,0,P|252:116|265:85,2,82.5,4|0|4,0:1|0:0|0:1,0:0:0:0:
228,216,11794,2,0,P|176:235|143:239,2,82.5,4|0|0,0:1|0:0|0:0,0:0:0:0:
276,205,12535,2,0,P|304:205|348:216,1,55,4|0,0:1|0:0,0:0:0:0:
372,236,12905,2,0,P|418:241|438:236,1,55,8|0,0:0|0:0,0:0:0:0:
469,214,13276,2,0,P|484:158|471:94,1,110,4|8,0:1|0:0,0:0:0:0:
398,46,14016,6,0,P|334:43|283:62,1,110,4|0,0:3|3:0,0:0:0:0:
216,122,14757,2,0,P|198:89|196:35,2,82.5,4|0|0,0:3|0:0|0:0,0:0:0:0:
259,145,15498,2,0,P|314:136|359:149,2,82.5,4|0|0,0:3|0:0|0:0,0:0:0:0:
221,177,16239,1,4,0:3:0:0:
122,165,16609,2,0,P|54:156|4:159,1,110,0|4,3:0|0:3,0:0:0:0:
4,256,17350,2,0,P|72:265|122:262,1,110,0|4,3:0|0:3,0:0:0:0:
203,221,18090,1,2,0:0:0:0:
227,124,18461,5,4,0:1:0:0:
265,278,19942,6,0,P|328:265|390:266,1,110,8|8,0:0|0:0,0:0:0:0:
421,277,20498,1,0,0:0:0:0:
469,265,20683,2,0,P|477:229|475:186,1,55,8|0,0:0|0:0,0:0:0:0:
487,162,21053,2,0,P|478:118|467:101,1,55,8|0,0:0|0:0,0:0:0:0:
440,71,21424,2,0,P|465:46|517:33,2,82.5,8|8|8,0:0|0:0|0:0,0:0:0:0:
399,99,22164,2,0,P|341:101|282:79,1,110,8|4,0:0|0:3,0:0:0:0:
216,148,22905,6,0,P|215:198|187:268,1,110,8|8,0:0|3:0,0:0:0:0:
154,282,23461,1,0,0:0:0:0:
108,302,23646,2,0,P|99:337|97:375,2,55,0|0|0,3:0|0:0|0:0,0:0:0:0:
27,244,24387,2,0,P|16:207|18:176,1,55,8|0,0:0|0:0,0:0:0:0:
29,143,24757,2,0,L|146:136,1,110,8|8,3:0|0:0,0:0:0:0:
185,120,25313,1,0,0:0:0:0:
185,120,25498,1,8,3:0:0:0:
250,194,25868,6,0,P|314:193|371:158,1,110,8|8,0:0|3:0,0:0:0:0:
389,137,26424,1,0,0:0:0:0:
434,116,26609,2,0,P|472:119|498:127,2,55,0|0|0,3:0|0:0|0:0,0:0:0:0:
437,215,27350,2,0,P|443:257|457:281,1,55,8|0,0:0|0:0,0:0:0:0:
470,312,27720,2,0,P|413:302|339:302,1,110,8|8,0:3|0:0,0:0:0:0:
315,321,28276,1,0,0:0:0:0:
315,321,28461,1,8,0:3:0:0:
220,346,28831,6,0,P|156:332|95:336,1,110,4|8,0:0|0:0,0:0:0:0:
39,264,29572,2,0,P|32:231|34:207,1,55,2|0,0:0|0:0,0:0:0:0:
61,169,29942,2,0,P|64:134|64:103,1,55,8|0,0:0|0:0,0:0:0:0:
41,70,30313,2,0,P|115:55|164:59,1,110,4|8,0:0|0:0,0:0:0:0:
190,146,31053,2,0,P|221:135|253:132,1,55,2|0,0:0|0:0,0:0:0:0:
291,142,31424,2,0,P|327:140|357:129,1,55,8|0,0:0|0:0,0:0:0:0:
386,108,31794,6,0,P|381:173|368:247,1,110,2|8,0:0|0:0,0:0:0:0:
460,267,32535,2,0,P|465:212|475:158,1,110,2|8,0:0|0:0,0:0:0:0:
497,61,33276,2,0,P|467:43|433:34,1,55,2|0,0:0|0:0,0:0:0:0:
398,36,33646,1,8,0:0:0:0:
303,7,34016,2,0,P|285:54|302:124,1,110,2|0,0:0|0:0,0:0:0:0:
313,157,34572,1,4,0:0:0:0:
299,204,34757,6,0,P|231:230|188:223,1,110,0|8,0:0|0:0,0:0:0:0:
101,191,35498,2,0,P|89:219|84:248,1,55,2|0,0:0|0:0,0:0:0:0:
92,291,35868,2,0,P|109:333|123:348,1,55,8|0,0:0|0:0,0:0:0:0:
163,348,36239,2,0,P|214:335|285:337,1,110,4|8,0:0|0:0,0:0:0:0:
369,328,36979,2,0,P|380:293|380:265,1,55,2|0,0:0|0:0,0:0:0:0:
368,226,37350,2,0,P|367:185|373:159,1,55,8|0,0:0|0:0,0:0:0:0:
391,127,37720,6,0,P|445:124|510:136,1,110,2|8,0:0|0:0,0:0:0:0:
488,34,38461,2,0,P|434:37|369:25,1,110,2|8,0:0|0:0,0:0:0:0:
279,32,39202,2,0,P|262:69|258:90,1,55,2|0,0:0|0:0,0:0:0:0:
269,131,39572,1,8,0:0:0:0:
170,137,39942,2,0,P|171:174|183:201,1,55,4|0,0:3|0:0,0:0:0:0:
180,240,40313,2,0,P|200:279|222:297,1,55,8|0,0:0|0:0,0:0:0:0:
256,293,40683,6,0,P|337:303|415:276,1,165,4|0,0:0|0:0,0:0:0:0:
458,253,41424,2,0,P|463:192|437:131,1,110,4|2,0:3|0:0,0:0:0:0:
379,77,42164,2,0,P|419:54|456:50,2,82.5,2|0|0,0:0|0:0|0:0,0:0:0:0:
354,120,42905,2,0,P|301:122|232:98,1,110,4|2,0:3|0:0,0:0:0:0:
157,63,43646,6,0,P|77:51|43:57,1,110,2|4,0:0|0:3,0:0:0:0:
36,153,44387,2,0,P|116:165|150:159,1,110,2|8,0:0|0:0,0:0:0:0:
194,245,45127,2,0,P|148:244|105:263,2,82.5,2|0|0,0:0|0:0|0:0,0:0:0:0:
236,270,45868,2,0,P|264:219|264:161,1,110,4|4,0:3|0:0,0:0:0:0:
248,70,46609,6,0,P|324:54|422:72,1,165,8|0,0:0|0:0,0:0:0:0:
455,86,47350,2,0,P|461:168|434:255,1,165,8|0,0:0|0:0,0:0:0:0:
425,294,48090,2,0,P|486:307|515:298,2,82.5,8|4|8,0:0|0:3|0:0,0:0:0:0:
394,255,48831,2,0,P|336:249|287:272,1,110,8|8,0:0|0:0,0:0:0:0:
196,303,49572,6,0,P|203:223|217:204,2,82.5,4|0|0,0:3|0:0|0:0,0:0:0:0:
196,352,50313,2,0,P|113:341|67:349,1,110,4|8,0:3|0:0,0:0:0:0:
39,357,50868,1,0,0:0:0:0:
1,324,51053,2,0,P|-5:245|10:204,1,110,4|8,0:3|0:0,0:0:0:0:
38,180,51609,1,0,0:0:0:0:
80,155,51794,2,0,P|141:148|189:161,1,110,4|8,0:3|0:0,0:0:0:0:
261,226,52535,6,0,P|295:214|326:214,1,55,8|0,0:0|0:0,0:0:0:0:
360,229,52905,2,0,P|384:172|381:113,2,110,2|8|8,0:3|0:0|0:0,0:0:0:0:
300,307,54016,1,4,0:1:0:0:
198,115,55498,6,0,P|244:106|294:113,2,82.5,4|0|4,0:1|0:0|0:1,0:0:0:0:
148,108,56239,2,0,P|131:58|137:14,2,82.5,4|0|4,0:1|0:0|0:1,0:0:0:0:
169,152,56979,2,0,P|100:156|38:146,1,110,4|4,0:1|0:1,0:0:0:0:
41,248,57720,2,0,P|110:244|172:254,1,110,4|4,0:1|0:1,0:0:0:0:
249,256,58461,6,0,P|261:205|257:167,2,82.5,4|0|4,0:1|0:0|0:1,0:0:0:0:
288,286,59202,2,0,P|321:246|334:210,2,82.5,4|0|4,0:1|0:0|0:1,0:0:0:0:
308,331,59942,2,0,P|356:312|384:286,2,82.5,4|0|4,0:1|0:0|0:1,0:0:0:0:
260,346,60683,2,0,P|192:338|139:346,1,110,4|8,0:0|0:3,0:0:0:0:
80,272,61424,6,0,P|16:269|-13:279,2,82.5,4|0|4,0:1|0:0|0:1,0:0:0:0:
127,253,62164,2,4,P|191:250|220:260,2,82.5,4|0|4,0:1|0:0|0:1,0:0:0:0:
89,220,62905,2,0,P|78:161|88:98,1,110,4|4,0:1|0:1,0:0:0:0:
168,59,63646,2,0,P|179:118|169:181,1,110,4|4,0:1|0:1,0:0:0:0:
272,174,64387,6,0,P|313:163|369:163,2,82.5,4|0|4,0:1|0:0|0:1,0:0:0:0:
251,219,65127,2,0,P|259:280|252:319,2,82.5,4|0|0,0:1|0:0|0:0,0:0:0:0:
211,189,65868,2,0,P|207:149|208:121,1,55,4|0,0:1|0:0,0:0:0:0:
224,87,66239,2,0,P|233:49|243:27,1,55,8|0,0:3|0:0,0:0:0:0:
286,19,66609,2,0,P|361:21|393:33,1,110,4|6,0:1|0:0,0:0:0:0:
468,100,67350,6,0,P|453:173|447:224,1,110,2|8,0:0|0:3,0:0:0:0:
424,304,68090,2,0,P|472:296|524:300,2,82.5,8|0|0,0:3|0:0|0:0,0:0:0:0:
376,300,68831,2,0,P|364:240|364:204,2,82.5,4|0|0,0:1|0:0|0:0,0:0:0:0:
360,348,69572,2,0,P|296:308|240:312,1,110,8|8,0:3|0:0,0:0:0:0:
168,340,70313,6,0,P|76:328|64:260,1,165,4|0,0:1|0:0,0:0:0:0:
76,220,71053,2,0,P|136:196|184:212,1,110,8|8,0:3|0:0,0:0:0:0:
264,252,71794,2,0,P|308:208|312:140,1,110,4|0,0:1|0:0,0:0:0:0:
308,116,72350,2,0,P|377:100|429:110,1,110,0|0,0:0|3:0,0:0:0:0:
460,124,72905,1,8,0:0:0:0:
502,211,73276,6,0,P|480:318|472:333,1,110,4|0,0:3|3:0,0:0:0:0:
386,285,74016,2,0,P|395:222|387:190,2,82.5,4|0|0,0:3|0:0|0:0,0:0:0:0:
336,287,74757,2,0,P|322:224|304:197,2,82.5,4|0|0,0:3|0:0|0:0,0:0:0:0:
300,322,75498,1,4,0:3:0:0:
204,295,75868,6,0,P|128:291|72:303,1,110,0|4,3:0|0:3,0:0:0:0:
48,208,76609,2,0,P|124:212|180:200,1,110,0|4,3:1|0:3,0:0:0:0:
241,154,77350,1,2,0:0:0:0:
215,58,77720,1,4,0:1:0:0:
85,315,79202,6,0,P|119:276|126:218,1,110,8|8,0:0|0:0,0:0:0:0:
109,172,79758,1,0,0:0:0:0:
103,122,79943,2,0,P|145:99|172:95,1,55,8|0,0:0|0:0,0:0:0:0:
195,119,80313,2,0,P|225:118|252:113,1,55,8|0,0:0|0:0,0:0:0:0:
291,86,80684,2,0,P|277:31|254:6,2,82.5,8|8|8,0:0|0:0|0:0,0:0:0:0:
322,124,81424,2,0,P|380:109|440:107,1,110,8|4,0:0|0:3,0:0:0:0:
482,190,82165,6,0,P|481:260|463:312,1,110,8|8,0:0|3:0,0:0:0:0:
427,323,82721,1,0,0:0:0:0:
378,314,82906,2,0,P|340:316|303:335,2,55,0|0|0,3:0|0:0|0:0,0:0:0:0:
388,215,83647,2,0,P|388:181|399:139,1,55,8|0,0:0|0:0,0:0:0:0:
415,116,84017,2,0,L|292:115,1,110,8|8,3:0|0:0,0:0:0:0:
259,135,84573,1,0,0:0:0:0:
259,135,84758,1,8,3:0:0:0:
220,226,85128,6,0,P|163:240|109:221,1,110,8|8,0:0|3:0,0:0:0:0:
81,188,85684,1,0,0:0:0:0:
54,146,85869,2,0,P|23:147|-13:162,2,55,0|0|0,3:0|0:0|0:0,0:0:0:0:
152,139,86610,2,0,P|170:113|177:85,1,55,8|0,0:0|0:0,0:0:0:0:
155,45,86980,2,0,P|216:36|272:38,1,110,8|8,0:3|0:0,0:0:0:0:
308,60,87536,1,0,0:0:0:0:
308,60,87721,1,8,0:3:0:0:
