osu file format v14

[General]
AudioFilename: ulala.mp3
AudioLeadIn: 0
PreviewTime: 49572
Countdown: 0
SampleSet: Soft
StackLeniency: 0.2
Mode: 0
LetterboxInBreaks: 0
WidescreenStoryboard: 0

[Editor]
DistanceSpacing: 0.6
BeatDivisor: 4
GridSize: 4
TimelineZoom: 3.299999

[Metadata]
Title:Yumeji Labyrinth
TitleUnicode:夢路らびりんす
Artist:LABYRINTHS
ArtistUnicode:らびりんず
Creator:Binguo
Version:Fortune
Source:うらら迷路帖
Tags:Urara Meirochou J.C.STAFF 原田彩楓 はらた さやか Harata Sayaka 本渡楓 ほんど かえで Hondo Kaede 久保 ユリカ くぼ ゆりか Kubo Yurika 佳村 はるか よしむらはるか Yoshimura Haruka Pata-Mon Hanazawa Kana Kamiya
BeatmapID:1254830
BeatmapSetID:565555

[Difficulty]
HPDrainRate:7
CircleSize:4
OverallDifficulty:7.5
ApproachRate:9
SliderMultiplier:1.4
SliderTickRate:1

[Events]
//Background and Video events
0,0,"urara.jpg",0,0
//Break Periods
//Storyboard Layer 0 (Background)
//Storyboard Layer 1 (Fail)
//Storyboard Layer 2 (Pass)
//Storyboard Layer 3 (Foreground)
//Storyboard Sound Samples

[TimingPoints]
2165,370.37037037037,4,2,1,30,1,0
2165,-133.333333333333,4,2,1,30,0,0
6609,-133.333333333333,4,2,1,50,0,0
7350,-100,4,2,1,50,0,0
8090,-83.3333333333333,4,2,1,50,0,0
21424,-66.6666666666667,4,2,1,60,0,0
22535,-83.3333333333333,4,2,1,60,0,0
28831,-100,4,2,1,50,0,0
40683,-133.333333333333,4,2,1,40,0,0
41794,-83.3333333333333,4,2,1,40,0,0
42164,-133.333333333333,4,2,1,40,0,0
46239,-83.3333333333333,4,2,1,40,0,0
48090,-100,4,2,1,50,0,0
48553,-100,4,2,1,5,0,0
48646,-100,4,2,1,50,0,0
55498,-76.9230769230769,4,2,1,70,0,1
57350,-66.6666666666667,4,2,1,70,0,1
57627,-66.6666666666667,4,2,1,5,0,1
57720,-66.6666666666667,4,2,1,70,0,1
57998,-66.6666666666667,4,2,1,5,0,1
58090,-66.6666666666667,4,2,1,70,0,1
58461,-76.9230769230769,4,2,1,70,0,1
60868,-66.6666666666667,4,2,1,70,0,1
61424,-76.9230769230769,4,2,1,70,0,1
63276,-66.6666666666667,4,2,1,70,0,1
63553,-66.6666666666667,4,2,1,5,0,1
63646,-66.6666666666667,4,2,1,70,0,1
63924,-66.6666666666667,4,2,1,5,0,1
64016,-66.6666666666667,4,2,1,70,0,1
64387,-76.9230769230769,4,2,1,70,0,1
66794,-66.6666666666667,4,2,1,70,0,1
67350,-133.333333333333,4,2,1,50,0,0
69757,-83.3333333333333,4,2,1,50,0,0
80683,-66.6666666666667,4,2,1,60,0,0
81794,-83.3333333333333,4,2,1,60,0,0
82072,-83.3333333333333,4,2,1,5,0,0
82164,-83.3333333333333,4,2,1,60,0,0
87350,-66.6666666666667,4,2,1,60,0,0
87905,-66.6666666666667,4,2,1,5,0,0

[Colours]
Combo1 : 0,255,128
Combo2 : 255,108,38
Combo3 : 128,255,255
Combo4 : 255,255,128

[HitObjects]
200,216,2165,6,0,P|196:256|204:312,2,78.7500030040742,4|0|0,0:1|0:0|0:0,0:0:0:0:
312,216,2905,2,0,P|316:252|312:300,2,78.7500030040742,8|0|0,0:3|0:0|0:0,0:0:0:0:
212,120,3646,6,0,P|185:120|160:127,1,52.5000020027161,2|0,0:0|0:0,0:0:0:0:
176,44,4016,1,8,0:3:0:0:
212,120,4202,1,0,0:0:0:0:
300,120,4387,2,0,P|326:120|351:127,1,52.5000020027161,8|0,0:3|0:0,0:0:0:0:
336,44,4757,1,2,0:0:0:0:
300,120,4943,1,0,0:0:0:0:
471,147,5127,6,0,P|472:104|462:68,1,78.7500030040742,8|0,0:3|0:0,0:0:0:0:
388,118,5498,2,0,L|392:170,1,52.5000020027161,2|0,0:0|0:0,0:0:0:0:
298,320,5868,2,0,P|297:281|311:245,1,78.7500030040742,8|0,0:3|0:0,0:0:0:0:
390,209,6239,2,0,L|396:263,1,52.5000020027161,2|0,0:0|0:0,0:0:0:0:
236,200,6609,5,0,3:0:0:0:
236,200,7350,5,0,3:0:0:0:
208,284,7535,1,0,3:0:0:0:
176,368,7720,1,0,3:0:0:0:
147,224,8090,6,0,L|147:94,1,125.999996154785,4|0,0:0|0:0,0:0:0:0:
63,92,8461,2,0,B|104:90|104:90|146:97,1,83.9999974365235,8|2,0:0|0:0,0:0:0:0:
376,168,8831,2,0,P|313:172|254:150,1,125.999996154785,4|0,0:0|0:0,0:0:0:0:
254,150,9202,2,0,L|261:66,1,83.9999974365235,8|2,0:0|0:0,0:0:0:0:
478,236,9572,6,0,L|469:319,1,83.9999974365235,2|0,0:0|0:0,0:0:0:0:
347,302,9942,1,8,0:0:0:0:
512,159,10313,1,2,0:0:0:0:
438,336,10498,1,2,0:0:0:0:
404,337,10590,1,0,0:0:0:0:
372,325,10683,1,8,0:0:0:0:
236,304,11053,6,0,B|216:320|216:320|272:328|316:320,1,125.999996154785,4|0,0:1|0:0,0:0:0:0:
236,304,11424,1,8,0:0:0:0:
372,380,11609,1,2,0:3:0:0:
84,336,11794,6,0,B|96:308|96:276|96:276|104:308|132:328,1,125.999996154785,4|0,0:1|0:0,0:0:0:0:
132,327,12165,1,8,0:0:0:0:
44,364,12350,1,2,0:3:0:0:
72,144,12535,5,8,0:0:0:0:
188,194,12720,2,0,L|228:184,1,41.9999987182618,0|0,3:0|0:3,0:3:0:0:
346,155,12905,2,0,L|427:135,1,83.9999974365235,0|2,3:0|0:0,0:0:0:0:
428,136,13183,1,0,0:0:0:0:
428,136,13276,1,8,0:0:0:0:
460,280,13461,1,2,0:3:0:0:
413,277,13554,1,2,0:3:0:0:
375,252,13646,1,8,0:0:0:0:
413,39,13831,1,8,0:0:0:0:
460,42,13923,1,8,0:0:0:0:
498,67,14016,6,0,P|516:106|524:162,1,83.9999974365235,4|0,0:0|0:0,0:0:0:0:
347,215,14387,2,0,P|329:178|320:137,1,83.9999974365235,8|0,0:0|0:0,0:0:0:0:
96,144,14757,2,0,P|155:164|217:158,1,125.999996154785,4|0,0:3|0:0,0:0:0:0:
241,239,15127,2,0,P|233:197|217:159,1,83.9999974365235,8|0,0:0|0:0,0:0:0:0:
96,144,15498,6,0,P|75:203|81:265,1,125.999996154785,4|0,0:3|0:0,0:0:0:0:
1,290,15868,2,0,P|42:282|80:266,1,83.9999974365235,8|0,0:0|0:0,0:0:0:0:
217,159,16239,1,2,0:3:0:0:
352,160,16424,1,2,0:3:0:0:
352,160,16516,1,2,0:3:0:0:
352,160,16609,1,8,0:0:0:0:
308,288,16794,1,2,0:3:0:0:
512,304,16979,6,0,P|468:264|404:248,1,125.999996154785,4|0,0:0|0:0,0:0:0:0:
431,141,17350,2,0,P|390:142|352:160,1,83.9999974365235,2|0,0:3|0:0,0:0:0:0:
385,327,17720,2,0,P|402:289|404:248,1,83.9999974365235,4|2,0:3|0:3,0:0:0:0:
213,250,18090,1,4,0:3:0:0:
170,284,18182,1,2,0:3:0:0:
180,339,18275,1,2,0:3:0:0:
232,357,18368,1,2,0:3:0:0:
221,304,18461,1,4,0:0:0:0:
177,157,19942,5,8,0:0:0:0:
70,282,20127,1,2,0:0:0:0:
102,112,20313,5,8,0:0:0:0:
102,200,20498,1,2,0:0:0:0:
70,34,20683,5,8,0:0:0:0:
263,156,20868,1,2,0:0:0:0:
102,200,21054,5,8,0:0:0:0:
102,112,21239,1,2,0:0:0:0:
328,208,21424,6,0,P|379:216|435:206,1,105.000004005432,10|0,0:0|0:0,0:0:0:0:
431,104,21702,2,0,P|379:96|328:104,1,105.000004005432,10|0,0:0|0:0,0:0:0:0:
210,156,21979,6,0,L|263:156,1,52.5000020027161,10|0,0:0|0:0,0:0:0:0:
24,156,22164,1,10,0:0:0:0:
368,345,22535,6,0,L|327:338,1,41.9999987182618,4|0,0:3|0:0,0:0:0:0:
245,278,22720,2,0,L|208:297,1,41.9999987182618
32,320,22905,6,0,P|97:266|132:228,1,125.999996154785,4|8,0:0|0:0,0:0:0:0:
144,196,23276,1,8,0:0:0:0:
140,52,23461,1,2,0:3:0:0:
236,120,23646,5,2,0:0:0:0:
48,128,23831,1,2,0:0:0:0:
276,120,24016,5,2,0:0:0:0:
464,128,24201,1,2,0:0:0:0:
372,52,24387,5,8,0:0:0:0:
368,196,24572,1,2,0:3:0:0:
368,196,24664,1,2,0:3:0:0:
368,196,24757,1,8,0:0:0:0:
476,280,24942,5,4,0:3:0:0:
364,344,25127,1,8,0:0:0:0:
256,272,25313,1,2,0:3:0:0:
256,272,25405,1,2,0:3:0:0:
256,272,25498,1,8,0:0:0:0:
476,280,25683,1,8,0:0:0:0:
316,352,25868,6,0,P|256:368|196:352,1,125.999996154785,4|8,0:0|0:0,0:0:0:0:
148,344,26239,1,8,0:0:0:0:
144,196,26424,1,2,0:3:0:0:
36,280,26609,5,2,0:0:0:0:
48,132,26794,1,2,0:0:0:0:
172,48,26979,5,2,0:0:0:0:
160,196,27164,1,2,0:0:0:0:
312,204,27350,5,8,0:0:0:0:
348,60,27535,1,2,0:3:0:0:
332,60,27627,1,2,0:3:0:0:
316,60,27720,1,8,0:0:0:0:
452,196,27905,5,2,0:3:0:0:
452,180,27997,1,2,0:3:0:0:
452,164,28090,1,8,0:0:0:0:
312,204,28276,1,0,0:0:0:0:
448,64,28461,1,8,0:0:0:0:
388,296,28646,1,0,0:0:0:0:
220,124,28831,1,4,0:0:0:0:
156,372,29202,5,8,0:0:0:0:
48,240,29387,2,0,L|48:280,1,35,2|0,0:0|0:0,0:0:0:0:
184,260,29572,1,2,0:3:0:0:
125,178,29757,1,2,0:3:0:0:
48,368,29942,1,8,0:0:0:0:
200,288,30127,1,2,0:3:0:0:
352,240,30313,5,4,0:3:0:0:
232,228,30498,1,2,0:3:0:0:
216,260,30590,1,0,0:0:0:0:
200,288,30683,1,8,0:0:0:0:
355,70,30868,2,0,L|355:118,1,35,2|0,0:0|0:0,0:0:0:0:
184,76,31053,1,2,0:3:0:0:
259,11,31238,1,2,0:3:0:0:
355,34,31423,1,8,0:0:0:0:
300,158,31608,1,2,0:3:0:0:
129,179,31794,6,0,P|96:179|48:171,1,70,4|2,0:3|0:3,0:0:0:0:
42,143,32072,1,0,0:0:0:0:
33,109,32164,1,8,0:0:0:0:
129,281,32350,1,2,0:3:0:0:
98,298,32443,1,0,0:0:0:0:
64,307,32535,1,2,0:3:0:0:
228,349,32720,1,2,0:3:0:0:
213,224,32905,1,8,0:0:0:0:
308,260,33090,1,2,0:3:0:0:
365,366,33276,5,2,0:3:0:0:
394,192,33461,2,0,L|386:157,1,35,2|0,0:0|0:0,0:0:0:0:
410,272,33646,1,2,0:3:0:0:
386,157,33831,2,0,L|394:122,1,35,2|0,0:0|0:0,0:0:0:0:
414,40,34016,1,2,0:3:0:0:
154,39,34202,1,2,0:3:0:0:
180,61,34294,1,2,0:3:0:0:
212,74,34387,2,0,P|234:43|240:3,1,70,4|4,0:3|0:0,0:0:0:0:
6,148,34757,1,2,0:3:0:0:
192,335,35127,5,8,0:0:0:0:
78,279,35312,2,0,L|93:247,1,35,2|0,0:0|0:0,0:0:0:0:
101,378,35498,1,2,0:3:0:0:
200,164,35683,1,2,0:3:0:0:
192,335,35867,1,8,0:0:0:0:
78,279,36052,1,2,0:3:0:0:
200,164,36238,5,4,0:3:0:0:
308,44,36423,1,2,0:3:0:0:
308,79,36515,1,0,0:0:0:0:
308,115,36608,1,8,0:0:0:0:
383,292,36794,2,0,L|379:328,1,35,2|0,0:0|0:0,0:0:0:0:
294,239,36978,1,2,0:3:0:0:
405,189,37163,1,2,0:3:0:0:
308,115,37350,1,8,0:0:0:0:
294,239,37535,1,2,0:3:0:0:
92,176,37720,6,0,P|58:172|23:176,1,70,4|2,0:3|0:3,0:0:0:0:
16,215,37998,1,0,0:0:0:0:
24,248,38090,1,8,0:0:0:0:
183,213,38276,1,2,0:3:0:0:
191,180,38368,1,0,0:0:0:0:
185,141,38461,1,2,0:3:0:0:
128,338,38646,1,2,0:3:0:0:
294,239,38831,1,8,0:0:0:0:
334,348,39016,1,2,0:3:0:0:
344,132,39202,5,4,0:3:0:0:
264,68,39387,2,0,L|268:32,1,35,2|0,0:0|0:0,0:0:0:0:
158,57,39572,1,8,0:0:0:0:
445,119,39757,2,0,L|481:123,1,35,2|0,0:0|0:0,0:0:0:0:
456,13,39942,1,8,0:0:0:0:
432,204,40127,1,8,0:0:0:0:
432,204,40220,1,8,0:0:0:0:
432,204,40313,1,4,0:3:0:0:
445,236,40405,1,8,0:0:0:0:
448,270,40498,1,8,0:0:0:0:
447,304,40590,1,8,0:0:0:0:
438,339,40683,6,0,L|328:336,1,105.000004005432,4|4,0:3|0:3,0:0:0:0:
232,356,41424,1,4,0:3:0:0:
92,336,41609,2,0,L|94:362,1,26.2500010013581,2|0,0:0|0:0,0:0:0:0:
176,256,41794,2,0,L|179:138,1,83.9999974365235,0|0,3:0|0:0,0:0:0:0:
12,168,42164,5,4,0:3:0:0:
100,92,42535,1,4,0:3:0:0:
4,32,42905,1,8,0:0:0:0:
100,92,43090,2,0,L|144:88,1,26.2500010013581,4|0,0:3|0:0,0:0:0:0:
307,84,43276,1,2,0:0:0:0:
299,109,43368,1,0,0:0:0:0:
279,127,43461,1,2,0:0:0:0:
255,138,43553,1,0,0:0:0:0:
228,140,43646,6,0,L|220:68,1,52.5000020027161,2|0,0:0|0:0,0:0:0:0:
132,192,44016,2,0,L|126:244,1,52.5000020027161,10|0,0:0|0:0,0:0:0:0:
272,232,44387,2,0,L|324:226,1,52.5000020027161,2|0,0:0|0:0,0:0:0:0:
428,328,44757,2,0,L|375:322,1,52.5000020027161,10|0,0:0|0:0,0:0:0:0:
191,351,45127,6,0,P|151:359|107:355,1,78.7500030040742,2|0,0:0|0:0,0:0:0:0:
114,357,45498,1,10,0:0:0:0:
16,288,45683,1,0,0:0:0:0:
132,192,45868,1,4,0:3:0:0:
16,136,46053,2,0,L|13:161,1,26.2500010013581,4|0,0:0|0:0,0:0:0:0:
160,44,46239,2,0,P|122:41|62:61,1,83.9999974365235,4|0,0:0|0:0,0:0:0:0:
260,176,46609,5,8,0:0:0:0:
364,100,46979,1,2,0:0:0:0:
480,156,47350,5,8,0:0:0:0:
260,176,47535,1,4,0:3:0:0:
380,280,47905,1,8,0:0:0:0:
380,280,47998,1,2,0:3:0:0:
379,280,48090,6,0,P|388:246|381:212,1,70,8|0,0:0|0:0,0:0:0:0:
472,300,48368,1,2,0:3:0:0:
472,300,48461,2,0,L|481:353,1,35,2|0,0:3|0:0,0:0:0:0:
480,208,48646,1,8,0:0:0:0:
295,341,48831,2,0,L|284:272,1,70,4|8,0:3|0:0,0:0:0:0:
245,278,49109,1,8,0:0:0:0:
206,273,49202,1,4,0:3:0:0:
170,258,49294,1,2,0:3:0:0:
146,227,49387,1,2,0:3:0:0:
147,266,49479,1,2,0:3:0:0:
136,300,49572,5,4,0:0:0:0:
12,348,49757,2,0,L|52:332,1,35,2|0,0:0|0:0,0:0:0:0:
60,236,49942,1,8,0:0:0:0:
220,192,50127,1,2,0:0:0:0:
136,84,50313,5,4,0:0:0:0:
12,36,50498,2,0,L|52:52,1,35,2|0,0:0|0:0,0:0:0:0:
60,148,50683,1,8,0:0:0:0:
220,192,50868,1,2,0:0:0:0:
376,88,51053,5,8,0:0:0:0:
396,172,51239,1,2,0:0:0:0:
292,108,51424,5,0,3:0:0:0:
412,256,51610,1,2,0:0:0:0:
460,64,51794,5,8,0:0:0:0:
484,200,51980,1,2,0:0:0:0:
356,8,52164,5,2,3:0:0:0:
324,232,52350,1,0,0:0:0:0:
220,200,52535,5,8,0:0:0:0:
60,32,52720,1,2,0:3:0:0:
156,60,52905,5,8,0:0:0:0:
16,264,53090,1,2,0:3:0:0:
147,340,53276,5,8,0:0:0:0:
96,160,53461,1,4,0:3:0:0:
24,296,53646,1,8,0:0:0:0:
488,296,54016,5,12,0:0:0:0:
376,264,55498,6,0,P|327:259|273:270,1,90.9999958343508,4|2,0:0|0:0,0:0:0:0:
267,310,55776,1,0,0:0:0:0:
255,358,55868,1,8,0:0:0:0:
295,146,56053,1,2,0:0:0:0:
376,264,56239,2,0,P|421:269|473:261,1,90.9999958343508,2|2,0:3|0:0,0:0:0:0:
483,218,56517,1,0,0:0:0:0:
491,170,56609,1,8,0:0:0:0:
455,382,56794,1,2,0:0:0:0:
393,157,56979,6,0,P|393:103|403:64,1,90.9999958343508,8|0,0:3|0:0,0:0:0:0:
207,95,57350,2,0,P|128:90|52:108,1,157.500006008148,4|0,0:0|0:0,0:0:0:0:
151,193,57720,6,0,P|192:233|212:331,1,157.500006008148,4|0,0:0|0:0,0:0:0:0:
75,323,58090,2,0,P|58:273|59:221,1,105.000004005432,8|0,0:0|0:0,0:0:0:0:
212,282,58461,6,0,P|213:328|202:372,1,90.9999958343508,8|2,0:0|0:0,0:0:0:0:
400,276,58831,1,8,0:0:0:0:
301,281,59016,1,2,0:0:0:0:
446,363,59202,2,0,P|403:377|360:368,1,90.9999958343508,8|2,0:0|0:0,0:0:0:0:
452,192,59572,1,8,0:0:0:0:
496,280,59757,1,2,0:0:0:0:
344,196,59942,6,0,P|299:124|319:61,1,136.499993751526,8|0,0:0|0:0,0:0:0:0:
381,120,60313,1,8,0:0:0:0:
220,180,60498,2,0,P|200:164|184:140,1,45.4999979171754,2|2,0:3|0:3,0:0:0:0:
72,44,60683,1,8,0:0:0:0:
116,16,60776,1,2,0:3:0:0:
168,8,60868,2,2,L|156:68,1,52.5000020027161,2|0,0:0|0:0,0:1:0:0:
68,224,61053,2,2,P|105:261|156:271,1,105.000004005432,8|0,0:0|0:0,0:1:0:0:
342,286,61424,6,0,L|335:195,1,90.9999958343508,4|2,0:0|0:0,0:0:0:0:
380,168,61702,1,0,0:0:0:0:
432,160,61794,1,8,0:0:0:0:
223,175,61979,1,2,0:0:0:0:
335,195,62164,6,0,L|341:285,1,90.9999958343508,8|2,0:0|0:0,0:0:0:0:
297,313,62442,1,0,0:0:0:0:
245,321,62534,1,8,0:0:0:0:
456,304,62719,1,2,0:0:0:0:
176,256,62905,6,0,P|128:264|76:284,1,90.9999958343508,8|0,0:3|0:0,0:0:0:0:
4,81,63276,2,0,P|82:71|160:84,1,157.500006008148,4|0,0:0|0:0,0:0:0:0:
227,163,63646,6,0,P|305:156|382:138,1,157.500006008148,4|0,0:0|0:0,0:0:0:0:
477,179,64016,2,0,P|482:115|459:68,1,105.000004005432,8|0,0:0|0:0,0:0:0:0:
299,202,64387,6,0,P|278:138|299:74,1,136.499993751526,8|0,0:0|0:0,0:0:0:0:
382,138,64757,1,8,0:0:0:0:
405,317,64942,1,2,0:3:0:0:
219,272,65127,2,0,P|159:250|90:272,1,136.499993751526,8|0,0:0|0:0,0:0:0:0:
155,354,65498,1,8,0:0:0:0:
12,200,65682,1,2,0:3:0:0:
155,138,65868,5,8,0:0:0:0:
47,60,66053,2,0,L|57:105,1,45.4999979171754,0|0,3:0|0:3,0:3:0:0:
253,106,66238,2,0,P|261:64|258:15,1,90.9999958343508,0|2,3:0|0:0,0:0:0:0:
258,16,66516,1,0,0:0:0:0:
258,16,66609,1,8,0:0:0:0:
90,218,66794,2,2,L|100:269,1,52.5000020027161,2|0,0:0|0:0,0:1:0:0:
289,296,66979,2,2,P|297:244|293:192,1,105.000004005432,8|0,0:3|0:0,0:1:0:0:
298,186,67350,6,0,P|304:238|298:291,1,105.000004005432,2|8,0:0|0:3,0:0:0:0:
388,357,67905,1,2,0:3:0:0:
440,258,68090,2,0,P|433:227|435:183,1,52.5000020027161,2|0,0:0|0:0,0:0:0:0:
376,117,68461,1,8,0:0:0:0:
288,60,68646,1,2,0:3:0:0:
212,132,68831,6,0,P|160:140|108:132,1,105.000004005432,4|8,0:3|0:0,0:0:0:0:
36,56,69387,1,2,0:3:0:0:
44,216,69572,1,2,0:0:0:0:
108,132,69757,2,2,L|152:136,1,41.9999987182618,2|0,0:3|0:0,0:1:0:0:
161,309,69942,2,2,P|121:319|79:315,1,83.9999974365235,8|0,0:0|0:0,0:1:0:0:
196,220,70313,5,2,0:0:0:0:
362,199,70498,1,2,0:0:0:0:
417,313,70683,5,10,0:0:0:0:
279,209,70868,1,2,0:0:0:0:
446,189,71053,1,8,0:3:0:0:
446,189,71239,5,2,0:3:0:0:
250,338,71424,1,8,0:0:0:0:
133,135,71609,2,0,L|176:104,1,41.9999987182618,2|0,0:3|0:0,0:0:0:0:
258,43,71794,5,2,0:0:0:0:
279,209,71979,1,2,0:0:0:0:
196,220,72164,5,10,0:0:0:0:
446,189,72350,1,2,0:3:0:0:
383,370,72535,1,8,0:3:0:0:
363,203,72720,2,2,L|352:136,1,41.9999987182618,2|0,0:3|0:0,0:1:0:0:
433,28,72905,2,2,P|466:54|485:91,1,83.9999974365235,8|0,0:0|0:0,0:1:0:0:
492,284,73276,6,0,P|468:315|424:339,1,83.9999974365235,4|0,0:0|0:0,0:0:0:0:
292,308,73647,2,0,P|252:300|208:308,1,83.9999974365235,8|0,0:0|0:0,0:0:0:0:
4,352,74017,2,0,P|64:368|140:352,1,125.999996154785,4|0,0:3|0:0,0:0:0:0:
132,276,74387,2,0,P|124:234|108:196,1,83.9999974365235,8|0,0:0|0:0,0:0:0:0:
306,186,74758,6,0,P|285:245|291:307,1,125.999996154785,4|0,0:3|0:0,0:0:0:0:
355,363,75127,2,0,P|397:361|436:346,1,83.9999974365235,8|0,0:0|0:0,0:0:0:0:
408,168,75498,1,2,0:3:0:0:
464,252,75683,1,0,0:0:0:0:
305,185,75868,2,0,P|298:144|303:103,1,83.9999974365235,8|0,0:0|0:0,0:0:0:0:
184,108,76238,6,0,P|140:68|76:52,1,125.999996154785,4|0,0:0|0:0,0:0:0:0:
87,159,76609,2,0,P|46:166|13:192,1,83.9999974365235,2|0,0:3|0:0,0:0:0:0:
70,342,76979,2,0,P|69:300|87:263,1,83.9999974365235,4|2,0:3|0:3,0:0:0:0:
299,250,77350,1,4,0:3:0:0:
342,284,77442,1,2,0:3:0:0:
332,339,77535,1,2,0:3:0:0:
280,357,77628,1,2,0:3:0:0:
291,304,77721,1,4,0:0:0:0:
432,349,79202,5,8,0:0:0:0:
230,319,79387,1,2,0:0:0:0:
406,269,79573,5,8,0:0:0:0:
280,252,79758,1,2,0:0:0:0:
488,231,79943,5,8,0:0:0:0:
212,192,80127,1,2,0:0:0:0:
365,90,80314,5,8,0:0:0:0:
351,200,80499,1,2,0:0:0:0:
454,216,80684,6,0,P|403:200|351:201,1,105.000004005432,10|0,0:0|0:0,0:0:0:0:
249,187,80962,2,0,P|298:201|350:200,1,105.000004005432,10|0,0:0|0:0,0:0:0:0:
362,116,81239,6,0,L|369:64,1,52.5000020027161,10|0,0:0|0:0,0:0:0:0:
332,339,81424,1,10,0:0:0:0:
332,339,81794,6,0,B|251:327|251:327|221:292,1,125.999996154785,12|0,3:3|0:0,0:0:0:0:
184,371,82164,6,0,B|155:337|155:337|74:325,1,125.999996154785,4|0,0:0|0:0,0:0:0:0:
0,355,82535,1,8,0:0:0:0:
222,293,82720,1,2,0:3:0:0:
136,196,82905,5,2,0:0:0:0:
256,36,83090,1,2,0:0:0:0:
376,196,83275,5,2,0:0:0:0:
256,348,83460,1,2,0:0:0:0:
448,320,83646,5,8,0:0:0:0:
376,196,83831,1,2,0:3:0:0:
352,336,84016,1,8,0:0:0:0:
472,180,84202,1,2,0:3:0:0:
238,218,84387,2,0,L|280:212,1,41.9999987182618,8|0,0:0|0:0,0:0:0:0:
76,132,84572,2,2,L|79:173,1,41.9999987182618,2|0,0:0|0:0,0:1:0:0:
124,352,84757,2,2,B|144:308|144:308|137:272,1,83.9999974365235,8|0,0:0|0:0,0:1:0:0:
200,19,85127,6,0,P|199:82|176:140,1,125.999996154785,4|8,0:0|0:0,0:0:0:0:
136,216,85498,1,8,0:0:0:0:
326,155,85683,1,2,2:3:0:0:
76,132,85868,5,2,0:0:0:0:
324,281,86053,1,2,2:0:0:0:
136,216,86238,5,2,0:0:0:0:
414,219,86423,1,2,2:0:0:0:
80,304,86609,5,8,0:0:0:0:
326,155,86794,1,8,2:0:0:0:
371,187,86887,1,8,2:0:0:0:
414,219,86979,1,8,2:0:0:0:
370,251,87072,1,8,2:0:0:0:
324,281,87164,1,8,2:0:0:0:
240,214,87350,1,8,0:0:0:0:
211,122,87535,2,2,P|194:101|175:84,1,52.5000020027161,2|0,0:0|0:0,0:1:0:0:
207,315,87720,2,2,P|172:353|126:378,1,105.000004005432,8|0,0:3|0:0,0:1:0:0:
