osu file format v14

[General]
AudioFilename: ulala.mp3
AudioLeadIn: 0
PreviewTime: 49572
Countdown: 0
SampleSet: Soft
StackLeniency: 0.2
Mode: 0
LetterboxInBreaks: 0
WidescreenStoryboard: 0

[Editor]
DistanceSpacing: 1
BeatDivisor: 4
GridSize: 4
TimelineZoom: 1.3

[Metadata]
Title:Yumeji Labyrinth
TitleUnicode:夢路らびりんす
Artist:LABYRINTHS
ArtistUnicode:らびりんず
Creator:Binguo
Version:Easy
Source:うらら迷路帖
Tags:Urara Meirochou J.C.STAFF 原田彩楓 はらた さやか Harata Sayaka 本渡楓 ほんど かえで Hondo Kaede 久保 ユリカ くぼ ゆりか Kubo Yurika 佳村 はるか よしむらはるか Yoshimura Haruka Pata-Mon Hanazawa Kana Kamiya
BeatmapID:1196203
BeatmapSetID:565555

[Difficulty]
HPDrainRate:3
CircleSize:3
OverallDifficulty:3
ApproachRate:3
SliderMultiplier:0.9
SliderTickRate:1

[Events]
//Background and Video events
0,0,"urara.jpg",0,0
//Break Periods
//Storyboard Layer 0 (Background)
//Storyboard Layer 1 (Fail)
//Storyboard Layer 2 (Pass)
//Storyboard Layer 3 (Foreground)
//Storyboard Sound Samples

[TimingPoints]
2165,370.37037037037,4,2,1,30,1,0
8090,-100,4,2,1,50,0,0
19942,-100,4,2,1,60,0,0
28831,-100,4,2,1,50,0,0
55498,-100,4,2,1,60,0,1
67350,-100,4,2,1,60,0,0

[Colours]
Combo1 : 0,255,128
Combo2 : 255,108,38
Combo3 : 128,255,255
Combo4 : 255,255,128

[HitObjects]
249,116,2165,6,0,P|293:126|338:125,1,90,4|0,0:1|0:0,0:0:0:0:
426,142,2905,2,0,P|432:186|427:230,1,90,8|0,0:3|0:0,0:0:0:0:
338,242,3646,2,0,P|293:241|249:252,1,90,2|8,0:0|0:3,0:0:0:0:
193,324,4387,2,0,P|150:334|107:324,1,90,8|2,0:3|0:0,0:0:0:0:
51,253,5127,6,0,L|51:150,1,90,8|2,0:3|0:0,0:0:0:0:
107,92,5868,2,0,P|150:81|195:81,1,90,8|2,0:3|0:0,0:0:0:0:
282,105,6609,1,0,3:0:0:0:
200,265,7350,2,0,P|156:275|111:275,1,90,0|0,3:0|3:0,0:0:0:0:
26,242,8090,5,4,0:0:0:0:
26,151,8461,1,8,0:0:0:0:
112,126,8831,2,0,P|156:125|200:136,1,90,4|8,0:0|0:0,0:0:0:0:
266,198,9572,1,2,0:0:0:0:
357,198,9943,1,8,0:0:0:0:
438,239,10313,2,0,P|445:195|433:151,1,90,2|8,0:0|0:0,0:0:0:0:
383,77,11053,6,0,P|337:82|293:77,1,90,4|8,0:1|0:0,0:0:0:0:
215,122,11794,2,0,P|170:118|125:123,1,90,4|8,0:1|0:0,0:0:0:0:
45,162,12535,2,0,P|36:119|49:76,2,90,8|0|8,0:0|3:0|0:0,0:0:0:0:
118,216,13646,1,8,0:0:0:0:
146,301,14016,6,0,P|190:306|241:297,1,90,4|8,0:0|0:0,0:0:0:0:
322,322,14757,2,0,P|367:319|411:327,1,90,4|8,0:3|0:0,0:0:0:0:
488,376,15498,2,0,P|501:334|493:290,1,90,4|8,0:3|0:0,0:0:0:0:
420,238,16239,1,2,0:3:0:0:
335,204,16609,2,0,P|322:162|330:118,1,90,8|4,0:0|0:0,0:0:0:0:
409,75,17350,5,2,0:3:0:0:
331,29,17720,2,0,B|226:53|263:13|149:29,1,180,4|4,0:3|0:0,0:0:0:0:
153,28,19942,6,0,P|149:69|152:127,1,90,8|8,0:0|0:0,0:0:0:0:
219,177,20683,2,0,P|223:218|220:276,1,90,8|8,0:0|0:0,0:0:0:0:
159,331,21424,2,0,L|73:329,2,67.5,10|10|10,0:0|0:0|0:0,0:0:0:0:
196,354,22164,1,10,0:0:0:0:
283,331,22535,2,0,L|385:328,1,90,4|4,0:3|0:0,0:0:0:0:
450,282,23276,5,8,0:0:0:0:
381,221,23646,2,0,P|370:178|365:133,1,90,2|2,0:0|0:0,0:0:0:0:
449,101,24387,2,0,P|454:57|435:17,1,90,0|4,0:0|0:3,0:0:0:0:
348,42,25127,1,8,0:0:0:0:
257,42,25498,1,8,0:0:0:0:
170,18,25868,6,0,P|151:58|156:102,1,90,4|8,0:0|0:0,0:0:0:0:
214,171,26609,2,0,P|232:211|227:255,1,90,2|2,0:0|0:0,0:0:0:0:
169,324,27350,2,0,P|128:342|84:337,2,90,8|2|8,0:0|0:3|0:0,0:0:0:0:
257,339,28461,1,8,0:0:0:0:
312,268,28831,5,4,0:0:0:0:
383,323,29202,2,0,P|424:341|468:336,2,90,8|2|8,0:0|0:3|0:0,0:0:0:0:
438,252,30313,1,4,0:3:0:0:
406,165,30683,2,0,P|450:161|491:179,2,90,8|2|8,0:0|0:3|0:0,0:0:0:0:
353,239,31794,5,4,0:3:0:0:
264,225,32164,2,0,L|175:211,1,90,8|2,0:0|0:3,0:0:0:0:
85,198,32905,1,8,0:0:0:0:
73,287,33276,2,0,P|115:299|162:302,1,90,2|0,0:3|0:0,0:0:0:0:
249,319,34016,2,0,P|293:321|337:334,1,90,0|4,0:0|0:3,0:0:0:0:
403,273,34757,5,2,0:3:0:0:
368,190,35127,2,0,P|323:187|279:174,2,90,8|2|8,0:0|0:3|0:0,0:0:0:0:
458,195,36239,1,4,0:3:0:0:
418,114,36609,2,0,P|405:70|402:25,2,90,8|2|8,0:0|0:3|0:0,0:0:0:0:
507,122,37720,5,4,0:3:0:0:
458,195,38090,2,0,L|454:284,1,90,8|2,0:0|0:3,0:0:0:0:
492,366,38831,1,8,0:0:0:0:
402,357,39202,2,0,P|374:323|363:280,1,90,4|8,0:3|0:0,0:0:0:0:
315,204,39942,2,0,P|243:158|172:204,1,180,8|4,0:0|0:3,0:0:0:0:
124,281,41053,6,0,P|112:324|84:358,1,90,4|4,0:3|0:3,0:0:0:0:
33,283,41794,1,0,3:0:0:0:
76,204,42164,2,0,L|68:101,2,90,4|4|8,0:3|0:3|0:0,0:0:0:0:
166,201,43276,1,2,0:0:0:0:
244,157,43646,6,0,P|288:151|333:153,1,90,2|10,0:0|0:0,0:0:0:0:
416,191,44387,2,0,P|423:159|410:104,1,90,2|10,0:0|0:0,0:0:0:0:
335,56,45127,2,0,P|290:58|245:51,2,90,2|10|4,0:0|0:0|0:3,0:0:0:0:
416,15,46239,1,4,0:0:0:0:
410,104,46609,5,8,0:0:0:0:
322,261,47350,1,8,0:0:0:0:
154,327,48090,2,0,P|117:333|71:333,2,67.5,8|2|8,0:0|0:3|0:0,0:0:0:0:
190,298,48831,2,0,P|198:253|189:189,1,90,4|0,0:3|0:0,0:0:0:0:
212,122,49572,6,0,P|197:71|213:20,1,90,4|0,0:0|0:0,0:0:0:0:
284,73,50313,2,0,L|373:70,1,90,4|0,0:0|0:0,0:0:0:0:
451,20,51053,2,0,P|465:63|458:107,1,90,8|2,0:0|3:0,0:0:0:0:
386,160,51794,2,0,P|371:202|378:246,1,90,8|2,0:0|3:0,0:0:0:0:
451,298,52535,5,8,0:0:0:0:
369,336,52905,1,8,0:0:0:0:
295,283,53276,1,8,0:0:0:0:
221,230,53646,1,8,0:0:0:0:
139,268,54016,5,8,0:0:0:0:
75,333,55498,6,0,P|55:288|49:237,1,90,4|8,0:0|0:0,0:0:0:0:
139,268,56239,2,0,P|131:223|112:182,1,90,2|8,0:3|0:0,0:0:0:0:
25,161,56979,1,8,0:3:0:0:
87,96,57350,2,0,P|129:63|174:50,1,90,4|4,0:0|0:0,0:0:0:0:
250,28,58090,1,8,0:0:0:0:
330,69,58461,6,0,L|337:164,1,90,8|8,0:0|0:0,0:0:0:0:
257,201,59202,2,0,L|263:290,1,90,0|8,0:0|0:0,0:0:0:0:
350,315,59942,2,0,P|334:348|303:373,2,67.5,8|0|2,0:0|0:0|0:3,0:0:0:0:
373,276,60683,2,2,P|414:287|469:274,1,90,8|8,0:0|0:0,0:0:0:0:
418,198,61424,6,0,L|418:108,1,90,4|8,0:0|0:0,0:0:0:0:
460,28,62164,2,0,P|416:19|373:31,1,90,8|8,0:0|0:0,0:0:0:0:
309,94,62905,1,8,0:3:0:0:
228,52,63276,2,0,P|184:40|140:49,1,90,4|4,0:0|0:0,0:0:0:0:
63,95,64016,1,8,0:0:0:0:
141,138,64387,6,0,P|147:182|140:226,1,90,8|8,0:0|0:0,0:0:0:0:
98,306,65127,2,0,P|141:314|185:303,1,90,8|8,0:0|0:0,0:0:0:0:
232,227,65868,2,0,P|279:217|321:226,2,90,8|0|8,0:0|3:0|0:0,0:0:0:0:
277,304,66979,1,8,0:3:0:0:
367,306,67350,6,0,P|414:316|456:307,2,90,2|8|0,0:0|0:3|0:0,0:0:0:0:
414,229,68461,2,0,P|417:193|405:137,1,90,8|4,0:0|0:3,0:0:0:0:
323,104,69202,1,8,0:0:0:0:
239,138,69572,2,2,P|228:181|231:226,1,90,2|8,0:0|0:0,0:0:0:0:
322,243,70313,6,0,P|287:307|185:306,1,180,2|8,0:0|0:3,0:0:0:0:
196,218,71424,1,8,0:0:0:0:
239,138,71794,2,0,P|335:108|421:150,1,180,2|8,0:0|0:3,0:0:0:0:
446,216,72905,1,8,0:0:0:0:
445,306,73276,6,0,P|418:340|376:355,1,90,4|8,0:0|0:0,0:0:0:0:
295,313,74017,2,0,P|250:307|206:313,1,90,4|8,0:3|0:0,0:0:0:0:
126,355,74757,2,0,P|84:340|56:305,1,90,4|8,0:3|0:0,0:0:0:0:
136,265,75499,1,2,0:3:0:0:
60,216,75869,2,0,P|47:174|55:130,1,90,8|4,0:0|0:0,0:0:0:0:
137,167,76610,5,2,0:3:0:0:
211,217,76980,2,0,B|320:201|283:241|388:217,1,180,4|4,0:3|0:0,0:0:0:0:
457,167,79202,6,0,P|469:208|458:266,1,90,8|8,0:0|0:0,0:0:0:0:
404,322,79943,2,0,P|359:325|314:319,1,90,8|8,0:0|0:0,0:0:0:0:
232,282,80684,2,0,P|226:314|230:368,2,67.5,10|10|10,0:0|0:0|0:0,0:0:0:0:
245,239,81424,1,10,0:0:0:0:
189,168,81794,2,0,P|144:162|99:164,1,90,4|4,0:3|0:0,0:0:0:0:
36,229,82536,5,8,0:0:0:0:
16,141,82906,2,0,P|14:92|27:47,1,90,2|2,0:0|0:0,0:0:0:0:
113,39,83646,2,0,P|157:41|202:35,1,90,8|2,0:0|0:3,0:0:0:0:
256,107,84387,1,8,0:0:0:0:
346,109,84758,1,8,0:0:0:0:
426,68,85128,6,0,P|433:111|422:155,1,90,4|8,0:0|0:0,0:0:0:0:
345,201,85869,2,0,P|345:246|358:290,1,90,2|2,0:0|0:0,0:0:0:0:
413,361,86610,2,0,P|372:379|328:374,2,90,8|4|8,0:0|2:3|0:0,0:0:0:0:
447,277,87721,5,8,0:3:0:0:
