osu file format v14

[General]
AudioFilename: audio.mp3
AudioLeadIn: 0
PreviewTime: 112620
Countdown: 0
SampleSet: Normal
StackLeniency: 0.7
Mode: 0
LetterboxInBreaks: 0
WidescreenStoryboard: 0

[Editor]
DistanceSpacing: 1.7
BeatDivisor: 4
GridSize: 4
TimelineZoom: 2.599999

[Metadata]
Title:Hwi hwi
TitleUnicode:Hwi hwi
Artist:LABOUM
ArtistUnicode:LABOUM
Creator:Clara
Version:Kiss
Source:
Tags:laboum hwi hwi Soyeon Yool Hee Yu Jeong Sol Bin Haein ZN
BeatmapID:1280975
BeatmapSetID:606338

[Difficulty]
HPDrainRate:5.5
CircleSize:4
OverallDifficulty:6.5
ApproachRate:9
SliderMultiplier:2
SliderTickRate:1

[Events]
//Background and Video events
0,0,"Kiss.jpg",0,0
//Break Periods
//Storyboard Layer 0 (Background)
//Storyboard Layer 1 (Fail)
//Storyboard Layer 2 (Pass)
//Storyboard Layer 3 (Foreground)
//Storyboard Sound Samples

[TimingPoints]
4112,483.870967741935,4,1,1,65,1,0
4112,-100,4,1,1,50,0,0
10887,-83.3333333333333,4,1,1,50,0,0
11854,-100,4,1,1,80,0,1
19596,-100,4,1,1,65,0,0
56370,-100,4,1,1,10,0,0
56612,-100,4,1,1,35,0,0
58306,-100,4,1,1,75,0,1
73789,-100,4,1,1,75,0,1
76329,-100,4,1,1,75,0,1
79353,-100,4,1,1,75,0,1
81531,-83.3333333333333,4,1,1,75,0,1
89273,-100,4,1,1,75,0,0
91208,-100,4,1,1,5,0,0
91450,-100,4,1,1,45,0,0
114434,-100,4,1,1,75,0,1
117337,-100,4,1,1,75,0,1
137539,-100,4,1,1,75,0,1
145402,-100,4,1,1,40,0,0
164757,-100,4,1,1,60,0,1
180241,-100,4,1,1,80,0,1
195724,-200,4,1,1,30,0,0
197418,-50,4,1,1,5,0,0

[HitObjects]
184,60,4112,6,0,P|120:80|84:72,1,100
72,96,4475,1,0,0:0:0:0:
136,208,4596,2,0,L|244:228,1,100
276,228,4959,1,0,0:0:0:0:
352,76,5080,2,0,P|392:103|397:151,1,100
381,199,5443,1,0,0:0:0:0:
343,166,5563,1,0,0:0:0:0:
305,133,5684,1,0,0:0:0:0:
160,64,5806,6,0,P|192:36|208:36,1,50
248,32,6048,1,0,0:0:0:0:
196,264,6290,1,0,0:0:0:0:
304,152,6532,1,0,0:0:0:0:
140,116,6774,1,0,0:0:0:0:
424,40,7016,6,0,L|332:64,1,50
372,28,7258,1,0,0:0:0:0:
323,41,7378,1,0,0:0:0:0:
275,54,7499,1,0,0:0:0:0:
227,67,7620,1,0,0:0:0:0:
236,224,7741,6,0,L|304:248,1,50
312,116,7983,1,0,0:0:0:0:
148,124,8225,2,0,L|104:92,1,50
284,276,8467,1,0,0:0:0:0:
329,292,8587,1,0,0:0:0:0:
370,266,8709,2,0,L|392:216,1,50
212,56,8951,5,0,0:0:0:0:
140,208,9192,1,0,0:0:0:0:
212,56,9435,1,0,0:0:0:0:
360,140,9676,1,0,0:0:0:0:
140,112,9919,5,4,0:0:0:0:
165,154,10039,1,4,0:0:0:0:
208,180,10160,1,4,0:0:0:0:
208,180,10281,1,0,0:0:0:0:
372,112,10402,1,4,0:0:0:0:
347,154,10522,1,4,0:0:0:0:
304,180,10643,1,4,0:0:0:0:
304,180,10764,1,0,0:0:0:0:
152,280,10886,6,0,L|202:247,1,59.9999981689454,12|12,0:0|0:0,0:0:0:0:
360,280,11129,2,0,L|307:250,1,59.9999981689454,12|8,0:0|0:0,0:0:0:0:
208,88,11370,6,0,P|160:48|128:36,1,59.9999981689454
124,36,11612,1,0,0:0:0:0:
124,36,11733,1,0,0:0:0:0:
48,264,11854,6,0,P|80:188|104:168,1,100,2|0,0:0|0:0,0:0:0:0:
184,108,12216,1,0,0:0:0:0:
280,24,12337,2,0,L|312:140,1,100,2|0,0:0|0:0,0:0:0:0:
306,120,12701,1,0,0:0:0:0:
120,264,12822,6,0,L|176:268,1,50
219,267,13064,2,0,L|272:272,1,50
319,271,13305,1,2,0:0:0:0:
192,204,13426,1,0,0:0:0:0:
116,112,13548,1,0,0:0:0:0:
264,336,13790,1,0,0:0:0:0:
368,180,14032,1,0,0:0:0:0:
108,280,14274,1,2,0:0:0:0:
256,32,14516,1,0,0:0:0:0:
104,176,14757,6,0,L|128:132,1,50,4|4,0:0|0:0,0:0:0:0:
156,112,14999,1,4,0:0:0:0:
188,100,15120,1,0,0:0:0:0:
408,208,15241,2,0,L|384:252,1,50,6|4,0:0|0:0,0:0:0:0:
356,272,15482,1,4,0:0:0:0:
324,284,15603,1,0,0:0:0:0:
230,8,15725,6,0,P|279:4|320:32,1,100
122,305,16208,2,0,P|89:268|88:220,1,100,2|0,0:0|0:0,0:0:0:0:
356,152,16693,2,0,L|308:176,1,50
266,197,16934,1,0,0:0:0:0:
222,220,17056,2,0,L|168:248,1,50,0|2,0:0|0:0,0:0:0:0:
379,266,17298,2,0,L|334:242,1,50
240,160,17539,5,4,0:0:0:0:
308,128,17661,1,4,0:0:0:0:
376,164,17903,2,0,L|436:84,1,100,4|2,0:0|0:0,0:0:0:0:
436,132,18266,1,0,0:0:0:0:
436,182,18386,1,0,0:0:0:0:
176,220,18629,6,0,P|164:168|124:148,1,100,4|4,0:0|0:0,0:0:0:0:
125,148,18991,1,0,0:0:0:0:
151,105,19111,1,2,0:0:0:0:
177,63,19232,1,0,0:0:0:0:
204,20,19353,1,0,0:0:0:0:
227,64,19475,1,0,0:0:0:0:
253,106,19596,1,0,0:0:0:0:
432,260,19838,5,0,0:0:0:0:
408,280,19959,1,0,0:0:0:0:
380,292,20079,2,0,P|344:304|300:264,1,100,2|0,0:0|0:0,0:0:0:0:
72,128,20564,2,0,P|84:80|120:44,1,100
400,88,21047,2,0,L|348:176,1,100,2|0,0:0|0:0,0:0:0:0:
349,174,21411,1,0,0:0:0:0:
349,174,21532,1,0,0:0:0:0:
68,220,21774,5,0,0:0:0:0:
95,261,21894,1,0,0:0:0:0:
145,257,22016,2,0,P|155:207|111:179,1,100,2|0,0:0|0:0,0:0:0:0:
324,252,22499,1,0,0:0:0:0:
188,252,22741,1,0,0:0:0:0:
292,120,22982,2,0,P|256:92|216:136,1,100,2|0,0:0|0:0,0:0:0:0:
217,119,23346,1,0,0:0:0:0:
217,119,23467,1,0,0:0:0:0:
308,40,23709,5,0,0:0:0:0:
258,40,23829,1,0,0:0:0:0:
208,40,23950,1,2,0:0:0:0:
308,300,24193,2,0,L|233:233,1,100
308,84,24677,2,0,L|232:152,1,100,0|2,0:0|0:0,0:0:0:0:
233,150,25040,1,0,0:0:0:0:
270,117,25160,1,0,0:0:0:0:
307,83,25281,1,0,0:0:0:0:
128,88,25403,6,0,P|104:136|120:180,1,100
384,88,25887,2,0,P|408:136|392:180,1,100,2|0,0:0|0:0,0:0:0:0:
168,88,26370,1,0,0:0:0:0:
344,296,26612,1,0,0:0:0:0:
168,296,26854,1,2,0:0:0:0:
344,88,27096,2,0,L|400:64,2,50
108,44,27580,5,0,0:0:0:0:
63,62,27700,1,0,0:0:0:0:
50,109,27822,2,0,P|16:140|20:176,1,50,2|0,0:0|0:0,0:0:0:0:
72,240,28064,2,0,P|112:256|168:256,1,100
232,56,28548,1,0,0:0:0:0:
344,216,28790,2,0,P|404:244|420:272,1,100,2|0,0:0|0:0,0:0:0:0:
376,312,29153,2,0,L|328:284,1,50
188,120,29516,5,0,0:0:0:0:
188,71,29636,1,0,0:0:0:0:
224,38,29757,1,2,0:0:0:0:
104,208,29999,1,0,0:0:0:0:
332,304,30241,1,0,0:0:0:0:
340,72,30483,1,0,0:0:0:0:
248,184,30725,1,2,0:0:0:0:
384,248,30967,1,0,0:0:0:0:
422,218,31087,1,0,0:0:0:0:
432,170,31208,1,0,0:0:0:0:
140,88,31451,6,0,L|80:112,1,50
152,252,31693,2,0,L|248:208,1,100,2|0,0:0|0:0,0:0:0:0:
416,88,32177,2,0,P|388:52|328:48,1,100
288,320,32661,2,0,P|344:292|360:248,1,100,2|0,0:0|0:0,0:0:0:0:
120,56,33145,2,0,B|68:128|68:172|72:192,1,100
76,200,33508,1,0,0:0:0:0:
96,252,33629,2,0,P|168:288|200:264,1,100,2|0,0:0|0:0,0:0:0:0:
312,88,34112,6,0,L|284:136,1,50,4|4,0:0|0:0,0:0:0:0:
200,88,34354,2,0,L|228:136,1,50,4|4,0:0|0:0,0:0:0:0:
338,192,34595,2,0,L|288:192,1,50,6|4,0:0|0:0,0:0:0:0:
174,192,34837,2,0,L|224:192,1,50,4|4,0:0|0:0,0:0:0:0:
344,280,35080,5,0,0:0:0:0:
301,306,35200,1,0,0:0:0:0:
259,333,35321,1,0,0:0:0:0:
168,104,35564,1,2,0:0:0:0:
210,77,35684,1,0,0:0:0:0:
252,50,35805,1,0,0:0:0:0:
376,160,36048,6,0,L|400:212,1,50
373,249,36290,1,0,0:0:0:0:
330,228,36410,1,0,0:0:0:0:
286,248,36531,1,2,0:0:0:0:
64,124,36773,2,0,L|104:228,1,100
340,116,37258,1,0,0:0:0:0:
252,296,37499,1,2,0:0:0:0:
112,144,37741,1,0,0:0:0:0:
252,296,37983,1,0,0:0:0:0:
428,184,38225,5,0,0:0:0:0:
256,40,38466,1,2,0:0:0:0:
84,184,38709,1,0,0:0:0:0:
320,256,38951,2,0,P|356:240|368:264,2,50
152,141,39434,2,0,P|176:145|192:128,1,50,2|0,0:0|0:0,0:0:0:0:
164,55,39677,5,0,0:0:0:0:
202,82,39798,1,0,0:0:0:0:
192,127,39918,1,0,0:0:0:0:
120,276,40161,1,0,0:0:0:0:
332,324,40402,1,2,0:0:0:0:
288,104,40645,1,0,0:0:0:0:
56,156,40887,5,0,0:0:0:0:
72,109,41007,1,0,0:0:0:0:
107,74,41128,1,0,0:0:0:0:
384,232,41370,1,2,0:0:0:0:
236,36,41612,1,0,0:0:0:0:
55,227,41853,2,0,P|72:274|212:328,1,200,0|2,0:0|0:0,0:0:0:0:
292,48,42580,6,0,P|336:49|331:93,1,100
180,93,43063,2,0,P|175:49|220:48,1,100,0|2,0:0|0:0,0:0:0:0:
256,232,43548,2,0,L|192:136,1,100
311,148,44032,2,0,L|256:232,1,100,0|2,0:0|0:0,0:0:0:0:
168,192,44515,5,0,0:0:0:0:
344,192,44757,1,0,0:0:0:0:
168,116,44999,5,0,0:0:0:0:
344,116,45241,1,0,0:0:0:0:
168,268,45483,5,0,0:0:0:0:
344,268,45725,1,0,0:0:0:0:
256,36,45966,6,0,P|200:44|168:76,1,100,0|2,0:0|0:0,0:0:0:0:
140,100,46330,1,0,0:0:0:0:
101,131,46451,2,0,L|52:152,1,50
56,272,46693,2,0,L|112:244,1,50
148,239,46934,1,0,0:0:0:0:
198,243,47055,1,0,0:0:0:0:
244,262,47176,1,2,0:0:0:0:
244,262,47298,1,0,0:0:0:0:
323,144,47419,6,0,L|312:96,1,50
455,29,47661,2,0,P|435:43|431:67,1,50
396,104,47902,1,0,0:0:0:0:
369,145,48023,1,0,0:0:0:0:
332,179,48144,1,2,0:0:0:0:
331,181,48266,1,0,0:0:0:0:
144,124,48387,5,0,0:0:0:0:
344,296,48628,1,4,0:0:0:0:
388,84,48870,1,4,0:0:0:0:
120,268,49111,1,6,0:0:0:0:
424,188,49353,1,4,0:0:0:0:
184,188,49595,1,4,0:0:0:0:
196,160,49715,1,0,0:0:0:0:
208,133,49836,1,4,0:0:0:0:
220,105,49957,1,0,0:0:0:0:
256,20,50079,2,0,P|328:60|340:192,1,200,6|0,0:0|0:0,0:0:0:0:
180,128,50806,6,0,P|132:104|88:160,1,100
332,128,51290,2,0,P|380:104|424:160,1,100
232,32,51774,5,0,0:0:0:0:
92,144,52016,1,0,0:0:0:0:
132,296,52258,1,0,0:0:0:0:
132,296,52379,1,0,0:0:0:0:
132,296,52499,1,0,0:0:0:0:
300,244,52741,6,0,P|340:288|392:292,1,100
216,76,53225,6,0,P|160:132|104:144,1,100
112,148,53588,1,0,0:0:0:0:
64,248,53709,1,0,0:0:0:0:
196,212,53951,1,0,0:0:0:0:
256,192,54192,12,0,56370,0:0:0:0:
168,160,56611,6,0,P|188:116|232:112,1,50
300,172,56853,2,0,P|284:232|272:244,2,50
256,192,57217,12,0,58064,0:0:0:0:
92,128,58305,6,0,P|164:112|212:80,1,100,2|0,0:0|0:0,0:0:0:0:
156,192,58669,1,0,0:0:0:0:
288,116,58790,2,0,L|376:212,1,100,2|0,0:0|0:0,0:0:0:0:
396,120,59153,1,0,0:0:0:0:
328,276,59274,6,0,P|252:328|224:320,1,100
104,84,59757,1,2,0:0:0:0:
344,40,59999,1,0,0:0:0:0:
297,58,60119,1,0,0:0:0:0:
259,90,60240,1,0,0:0:0:0:
223,125,60361,1,0,0:0:0:0:
144,272,60483,6,0,P|120:248|116:208,1,50
114,233,60725,1,2,0:0:0:0:
114,233,60846,1,0,0:0:0:0:
92,168,60967,2,0,P|80:80|112:40,1,100,0|4,0:0|0:0,0:0:0:0:
82,73,61329,1,4,0:0:0:0:
82,73,61450,1,4,0:0:0:0:
248,296,61692,5,2,0:0:0:0:
432,192,61935,1,0,0:0:0:0:
382,186,62055,1,0,0:0:0:0:
332,180,62176,1,0,0:0:0:0:
283,174,62297,1,0,0:0:0:0:
233,168,62419,2,0,P|184:192|168:152,1,100,0|2,0:0|0:0,0:0:0:0:
316,40,62903,5,0,0:0:0:0:
224,276,63145,1,0,0:0:0:0:
24,92,63387,1,0,0:0:0:0:
100,208,63629,2,0,P|196:200|224:172,1,100,2|0,0:0|0:0,0:0:0:0:
232,180,63991,1,0,0:0:0:0:
251,134,64111,1,0,0:0:0:0:
281,94,64232,1,0,0:0:0:0:
320,63,64353,1,0,0:0:0:0:
366,44,64474,1,0,0:0:0:0:
416,39,64595,1,2,0:0:0:0:
264,240,64838,5,0,0:0:0:0:
488,132,65079,1,2,0:0:0:0:
248,64,65322,1,2,0:0:0:0:
56,264,65563,2,0,L|64:168,1,50,2|0,0:0|0:0,0:0:0:0:
128,212,65805,2,0,L|200:248,1,50,2|0,0:0|0:0,0:0:0:0:
352,108,66047,2,0,L|300:132,1,50
288,136,66290,1,0,0:0:0:0:
288,136,66411,1,0,0:0:0:0:
160,276,66532,2,0,L|212:252,1,50,2|0,0:0|0:0,0:0:0:0:
224,248,66774,1,0,0:0:0:0:
224,248,66895,1,0,0:0:0:0:
368,124,67016,2,0,P|389:218|324:288,1,200,0|2,0:0|0:0,0:0:0:0:
80,164,67741,5,0,0:0:0:0:
368,124,67983,1,0,0:0:0:0:
112,288,68225,1,0,0:0:0:0:
168,56,68466,1,2,0:0:0:0:
112,288,68709,1,0,0:0:0:0:
364,236,68950,5,4,0:0:0:0:
361,190,69071,1,4,0:0:0:0:
347,142,69193,2,0,P|324:92|268:64,1,100,4|6,0:0|0:0,0:0:0:0:
184,128,69555,1,4,0:0:0:0:
52,156,69676,2,0,L|104:40,1,100,4|0,0:0|0:0,0:0:0:0:
364,224,70161,2,0,P|312:264|248:272,1,100,0|2,0:0|0:0,0:0:0:0:
392,64,70645,1,0,0:0:0:0:
96,184,70887,1,0,0:0:0:0:
392,320,71129,1,0,0:0:0:0:
96,184,71370,1,2,0:0:0:0:
308,40,71612,5,0,0:0:0:0:
294,88,71732,1,0,0:0:0:0:
280,136,71853,1,4,0:0:0:0:
266,184,71974,1,0,0:0:0:0:
252,232,72095,1,4,0:0:0:0:
205,213,72217,2,0,L|144:184,1,50,0|6,0:0|0:0,0:0:0:0:
159,191,72458,1,0,0:0:0:0:
92,184,72579,2,0,P|64:208|60:256,1,50,4|0,0:0|0:0,0:0:0:0:
84,272,72821,6,0,P|120:320|172:352,1,100,12|12,0:0|0:0,0:0:0:0:
428,112,73305,2,0,P|392:64|340:32,1,100,14|12,0:0|0:0,0:0:0:0:
88,272,73789,5,0,0:0:0:0:
360,120,74031,1,0,0:0:0:0:
152,120,74273,1,2,0:0:0:0:
424,272,74515,1,0,0:0:0:0:
172,232,74757,5,0,0:0:0:0:
129,205,74877,1,0,0:0:0:0:
92,171,74998,1,0,0:0:0:0:
65,130,75119,1,0,0:0:0:0:
47,83,75241,2,0,L|108:64,1,50,2|0,0:0|0:0,0:0:0:0:
256,32,75482,1,0,0:0:0:0:
412,168,75724,1,0,0:0:0:0:
256,32,75966,1,0,0:0:0:0:
108,168,76208,1,2,0:0:0:0:
389,235,76450,6,0,P|353:153|317:129,1,100,0|4,0:0|0:0,0:0:0:0:
300,120,76813,1,4,0:0:0:0:
243,98,76933,1,4,0:0:0:0:
246,99,77055,1,0,0:0:0:0:
263,156,77176,1,4,0:0:0:0:
260,215,77297,1,4,0:0:0:0:
237,270,77417,1,4,0:0:0:0:
197,314,77538,1,0,0:0:0:0:
112,188,77660,6,0,L|76:128,1,50
66,112,77902,1,0,0:0:0:0:
66,112,78023,1,0,0:0:0:0:
240,172,78144,2,0,L|168:152,1,50,2|0,0:0|0:0,0:0:0:0:
156,148,78386,1,0,0:0:0:0:
132,212,78507,1,0,0:0:0:0:
116,280,78628,1,0,0:0:0:0:
186,280,78748,1,0,0:0:0:0:
256,280,78869,1,0,0:0:0:0:
326,280,78990,1,0,0:0:0:0:
396,280,79111,1,2,0:0:0:0:
104,112,79353,5,0,0:0:0:0:
396,32,79595,1,0,0:0:0:0:
196,288,79837,1,0,0:0:0:0:
240,24,80079,1,2,0:0:0:0:
308,252,80321,6,0,L|412:220,1,100
384,176,80684,2,0,L|408:232,1,50
452,208,80926,2,0,L|404:224,1,50,0|2,0:0|0:0,0:0:0:0:
424,269,81168,2,0,L|404:223,1,50
384,176,81410,1,0,0:0:0:0:
328,84,81531,6,0,P|304:44|236:16,1,119.999996337891
188,68,81894,1,0,0:0:0:0:
72,196,82015,2,0,P|96:156|184:140,1,119.999996337891,2|0,0:0|0:0,0:0:0:0:
232,176,82378,1,0,0:0:0:0:
348,284,82499,1,0,0:0:0:0:
324,242,82619,1,0,0:0:0:0:
276,239,82740,1,0,0:0:0:0:
380,56,82982,5,2,0:0:0:0:
96,232,83224,2,0,P|148:264|172:320,1,119.999996337891
116,40,83708,1,0,0:0:0:0:
316,240,83950,1,2,0:0:0:0:
52,200,84192,1,0,0:0:0:0:
336,60,84434,5,4,0:0:0:0:
286,62,84554,1,4,0:0:0:0:
247,92,84675,1,4,0:0:0:0:
196,204,84797,1,0,0:0:0:0:
176,324,84918,1,6,0:0:0:0:
226,322,85038,1,4,0:0:0:0:
265,292,85159,1,4,0:0:0:0:
265,292,85281,1,0,0:0:0:0:
356,248,85402,6,0,L|304:136,1,119.999996337891
368,108,85765,1,0,0:0:0:0:
156,200,85886,2,0,L|212:72,1,119.999996337891,2|0,0:0|0:0,0:0:0:0:
244,188,86249,1,0,0:0:0:0:
304,52,86370,2,0,P|248:28|168:76,1,119.999996337891
193,44,86732,1,0,0:0:0:0:
193,44,86853,1,2,0:0:0:0:
76,204,87095,6,0,L|108:256,1,59.9999981689454
160,280,87337,1,4,0:0:0:0:
240,152,87458,1,0,0:0:0:0:
398,152,87579,1,4,0:0:0:0:
296,360,87821,1,6,0:0:0:0:
164,104,88063,1,4,0:0:0:0:
404,8,88305,1,4,0:0:0:0:
320,248,88547,1,4,0:0:0:0:
32,148,88789,1,6,0:0:0:0:
328,100,89031,5,0,0:0:0:0:
301,47,89151,1,0,0:0:0:0:
245,31,89272,1,0,0:0:0:0:
172,264,89515,1,0,0:0:0:0:
52,72,89757,1,0,0:0:0:0:
328,160,89999,1,0,0:0:0:0:
256,192,90241,12,0,91208,0:0:0:0:
100,152,91450,6,0,P|72:172|92:208,1,50
204,256,91692,2,0,L|156:240,2,50,2|0|0,0:0|0:0|0:0,0:0:0:0:
280,92,92176,5,0,0:0:0:0:
224,184,92418,1,0,0:0:0:0:
404,52,92660,2,0,P|432:64|456:96,1,50,2|0,0:0|0:0,0:0:0:0:
416,172,92902,2,0,P|389:196|320:216,1,100
116,48,93386,6,0,L|96:124,2,50,0|0|2,0:0|0:0|0:0,0:0:0:0:
184,48,93749,1,0,0:0:0:0:
252,48,93870,1,0,0:0:0:0:
144,324,94111,6,0,P|184:268|232:240,1,100
368,60,94595,2,0,P|328:116|280:144,1,100,2|0,0:0|0:0,0:0:0:0:
236,140,94958,2,0,P|212:132|172:136,1,50
152,268,95321,6,0,P|196:292|224:280,1,50
193,292,95563,1,2,0:0:0:0:
380,224,95805,2,0,L|332:284,1,50
380,224,96047,1,0,0:0:0:0:
448,144,96168,2,0,P|432:92|408:68,1,50
120,192,96531,5,2,0:0:0:0:
416,296,96773,1,0,0:0:0:0:
264,32,97015,1,0,0:0:0:0:
196,312,97257,1,0,0:0:0:0:
264,32,97499,1,2,0:0:0:0:
416,296,97741,1,0,0:0:0:0:
120,188,97982,1,0,0:0:0:0:
436,96,98224,1,0,0:0:0:0:
268,52,98466,6,0,L|204:144,1,100,2|0,0:0|0:0,0:0:0:0:
210,134,98829,1,0,0:0:0:0:
210,134,98950,1,0,0:0:0:0:
380,256,99192,2,0,B|408:252|408:252|424:216,1,50
400,144,99434,2,0,P|388:88|316:52,1,100,2|0,0:0|0:0,0:0:0:0:
56,168,99918,5,0,0:0:0:0:
124,336,100160,1,0,0:0:0:0:
200,76,100402,5,2,0:0:0:0:
268,244,100644,1,0,0:0:0:0:
314,261,100764,1,0,0:0:0:0:
363,254,100885,1,0,0:0:0:0:
360,31,101128,1,0,0:0:0:0:
312,47,101248,1,0,0:0:0:0:
265,63,101370,2,0,L|216:152,1,100,2|0,0:0|0:0,0:0:0:0:
40,176,101853,6,0,P|56:130|99:107,1,100
196,316,102337,2,0,P|256:336|312:308,1,100,2|0,0:0|0:0,0:0:0:0:
289,326,102700,1,0,0:0:0:0:
289,326,102821,1,0,0:0:0:0:
396,120,103063,5,0,0:0:0:0:
350,106,103183,1,0,0:0:0:0:
341,60,103305,1,2,0:0:0:0:
132,136,103547,1,0,0:0:0:0:
288,280,103789,1,0,0:0:0:0:
80,320,104031,1,0,0:0:0:0:
320,88,104273,2,0,P|376:104|396:156,1,100,2|0,0:0|0:0,0:0:0:0:
164,100,104757,5,4,0:0:0:0:
136,196,104999,1,4,0:0:0:0:
375,196,105241,2,0,L|348:100,1,100,4|4,0:0|0:0,0:0:0:0:
79,99,105724,1,4,0:0:0:0:
52,196,105965,1,4,0:0:0:0:
432,99,106209,5,6,0:0:0:0:
448,147,106328,1,0,0:0:0:0:
465,194,106450,1,4,0:0:0:0:
481,241,106570,1,0,0:0:0:0:
450,280,106691,1,0,0:0:0:0:
406,303,106812,1,0,0:0:0:0:
357,309,106934,2,0,P|304:308|272:264,1,100
72,248,107418,2,0,P|64:184|84:152,1,100
372,88,107902,5,0,0:0:0:0:
216,276,108144,1,0,0:0:0:0:
208,128,108386,1,0,0:0:0:0:
202,78,108506,1,0,0:0:0:0:
174,37,108628,2,0,L|128:12,1,50
81,15,108870,1,0,0:0:0:0:
328,264,109111,1,0,0:0:0:0:
64,220,109353,1,0,0:0:0:0:
268,32,109595,1,0,0:0:0:0:
308,60,109715,1,0,0:0:0:0:
342,97,109836,1,0,0:0:0:0:
367,141,109957,1,0,0:0:0:0:
382,188,110079,2,0,L|384:260,1,50
332,288,110321,5,0,0:0:0:0:
295,254,110441,1,0,0:0:0:0:
251,230,110562,1,0,0:0:0:0:
203,216,110683,1,0,0:0:0:0:
154,210,110804,1,0,0:0:0:0:
114,181,110925,1,0,0:0:0:0:
87,139,111047,2,0,P|104:88|104:88,1,50
160,52,111289,1,0,0:0:0:0:
209,51,111409,1,0,0:0:0:0:
256,67,111530,1,0,0:0:0:0:
294,99,111651,1,0,0:0:0:0:
319,142,111772,1,0,0:0:0:0:
326,192,111893,1,0,0:0:0:0:
316,240,112014,1,0,0:0:0:0:
290,282,112135,1,0,0:0:0:0:
250,312,112256,1,0,0:0:0:0:
203,327,112377,1,0,0:0:0:0:
153,324,112498,1,0,0:0:0:0:
256,192,112741,12,0,114313,0:0:0:0:
324,40,114434,6,0,P|380:76|432:64,1,100,2|0,0:0|0:0,0:0:0:0:
400,152,114797,1,0,0:0:0:0:
188,344,114918,2,0,P|150:312|101:310,1,100,2|0,0:0|0:0,0:0:0:0:
112,232,115281,1,0,0:0:0:0:
224,200,115402,2,0,P|200:136|116:96,1,150
33,150,115886,2,0,P|44:127|64:112,2,50,2|0|0,0:0|0:0|0:0,0:0:0:0:
91,253,116249,2,0,P|77:233|64:211,2,50
160,252,116611,1,0,0:0:0:0:
188,208,116731,1,0,0:0:0:0:
216,169,116852,1,2,0:0:0:0:
244,128,116973,1,0,0:0:0:0:
324,36,117095,6,0,L|364:88,1,50
376,168,117337,2,0,L|308:196,1,50,4|4,0:0|0:0,0:0:0:0:
136,216,117579,1,4,0:0:0:0:
136,216,117821,2,0,L|204:188,1,50,4|4,0:0|0:0,0:0:0:0:
208,40,118063,2,0,P|316:72|324:92,1,100,4|0,0:0|0:0,0:0:0:0:
312,100,118426,1,0,0:0:0:0:
320,140,118547,2,0,L|256:168,1,50
124,88,118789,5,2,0:0:0:0:
48,312,119031,1,0,0:0:0:0:
256,292,119273,1,0,0:0:0:0:
332,68,119515,1,0,0:0:0:0:
372,200,119757,1,2,0:0:0:0:
120,248,119999,1,0,0:0:0:0:
91,213,120119,1,0,0:0:0:0:
79,170,120240,1,0,0:0:0:0:
86,126,120361,1,0,0:0:0:0:
110,88,120482,1,0,0:0:0:0:
148,64,120603,1,0,0:0:0:0:
192,57,120724,1,4,0:0:0:0:
388,336,120966,5,0,0:0:0:0:
196,192,121208,1,2,0:0:0:0:
400,112,121450,1,2,0:0:0:0:
388,336,121692,1,6,0:0:0:0:
196,192,121934,1,2,0:0:0:0:
44,228,122176,6,0,P|88:303|172:320,1,150
280,144,122660,2,0,P|255:127|227:118,1,50,2|0,0:0|0:0,0:0:0:0:
123,232,122902,2,0,P|152:223|172:208,1,50
432,192,123144,2,0,P|368:292|256:328,1,200,0|2,0:0|0:0,0:0:0:0:
48,172,123870,5,0,0:0:0:0:
188,56,124111,1,0,0:0:0:0:
432,160,124353,2,0,P|400:124|324:92,1,100,0|2,0:0|0:0,0:0:0:0:
104,264,124837,2,0,P|92:200|100:192,1,50
144,184,125079,2,0,L|204:204,1,50,4|4,0:0|0:0,0:0:0:0:
244,156,125321,1,4,0:0:0:0:
336,256,125563,1,4,0:0:0:0:
384,208,125684,1,4,0:0:0:0:
336,160,125805,1,4,0:0:0:0:
282,132,125926,2,0,L|216:108,1,50
160,116,126168,1,0,0:0:0:0:
96,156,126289,2,0,P|72:224|72:284,1,100
390,320,126773,6,0,B|364:328|364:328|304:288,1,100
40,284,127257,1,0,0:0:0:0:
332,120,127499,1,2,0:0:0:0:
96,200,127741,1,0,0:0:0:0:
104,161,127861,1,0,0:0:0:0:
121,125,127982,1,4,0:0:0:0:
146,93,128103,1,0,0:0:0:0:
178,69,128224,1,4,0:0:0:0:
214,52,128345,1,0,0:0:0:0:
253,43,128466,1,4,0:0:0:0:
352,292,128708,6,0,L|235:319,1,100,4|4,0:0|0:0,0:0:0:0:
216,256,129071,1,0,0:0:0:0:
160,92,129192,2,0,L|276:64,1,100,4|6,0:0|0:0,0:0:0:0:
296,128,129555,1,0,0:0:0:0:
296,128,129676,1,0,0:0:0:0:
296,128,129797,1,0,0:0:0:0:
72,252,129918,6,0,P|196:180|196:180,1,100,2|0,0:0|0:0,0:0:0:0:
216,168,130281,1,0,0:0:0:0:
261,185,130401,1,2,0:0:0:0:
281,229,130522,1,0,0:0:0:0:
263,274,130643,1,0,0:0:0:0:
218,293,130764,1,0,0:0:0:0:
156,140,130886,6,0,L|92:156,1,50
97,254,131128,2,0,L|152:268,1,50
32,236,131370,2,0,L|32:168,1,50,2|0,0:0|0:0,0:0:0:0:
32,186,131611,1,0,0:0:0:0:
324,284,131853,5,0,0:0:0:0:
180,72,132095,1,0,0:0:0:0:
260,308,132337,1,2,0:0:0:0:
244,48,132579,1,0,0:0:0:0:
196,332,132821,1,0,0:0:0:0:
308,24,133063,1,0,0:0:0:0:
132,356,133305,1,2,0:0:0:0:
372,0,133547,1,0,0:0:0:0:
60,160,133789,6,0,P|120:152|156:196,1,100
224,244,134152,1,0,0:0:0:0:
390,232,134273,2,0,P|353:278|300:288,1,100,2|0,0:0|0:0,0:0:0:0:
224,244,134636,1,0,0:0:0:0:
140,120,134757,5,0,0:0:0:0:
176,136,134877,1,0,0:0:0:0:
212,153,134998,1,0,0:0:0:0:
372,264,135120,1,0,0:0:0:0:
336,248,135240,1,2,0:0:0:0:
300,231,135361,1,0,0:0:0:0:
156,316,135482,6,0,P|124:360|92:356,1,50
96,236,135724,2,0,P|64:268|48:260,1,50
94,123,135966,2,0,P|85:101|63:91,1,50
155,43,136208,2,0,P|147:20|131:2,1,50,2|0,0:0|0:0,0:0:0:0:
336,56,136450,5,0,0:0:0:0:
136,256,136692,1,4,0:0:0:0:
368,312,136934,1,4,0:0:0:0:
176,60,137176,1,6,0:0:0:0:
444,188,137418,1,4,0:0:0:0:
124,188,137660,6,0,P|144:228|192:248,1,50
204,256,137902,1,0,0:0:0:0:
264,272,138023,1,0,0:0:0:0:
288,76,138144,2,0,L|340:96,1,50,2|0,0:0|0:0,0:0:0:0:
334,93,138386,1,0,0:0:0:0:
334,93,138507,1,0,0:0:0:0:
352,280,138628,2,0,P|316:328|240:336,1,100
88,204,139111,5,2,0:0:0:0:
440,96,139353,2,0,P|376:72|304:68,1,100
95,226,139837,2,0,P|131:192|136:144,1,100,0|2,0:0|0:0,0:0:0:0:
104,108,140200,2,0,L|40:60,1,50
172,80,140442,2,0,L|220:66,1,50,0|4,0:0|0:0,0:0:0:0:
220,66,140684,1,4,0:0:0:0:
220,66,140805,1,4,0:0:0:0:
340,304,141047,2,0,L|292:318,1,50,6|4,0:0|0:0,0:0:0:0:
292,318,141289,1,4,0:0:0:0:
292,318,141410,1,0,0:0:0:0:
375,119,141531,6,0,P|338:87|289:77,1,100
256,76,141894,1,0,0:0:0:0:
136,120,142015,2,0,P|196:80|256:84,1,100,2|0,0:0|0:0,0:0:0:0:
256,246,142499,2,0,L|256:190,1,50
256,196,142741,2,0,L|256:140,1,50
256,108,142982,1,2,0:0:0:0:
256,108,143103,1,0,0:0:0:0:
399,256,143224,6,0,P|405:207|455:168,1,100,0|4,0:0|0:0,0:0:0:0:
179,45,143708,1,4,0:0:0:0:
152,304,143950,1,4,0:0:0:0:
384,227,144192,1,4,0:0:0:0:
90,164,144434,1,4,0:0:0:0:
354,68,144676,1,4,0:0:0:0:
354,68,144918,1,4,0:0:0:0:
165,50,145160,1,0,0:0:0:0:
120,71,145280,1,0,0:0:0:0:
77,98,145402,2,0,P|40:136|-20:116,1,100
180,240,145886,5,0,0:0:0:0:
388,116,146128,1,0,0:0:0:0:
246,278,146370,1,0,0:0:0:0:
282,42,146612,1,0,0:0:0:0:
315,254,146853,1,0,0:0:0:0:
158,75,147095,1,0,0:0:0:0:
342,186,147337,1,0,0:0:0:0:
103,191,147579,1,0,0:0:0:0:
307,122,147821,1,0,0:0:0:0:
157,308,148063,1,0,0:0:0:0:
235,107,148305,1,0,0:0:0:0:
282,342,148547,1,0,0:0:0:0:
178,153,148789,1,0,0:0:0:0:
387,268,149031,5,0,0:0:0:0:
235,107,149273,1,0,0:0:0:0:
282,342,149515,1,0,0:0:0:0:
307,122,149757,1,0,0:0:0:0:
157,308,149999,1,0,0:0:0:0:
342,186,150241,1,0,0:0:0:0:
103,191,150483,1,0,0:0:0:0:
315,254,150724,1,0,0:0:0:0:
158,75,150966,1,0,0:0:0:0:
246,278,151208,1,0,0:0:0:0:
282,42,151450,1,0,0:0:0:0:
184,240,151692,1,0,0:0:0:0:
388,116,151934,1,0,0:0:0:0:
184,240,152176,1,0,0:0:0:0:
68,88,152418,6,0,P|88:56|144:32,1,100
330,128,152902,1,0,0:0:0:0:
374,126,153023,1,0,0:0:0:0:
364,168,153143,1,0,0:0:0:0:
124,200,153386,2,0,P|153:239|199:255,1,100
356,280,153870,2,0,P|400:282|390:240,1,100
84,104,154353,5,0,0:0:0:0:
224,240,154595,1,0,0:0:0:0:
395,106,154837,2,0,L|440:84,2,50
96,268,155321,1,0,0:0:0:0:
216,324,155563,1,0,0:0:0:0:
216,60,155805,1,0,0:0:0:0:
96,116,156047,1,0,0:0:0:0:
416,264,156289,2,0,P|372:296|340:280,4,50
128,284,157015,5,0,0:0:0:0:
300,56,157499,1,0,0:0:0:0:
504,208,157982,1,0,0:0:0:0:
388,284,158466,1,0,0:0:0:0:
220,253,158950,1,0,0:0:0:0:
194,156,159192,1,0,0:0:0:0:
291,130,159434,1,0,0:0:0:0:
317,227,159676,1,0,0:0:0:0:
185,314,159918,1,0,0:0:0:0:
133,121,160160,1,0,0:0:0:0:
326,69,160402,1,0,0:0:0:0:
378,262,160644,1,0,0:0:0:0:
256,192,160765,12,0,162821,0:0:0:0:
348,208,163063,5,0,0:0:0:0:
316,246,163183,1,0,0:0:0:0:
272,269,163304,1,0,0:0:0:0:
192,256,163426,2,0,L|176:208,2,50
256,192,163789,12,0,164636,0:0:0:0:
184,236,164757,6,0,P|152:188|168:96,1,150,2|0,0:0|0:0,0:0:0:0:
232,124,165241,2,0,L|240:180,3,50,2|0|0|0,0:0|0:0|0:0|0:0,0:0:0:0:
296,216,165724,2,0,L|352:132,1,100
351,132,166087,1,0,0:0:0:0:
416,184,166208,5,2,0:0:0:0:
264,148,166450,1,0,0:0:0:0:
488,200,166692,1,0,0:0:0:0:
196,120,166934,1,0,0:0:0:0:
488,200,167176,1,2,0:0:0:0:
196,120,167418,1,0,0:0:0:0:
200,169,167538,1,0,0:0:0:0:
205,219,167660,1,0,0:0:0:0:
210,269,167781,1,0,0:0:0:0:
110,280,167902,6,0,L|210:269,1,100,0|2,0:0|0:0,0:0:0:0:
400,116,168386,2,0,L|292:128,1,100
300,127,168749,1,0,0:0:0:0:
350,121,168870,1,0,0:0:0:0:
400,116,168990,1,0,0:0:0:0:
352,276,169111,2,0,L|428:208,1,100,2|0,0:0|0:0,0:0:0:0:
160,108,169595,2,0,L|84:176,1,100
284,324,170079,1,2,0:0:0:0:
420,116,170321,1,0,0:0:0:0:
375,94,170441,1,0,0:0:0:0:
330,72,170562,1,0,0:0:0:0:
285,50,170683,1,0,0:0:0:0:
240,28,170804,1,0,0:0:0:0:
285,50,170926,2,0,L|232:116,1,50,0|2,0:0|0:0,0:0:0:0:
256,192,171289,5,0,0:0:0:0:
164,120,171531,1,4,0:0:0:0:
348,264,171773,1,4,0:0:0:0:
96,296,172015,1,4,0:0:0:0:
416,88,172257,1,4,0:0:0:0:
208,272,172499,2,0,P|236:212|296:184,1,100
380,196,172861,1,0,0:0:0:0:
187,68,172982,2,0,P|227:162|265:194,1,150,2|0,0:0|0:0,0:0:0:0:
312,80,173466,1,0,0:0:0:0:
358,82,173586,1,0,0:0:0:0:
368,127,173707,1,0,0:0:0:0:
92,184,173950,5,2,0:0:0:0:
267,288,174192,2,0,L|172:260,1,100
340,312,174676,1,0,0:0:0:0:
92,184,174918,1,2,0:0:0:0:
268,288,175160,2,0,L|164:256,1,100,0|4,0:0|0:0,0:0:0:0:
172,258,175523,1,4,0:0:0:0:
172,258,175644,1,4,0:0:0:0:
268,88,175886,1,2,0:0:0:0:
464,168,176128,2,0,P|412:184|404:244,1,100
398,223,176491,1,0,0:0:0:0:
398,223,176611,1,0,0:0:0:0:
152,192,176853,1,2,0:0:0:0:
304,324,177094,1,0,0:0:0:0:
300,112,177337,5,0,0:0:0:0:
212,272,177579,1,0,0:0:0:0:
60,92,177821,1,2,0:0:0:0:
60,92,178063,1,0,0:0:0:0:
54,141,178183,1,0,0:0:0:0:
70,187,178305,1,6,0:0:0:0:
106,221,178425,1,0,0:0:0:0:
203,227,178547,1,6,0:0:0:0:
210,177,178667,1,0,0:0:0:0:
236,135,178788,1,6,0:0:0:0:
277,107,178909,1,0,0:0:0:0:
325,95,179031,1,6,0:0:0:0:
374,103,179151,1,0,0:0:0:0:
450,165,179273,1,6,0:0:0:0:
409,194,179393,1,0,0:0:0:0:
368,222,179514,1,6,0:0:0:0:
326,250,179635,1,0,0:0:0:0:
285,278,179757,2,0,P|212:316|196:284,1,100,12|12,0:0|0:0,0:0:0:0:
120,152,180241,6,0,L|168:116,3,50
248,72,180724,2,0,P|290:54|318:91,1,100,2|0,0:0|0:0,0:0:0:0:
260,312,181208,1,0,0:0:0:0:
217,329,181328,1,0,0:0:0:0:
189,292,181449,1,0,0:0:0:0:
217,329,181571,1,0,0:0:0:0:
260,312,181692,2,0,L|336:296,1,50,2|0,0:0|0:0,0:0:0:0:
384,248,181934,2,0,L|419:212,1,50
484,176,182176,1,0,0:0:0:0:
420,140,182297,2,0,L|370:140,2,50
484,176,182660,1,2,0:0:0:0:
212,56,182902,5,0,0:0:0:0:
176,252,183144,1,0,0:0:0:0:
212,56,183386,1,0,0:0:0:0:
80,240,183628,1,2,0:0:0:0:
212,56,183870,1,0,0:0:0:0:
35,303,184111,2,0,P|75:334|124:341,1,100
363,82,184595,6,0,P|364:128|304:176,1,100,2|0,0:0|0:0,0:0:0:0:
128,128,185079,1,0,0:0:0:0:
332,280,185321,1,0,0:0:0:0:
332,280,185563,1,2,0:0:0:0:
128,128,185805,1,0,0:0:0:0:
128,128,185926,1,0,0:0:0:0:
128,128,186047,1,0,0:0:0:0:
332,280,186289,1,0,0:0:0:0:
332,280,186410,1,0,0:0:0:0:
332,280,186531,1,2,0:0:0:0:
328,120,186773,5,0,0:0:0:0:
184,264,187015,1,10,0:0:0:0:
120,80,187257,1,10,0:0:0:0:
392,304,187499,1,10,0:0:0:0:
120,80,187741,1,10,0:0:0:0:
161,52,187861,1,0,0:0:0:0:
210,45,187982,2,0,P|276:68|292:144,1,150,2|0,0:0|0:0,0:0:0:0:
417,226,188466,2,0,P|355:262|296:224,1,150,2|0,0:0|0:0,0:0:0:0:
444,68,188950,1,0,0:0:0:0:
410,104,189070,1,0,0:0:0:0:
376,141,189191,1,0,0:0:0:0:
228,224,189434,5,2,0:0:0:0:
264,248,189555,1,0,0:0:0:0:
276,292,189676,2,0,P|224:280|168:296,1,100
348,260,190160,2,0,L|324:216,1,50
299,247,190402,2,0,P|260:192|316:152,1,150,2|0,0:0|0:0,0:0:0:0:
436,148,190886,1,4,0:0:0:0:
484,148,191007,1,4,0:0:0:0:
360,148,191128,2,0,P|308:100|252:76,2,100,4|2|0,0:0|0:0|0:0,0:0:0:0:
130,39,191853,2,0,L|220:84,1,100
340,106,192337,2,0,L|256:160,1,100,2|0,0:0|0:0,0:0:0:0:
256,256,192821,1,0,0:0:0:0:
256,206,192941,1,0,0:0:0:0:
256,156,193062,1,0,0:0:0:0:
256,106,193183,1,0,0:0:0:0:
256,56,193305,1,2,0:0:0:0:
80,252,193547,5,0,0:0:0:0:
360,200,193789,1,4,0:0:0:0:
168,44,194031,1,4,0:0:0:0:
248,328,194273,1,4,0:0:0:0:
84,120,194515,1,12,0:0:0:0:
328,288,194757,1,8,0:0:0:0:
28,184,194999,1,8,0:0:0:0:
360,112,195241,1,8,0:0:0:0:
160,232,195482,1,8,0:0:0:0:
312,272,195724,6,0,P|312:232|336:228,1,50
200,112,196208,2,0,P|202:147|176:164,1,50
224,244,196692,2,0,L|180:236,4,25
272,184,197418,6,0,P|220:148|248:204,1,100
