osu file format v14

[General]
AudioFilename: audio.mp3
AudioLeadIn: 0
PreviewTime: 49281
Countdown: 0
SampleSet: Drum
StackLeniency: 0.7
Mode: 0
LetterboxInBreaks: 0
WidescreenStoryboard: 1

[Editor]
Bookmarks: 11817,21183,39915,49281,56305,58647,63330,68012,70354,89086,110305
DistanceSpacing: 1
BeatDivisor: 4
GridSize: 8
TimelineZoom: 5

[Metadata]
Title:The Ordeal
TitleUnicode:The Ordeal
Artist:LA2LY
ArtistUnicode:LA2LY
Creator:Yooh
Version:Normal
Source:
Tags:k-shootmania electronic hardcore instrumental ksm kalindraz flask down
BeatmapID:2492026
BeatmapSetID:1192759

[Difficulty]
HPDrainRate:4
CircleSize:3
OverallDifficulty:4
ApproachRate:5
SliderMultiplier:0.999999999999999
SliderTickRate:1

[Events]
//Background and Video events
0,0,"78128235_p0.jpg",0,0
//Break Periods
2,58724,62008
//Storyboard Layer 0 (Background)
//Storyboard Layer 1 (Fail)
//Storyboard Layer 2 (Pass)
//Storyboard Layer 3 (Foreground)
//Storyboard Layer 4 (Overlay)
//Storyboard Sound Samples

[TimingPoints]
2330,292.682926829268,4,3,1,80,1,0
39793,-100,4,2,1,80,0,0
49159,-100,4,3,1,80,0,0
63208,-100,4,2,1,80,0,0
67305,-100,4,3,1,80,0,0
70232,-100,4,3,1,80,0,1
77476,-100,4,3,2,80,0,1
77549,-100,4,3,1,80,0,1
78061,-100,4,3,2,80,0,1
78134,-100,4,3,1,80,0,1
84281,-100,4,3,1,80,0,0
88964,-100,4,3,1,80,0,1
103012,-100,4,3,1,80,0,0
105354,-100,4,3,1,80,0,1
107695,-90.9090909090909,4,3,1,80,0,1
110183,-100,4,3,1,80,0,0

[Colours]
Combo1 : 255,128,255
Combo2 : 121,121,255
Combo3 : 121,255,255

[HitObjects]
128,10,2329,6,0,L|100:118,1,99.9999999999999,8|8,0:0|0:0,0:0:0:0:
182,169,2915,1,8,0:0:0:0:
182,169,3061,2,0,L|197:231,2,50,0|8|0,0:0|0:0|0:0,0:0:0:0:
212,129,3500,2,0,P|243:106|318:116,1,99.9999999999999,8|8,0:0|0:0,0:0:0:0:
396,71,4086,2,0,L|421:171,1,99.9999999999999,8|8,0:0|0:0,0:0:0:0:
498,231,4671,5,12,0:0:0:0:
452,320,4964,2,0,L|388:312,1,50,8|0,0:0|0:0,0:0:0:0:
357,336,5256,2,0,P|342:278|293:250,1,99.9999999999999,8|8,0:0|0:0,0:0:0:0:
253,173,5842,2,0,B|225:201|225:201|204:368,1,200,8|8,0:0|0:0,0:0:0:0:
158,377,6573,1,12,0:0:0:0:
71,326,6866,5,0,0:0:0:0:
71,326,7012,2,0,L|41:209,1,99.9999999999999,12|0,0:0|0:0,0:0:0:0:
6,198,7451,2,0,P|39:159|98:153,1,99.9999999999999,8|0,0:0|0:0,0:0:0:0:
134,156,7890,2,0,L|149:93,1,50,8|0,0:0|0:0,0:0:0:0:
158,58,8183,2,0,P|231:53|291:96,1,150,12|12,0:0|0:0,0:0:0:0:
326,190,8915,1,12,0:0:0:0:
418,152,9208,5,0,0:0:0:0:
418,152,9354,2,0,L|410:88,2,50,8|0|8,0:0|0:0|0:0,0:0:0:0:
462,174,9793,1,0,0:0:0:0:
462,174,9939,2,0,L|447:293,1,99.9999999999999,8|8,0:0|0:0,0:0:0:0:
484,367,10525,2,0,B|356:351|356:351|310:337|310:337|183:322,1,300,8|8,0:0|0:0,0:0:0:0:
98,366,11695,6,0,L|70:257,1,99.9999999999999,12|8,0:0|0:0,0:0:0:0:
50,171,12281,1,8,0:0:0:0:
50,171,12427,2,0,L|-12:155,2,50,2|8|2,0:0|0:0|0:0,0:0:0:0:
99,179,12866,2,0,P|139:126|178:114,1,99.9999999999999,8|8,0:0|0:0,0:0:0:0:
204,21,13451,2,0,P|269:29|299:56,1,99.9999999999999,8|8,0:0|0:0,0:0:0:0:
338,139,14037,5,8,0:0:0:0:
437,136,14329,2,0,L|424:184,1,50,8|2,0:0|0:0,0:0:0:0:
463,217,14622,2,0,L|488:317,1,99.9999999999999,8|8,0:0|0:0,0:0:0:0:
405,371,15208,2,0,L|206:346,1,200,8|8,0:0|0:0,0:0:0:0:
174,308,15939,1,14,0:0:0:0:
75,327,16232,5,2,0:0:0:0:
75,327,16378,2,0,L|50:226,1,99.9999999999999,12|0,0:0|0:0,0:0:0:0:
9,203,16817,2,0,P|37:167|90:152,1,99.9999999999999,14|2,0:0|0:0,0:0:0:0:
138,150,17256,2,0,L|163:49,1,99.9999999999999,12|8,0:0|0:0,0:0:0:0:
256,17,17842,1,8,0:0:0:0:
318,95,18134,2,0,P|366:93|405:56,1,99.9999999999999,8|8,0:0|0:0,0:0:0:0:
486,2,18720,2,0,B|504:44|504:44|492:147|492:147|472:177|472:177|456:304,1,300,8|8,0:0|0:0,0:0:0:0:
385,365,19890,6,0,B|335:356|335:356|334:314|308:288|308:288|233:281|233:281|209:311|173:321|173:321|153:288|97:271,1,350,12|12,0:0|0:0,0:0:0:0:
66,259,21061,6,0,P|26:200|32:161,1,99.9999999999999,8|8,0:0|0:0,0:0:0:0:
61,79,21647,1,8,0:0:0:0:
159,65,21939,2,0,L|214:57,1,50,8|2,0:0|0:0,0:0:0:0:
242,21,22232,2,0,L|341:33,1,99.9999999999999,8|8,0:0|0:0,0:0:0:0:
440,48,22817,1,8,0:0:0:0:
440,48,22964,2,0,P|457:25|488:9,2,50,2|8|0,0:0|0:0|0:0,0:0:0:0:
447,97,23403,6,0,B|456:171|456:171|460:177|460:177|471:260,1,150,12|2,0:0|0:0,0:0:0:0:
385,369,24281,1,8,0:0:0:0:
292,343,24573,2,0,B|306:293|356:276|356:276|343:170,1,200,8|8,0:0|0:0,0:0:0:0:
267,114,25451,1,12,0:0:0:0:
194,176,25744,6,0,L|82:162,1,99.9999999999999,8|8,0:0|0:0,0:0:0:0:
43,82,26329,2,0,L|154:68,1,99.9999999999999,8|8,0:0|0:0,0:0:0:0:
220,13,26915,2,0,B|299:22|299:22|340:19|340:19|419:29,1,200,12|8,0:0|0:0,0:0:0:0:
466,37,27647,1,2,0:0:0:0:
466,37,27793,2,0,L|479:91,1,50,8|2,0:0|0:0,0:0:0:0:
494,131,28086,6,0,P|438:150|414:202,1,99.9999999999999,12|8,0:0|0:0,0:0:0:0:
404,282,28671,1,8,0:0:0:0:
404,282,28817,2,0,P|438:293|454:308,2,50,2|8|2,0:0|0:0|0:0,0:0:0:0:
356,288,29256,2,0,L|292:295,1,50,8|2,0:0|0:0,0:0:0:0:
177,370,29842,1,8,0:0:0:0:
177,370,29988,2,0,P|143:325|91:323,1,99.9999999999999,2|2,0:0|0:0,0:0:0:0:
53,328,30427,6,0,L|40:224,1,99.9999999999999,12|8,0:0|0:0,0:0:0:0:
35,132,31012,1,8,0:0:0:0:
107,68,31305,2,0,P|145:71|169:88,1,50,8|2,0:0|0:0,0:0:0:0:
195,102,31598,2,0,P|220:58|281:43,1,99.9999999999999,8|8,0:0|0:0,0:0:0:0:
360,50,32183,1,8,0:0:0:0:
360,50,32329,2,0,L|368:-21,2,50,2|8|0,0:0|0:0|0:0,0:0:0:0:
402,74,32769,6,0,B|426:100|426:100|441:219,1,150,12|2,0:0|0:0,0:0:0:0:
459,356,33647,1,8,0:0:0:0:
371,316,33939,2,0,B|313:312|266:361|266:361|215:356|173:324,1,200,8|8,0:0|0:0,0:0:0:0:
109,281,34817,1,12,0:0:0:0:
38,346,35110,6,0,B|7:315|14:264|14:264|29:181|29:181|109:169|146:102,1,300,8|8,0:0|0:0,0:0:0:0:
177,32,36281,2,0,B|256:22|256:22|297:25|297:25|377:15|377:15|412:17|434:42,1,250,12|2,0:0|0:0,0:0:0:0:
454,65,37159,1,12,0:0:0:0:
474,158,37451,6,0,L|362:144,1,99.9999999999999,12|8,0:0|0:0,0:0:0:0:
283,177,38037,1,8,0:0:0:0:
283,177,38183,2,0,P|263:145|240:130,2,50,0|8|0,0:0|0:0|0:0,0:0:0:0:
278,225,38622,2,0,L|158:239,1,99.9999999999999,8|8,0:0|0:0,0:0:0:0:
83,251,39208,2,0,P|50:282|35:350,1,99.9999999999999,8|8,0:0|0:0,0:0:0:0:
128,350,39793,6,0,L|294:370,1,150,12|12,0:0|0:0,0:0:0:0:
417,339,40671,2,0,B|410:283|410:283|398:252|398:252|388:173,1,150,12|12,0:0|0:0,0:0:0:0:
461,66,41549,2,0,P|421:29|363:32,1,99.9999999999999,12|12,0:0|0:0,0:0:0:0:
291,69,42134,6,0,B|243:86|220:66|228:62|188:39|139:57,1,150,12|12,0:0|0:0,0:0:0:0:
9,11,43012,2,0,P|49:73|60:165,1,150,12|12,0:0|0:0,0:0:0:0:
27,287,43890,2,0,L|126:274,1,99.9999999999999,12|12,0:0|0:0,0:0:0:0:
210,322,44476,6,0,L|246:174,1,150,12|12,0:0|0:0,0:0:0:0:
277,30,45354,1,12,0:0:0:0:
420,13,45793,1,12,0:0:0:0:
493,136,46232,2,0,P|462:155|430:214,1,99.9999999999999,12|12,0:0|0:0,0:0:0:0:
445,304,46817,6,0,B|400:308|367:354|367:354|307:344,1,150,12|12,0:0|0:0,0:0:0:0:
173,312,47695,1,12,0:0:0:0:
35,355,48134,1,12,0:0:0:0:
4,214,48573,2,0,L|16:110,1,99.9999999999999,12|12,0:0|0:0,0:0:0:0:
28,19,49159,6,0,P|74:36|106:83,1,99.9999999999999,8|8,0:0|0:0,0:0:0:0:
187,123,49744,1,8,0:0:0:0:
187,123,49890,2,0,P|218:92|234:87,2,50,2|8|2,0:0|0:0|0:0,0:0:0:0:
182,170,50329,2,0,L|281:182,1,99.9999999999999,8|8,0:0|0:0,0:0:0:0:
340,106,50915,2,0,L|439:94,1,99.9999999999999,8|8,0:0|0:0,0:0:0:0:
508,160,51500,5,8,0:0:0:0:
431,218,51793,2,0,L|414:288,1,50,8|2,0:0|0:0,0:0:0:0:
402,311,52086,2,0,P|354:311|302:341,1,99.9999999999999,8|8,0:0|0:0,0:0:0:0:
226,383,52671,2,0,B|199:373|191:342|191:342|154:195,1,200,8|8,0:0|0:0,0:0:0:0:
112,181,53403,1,2,0:0:0:0:
112,181,53549,2,0,L|126:127,1,50,8|2,0:0|0:0,0:0:0:0:
104,88,53842,6,0,L|207:75,1,99.9999999999999,12|0,0:0|0:0,0:0:0:0:
238,43,54281,2,0,P|292:54|319:96,1,99.9999999999999,14|2,0:0|0:0,0:0:0:0:
321,136,54720,2,0,L|424:149,1,99.9999999999999,12|8,0:0|0:0,0:0:0:0:
444,245,55305,1,8,0:0:0:0:
468,342,55598,2,0,L|365:355,1,99.9999999999999,8|8,0:0|0:0,0:0:0:0:
273,367,56183,6,0,B|266:276|170:234|170:234|136:297|66:302,1,300,8|8,0:0|0:0,0:0:0:0:
12,227,57354,2,0,B|31:177|31:177|62:150|98:157|98:157|136:141|151:107|151:107|124:37|124:37|191:-1|262:44,1,400,12|14,0:0|0:0,0:0:0:0:
11,88,63208,6,0,B|12:-13|153:-70|249:54|198:159|117:176|117:176|316:151|316:151|332:71|429:63,1,749.999999999999,8|8,0:0|0:0,0:0:0:0:
472,66,65549,2,0,L|453:216,1,150,12|8,0:0|0:0,0:0:0:0:
447,264,66134,2,0,P|410:268|363:325,1,99.9999999999999,12|0,0:0|0:0,0:0:0:0:
354,359,66573,1,8,0:0:0:0:
354,359,66720,2,0,B|316:250|197:268|197:268|151:201|151:201|113:175|113:175|67:92,1,400,12|12,0:0|0:0,0:0:0:0:
507,20,70232,6,0,P|503:77|512:136,1,99.9999999999999,8|12,0:0|0:0,0:0:0:0:
512,170,70671,1,2,0:0:0:0:
512,170,70817,2,0,P|458:162|400:175,1,99.9999999999999,8|12,0:0|0:0,0:0:0:0:
363,256,71403,1,8,0:0:0:0:
274,210,71695,2,0,L|260:98,2,99.9999999999999,12|8|12,0:0|0:0|0:0,0:0:0:0:
261,309,72573,6,0,B|221:304|221:304|206:294|206:294|142:286,1,99.9999999999999,8|12,0:0|0:0,0:0:0:0:
143,334,73012,1,2,0:0:0:0:
143,334,73159,2,0,B|103:338|103:338|88:348|88:348|24:356,1,99.9999999999999,8|12,0:0|0:0,0:0:0:0:
18,257,73744,1,8,0:0:0:0:
41,159,74037,1,12,0:0:0:0:
136,130,74329,1,8,0:0:0:0:
113,32,74622,2,0,L|168:38,1,50,12|2,0:0|0:0,0:0:0:0:
207,59,74915,6,0,L|318:45,1,99.9999999999999,8|12,0:0|0:0,0:0:0:0:
348,74,75354,1,2,0:0:0:0:
348,74,75500,2,0,P|389:84|433:124,1,99.9999999999999,8|12,0:0|0:0,0:0:0:0:
474,212,76086,2,0,L|363:226,1,99.9999999999999,8|12,0:0|0:0,0:0:0:0:
276,240,76671,1,8,0:0:0:0:
209,164,76964,1,12,0:0:0:0:
144,88,77256,6,0,P|116:137|116:191,1,99.9999999999999,8|12,0:0|0:0,0:0:0:0:
70,205,77695,1,0,0:0:0:0:
70,205,77842,2,0,P|98:253|145:280,1,99.9999999999999,8|12,0:0|0:0,0:0:0:0:
183,287,78281,1,0,0:0:0:0:
183,287,78427,2,0,L|198:349,1,50,12|8,0:0|0:0,0:0:0:0:
338,378,79012,2,0,L|351:323,1,50,8|12,0:0|0:0,0:0:0:0:
392,303,79305,2,0,L|405:248,1,50,8|0,0:0|0:0,0:0:0:0:
447,230,79598,6,0,L|419:121,1,99.9999999999999,8|12,0:0|0:0,0:0:0:0:
407,85,80037,1,2,0:0:0:0:
407,85,80183,2,0,P|355:108|329:155,1,99.9999999999999,8|12,0:0|0:0,0:0:0:0:
237,175,80769,1,8,0:0:0:0:
137,170,81061,2,0,L|149:66,2,99.9999999999999,12|8|12,0:0|0:0|0:0,0:0:0:0:
124,269,81939,6,0,B|78:285|78:285|74:291|74:291|22:311,1,99.9999999999999,8|12,0:0|0:0,0:0:0:0:
42,357,82378,1,2,0:0:0:0:
42,357,82525,2,0,B|89:362|89:362|95:367|95:367|150:374,1,99.9999999999999,8|12,0:0|0:0,0:0:0:0:
232,334,83110,1,8,0:0:0:0:
331,322,83403,1,12,0:0:0:0:
365,228,83695,1,8,0:0:0:0:
464,240,83988,2,0,P|470:209|487:181,1,50,12|2,0:0|0:0,0:0:0:0:
511,151,84281,6,0,B|498:91|427:61|427:61|411:99|363:117,1,200,8|8,0:0|0:0,0:0:0:0:
279,131,85159,1,12,0:0:0:0:
219,50,85451,2,0,L|107:36,1,99.9999999999999,8|12,0:0|0:0,0:0:0:0:
20,23,86037,1,8,0:0:0:0:
33,121,86329,1,12,0:0:0:0:
52,219,86622,6,0,B|123:227|123:227|177:250|177:250|264:261|264:261|286:336|375:335,1,350,8|2,0:0|0:0,0:0:0:0:
412,337,87793,2,0,B|423:286|423:286|463:278|482:247|482:247|462:186|469:172|469:172|513:158|529:132|529:132|492:108|478:76,1,350,12|12,0:0|0:0,0:0:0:0:
454,34,88964,6,0,P|387:63|374:84,1,99.9999999999999,8|12,0:0|0:0,0:0:0:0:
331,109,89403,1,2,0:0:0:0:
331,109,89549,2,0,L|227:96,1,99.9999999999999,8|12,0:0|0:0,0:0:0:0:
143,142,90134,1,8,0:0:0:0:
54,96,90427,2,0,L|26:-12,2,99.9999999999999,12|8|12,0:0|0:0|0:0,0:0:0:0:
32,193,91305,6,0,L|6:293,1,99.9999999999999,8|12,0:0|0:0,0:0:0:0:
46,321,91744,1,2,0:0:0:0:
46,321,91890,2,0,P|91:297|150:314,1,99.9999999999999,8|12,0:0|0:0,0:0:0:0:
225,355,92476,1,8,0:0:0:0:
249,257,92769,1,12,0:0:0:0:
345,229,93061,1,8,0:0:0:0:
369,131,93354,2,0,L|424:124,1,50,12|2,0:0|0:0,0:0:0:0:
448,84,93647,6,0,P|420:32|370:15,1,99.9999999999999,8|12,0:0|0:0,0:0:0:0:
340,39,94086,1,2,0:0:0:0:
340,39,94232,2,0,L|228:25,1,99.9999999999999,8|12,0:0|0:0,0:0:0:0:
141,16,94817,2,0,L|154:126,1,99.9999999999999,8|12,0:0|0:0,0:0:0:0:
66,166,95402,1,8,0:0:0:0:
39,263,95695,1,12,0:0:0:0:
94,346,95988,6,0,B|142:341|142:341|148:336|148:336|203:329,1,99.9999999999999,8|12,0:0|0:0,0:0:0:0:
216,286,96427,1,2,0:0:0:0:
216,286,96573,2,0,P|272:291|300:334,1,99.9999999999999,8|12,0:0|0:0,0:0:0:0:
316,369,97012,1,2,0:0:0:0:
316,369,97159,2,0,L|379:376,1,50,12|4,0:0|0:0,0:0:0:0:
470,267,97744,2,0,L|398:275,1,50,8|12,0:0|0:0,0:0:0:0:
389,233,98037,2,0,L|317:224,1,50,8|0,0:0|0:0,0:0:0:0:
321,180,98329,6,0,L|295:79,1,99.9999999999999,8|12,0:0|0:0,0:0:0:0:
253,55,98769,1,2,0:0:0:0:
253,55,98915,2,0,P|198:87|181:123,1,99.9999999999999,8|12,0:0|0:0,0:0:0:0:
162,217,99500,1,8,0:0:0:0:
83,279,99793,2,0,P|43:244|-13:248,2,99.9999999999999,12|8|12,0:0|0:0|0:0,0:0:0:0:
142,359,100671,6,0,B|182:355|182:355|197:345|197:345|261:337,1,99.9999999999999,8|12,0:0|0:0,0:0:0:0:
264,296,101110,1,2,0:0:0:0:
264,296,101256,2,0,B|304:300|304:300|319:310|319:310|383:318,1,99.9999999999999,8|12,0:0|0:0,0:0:0:0:
446,262,101842,1,8,0:0:0:0:
458,163,102135,1,12,0:0:0:0:
378,103,102427,1,8,0:0:0:0:
287,142,102720,2,0,L|273:87,1,50,12|2,0:0|0:0,0:0:0:0:
263,44,103012,6,0,B|195:23|153:83|153:83|136:42|89:34,1,200,8|8,0:0|0:0,0:0:0:0:
7,15,103890,1,12,0:0:0:0:
21,112,104183,2,0,B|39:181|39:181|58:226|58:226|80:311,1,200,8|8,0:0|0:0,0:0:0:0:
163,355,105061,1,12,0:0:0:0:
246,299,105354,6,0,B|314:290|348:352|348:352|356:288|422:263|422:263|436:206,1,300,8|12,0:0|0:0,0:0:0:0:
453,112,106525,2,0,P|390:116|360:143,1,99.9999999999999,8|8,0:0|0:0,0:0:0:0:
330,176,106964,1,2,0:0:0:0:
330,176,107110,2,0,L|302:67,1,99.9999999999999,8|8,0:0|0:0,0:0:0:0:
207,28,107695,6,0,B|200:77|200:77|196:83|196:83|187:153,1,110.000003356934,8|8,0:0|0:0,0:0:0:0:
145,168,108134,1,2,0:0:0:0:
145,168,108281,2,0,P|93:165|44:209,1,110.000003356934,8|8,0:0|0:0,0:0:0:0:
28,307,108866,2,0,L|91:299,1,55.0000016784668,8|2,0:0|0:0,0:0:0:0:
136,290,109159,1,8,0:0:0:0:
245,276,109451,1,8,0:0:0:0:
346,317,109744,1,8,0:0:0:0:
455,331,110037,2,0,L|473:254,1,55.0000016784668,12|12,0:0|0:0,0:0:0:0:
