osu file format v14

[General]
AudioFilename: audio.mp3
AudioLeadIn: 0
PreviewTime: 49281
Countdown: 0
SampleSet: Soft
StackLeniency: 0.7
Mode: 0
LetterboxInBreaks: 0
WidescreenStoryboard: 1

[Editor]
Bookmarks: 11817,21183,39915,49281,56305,58647,63330,68012,70354,89086,110305
DistanceSpacing: 1
BeatDivisor: 4
GridSize: 8
TimelineZoom: 5

[Metadata]
Title:The Ordeal
TitleUnicode:The Ordeal
Artist:LA2LY
ArtistUnicode:LA2LY
Creator:Yooh
Version:Hard
Source:
Tags:k-shootmania electronic hardcore instrumental ksm kalindraz flask down
BeatmapID:2495205
BeatmapSetID:1192759

[Difficulty]
HPDrainRate:4.5
CircleSize:3.6
OverallDifficulty:7
ApproachRate:8
SliderMultiplier:1.4
SliderTickRate:1

[Events]
//Background and Video events
0,0,"78128235_p0.jpg",0,0
//Break Periods
2,58725,62458
//Storyboard Layer 0 (Background)
//Storyboard Layer 1 (Fail)
//Storyboard Layer 2 (Pass)
//Storyboard Layer 3 (Foreground)
//Storyboard Layer 4 (Overlay)
//Storyboard Sound Samples

[TimingPoints]
2330,292.682926829268,4,3,1,80,1,0
21281,-100,4,3,2,5,0,0
21354,-100,4,3,1,80,0,0
21647,-100,4,3,1,80,0,0
21866,-100,4,3,2,5,0,0
21939,-100,4,3,1,80,0,0
23695,-100,4,3,1,80,0,0
24208,-100,4,3,2,5,0,0
24281,-100,4,3,1,80,0,0
24500,-100,4,3,2,5,0,0
24573,-100,4,3,1,80,0,0
25671,-100,4,3,2,5,0,0
25744,-100,4,3,1,80,0,0
27207,-100,4,3,1,80,0,0
28378,-100,4,3,1,80,0,0
29842,-100,4,3,1,80,0,0
30647,-100,4,3,2,5,0,0
30720,-100,4,3,1,80,0,0
31012,-100,4,3,1,80,0,0
31232,-100,4,3,2,5,0,0
31305,-100,4,3,1,80,0,0
32988,-100,4,3,2,5,0,0
33061,-100,4,3,1,80,0,0
33573,-100,4,3,2,5,0,0
33646,-100,4,3,1,80,0,0
33866,-100,4,3,2,5,0,0
33939,-100,4,3,1,80,0,0
35037,-100,4,3,2,5,0,0
35110,-100,4,3,1,80,0,0
36500,-100,4,3,2,5,0,0
36573,-100,4,3,1,80,0,0
36939,-100,4,3,2,5,0,0
37012,-100,4,3,1,80,0,0
37451,-100,4,3,1,80,0,0
37744,-100,4,3,1,80,0,0
38037,-100,4,3,1,80,0,0
39720,-100,4,3,2,5,0,0
39793,-111.111111111111,4,2,1,80,0,0
49159,-100,4,3,1,80,0,0
63208,-100,4,2,1,80,0,0
67305,-100,4,3,1,80,0,0
70232,-90.9090909090909,4,3,1,80,0,1
77549,-90.9090909090909,4,3,1,80,0,1
78061,-90.9090909090909,4,3,2,5,0,1
78134,-90.9090909090909,4,3,1,80,0,1
84281,-100,4,3,1,80,0,0
88964,-90.9090909090909,4,3,1,80,0,1
97671,-90.9090909090909,4,3,2,5,0,1
97744,-90.9090909090909,4,3,1,80,0,1
103012,-100,4,3,1,80,0,0
105354,-100,4,3,1,80,0,1
106451,-100,4,3,2,5,0,1
106525,-100,4,3,1,80,0,1
107695,-90.9090909090909,4,3,1,80,0,1
108500,-90.9090909090909,4,3,2,5,0,1
108573,-90.9090909090909,4,3,1,80,0,1
108793,-90.9090909090909,4,3,2,5,0,1
108866,-90.9090909090909,4,3,1,80,0,1
109378,-90.9090909090909,4,3,2,5,0,1
109451,-90.9090909090909,4,3,1,80,0,1
109671,-90.9090909090909,4,3,2,5,0,1
109744,-90.9090909090909,4,3,1,80,0,1
109964,-90.9090909090909,4,3,2,5,0,1
110037,-90.9090909090909,4,3,1,80,0,1
110183,-100,4,3,1,80,0,0

[Colours]
Combo1 : 255,128,255
Combo2 : 121,121,255
Combo3 : 121,255,255

[HitObjects]
410,129,2329,6,0,L|489:138,1,70,8|0,0:0|0:0,0:0:0:0:
492,47,2622,2,0,L|412:37,1,70,8|0,0:0|0:0,0:0:0:0:
336,70,2915,1,8,0:0:0:0:
245,60,3061,2,0,P|231:25|196:2,2,70,0|8|0,0:0|0:0|0:0,0:0:0:0:
336,70,3500,6,0,P|320:114|280:145,1,70,8|0,0:0|0:0,0:0:0:0:
340,214,3793,2,0,P|293:222|247:203,1,70,8|0,0:0|0:0,0:0:0:0:
214,145,4086,1,8,0:0:0:0:
123,152,4232,1,0,0:0:0:0:
123,152,4305,1,0,0:0:0:0:
123,152,4378,2,0,L|45:132,1,70,8|0,0:0|0:0,0:0:0:0:
18,218,4671,5,12,0:0:0:0:
107,240,4817,1,0,0:0:0:0:
182,291,4964,2,0,L|201:368,2,70,8|0|8,0:0|0:0|0:0,0:0:0:0:
271,269,5403,1,0,0:0:0:0:
356,238,5549,2,0,L|375:160,1,70,8|0,0:0|0:0,0:0:0:0:
461,146,5842,6,0,P|436:101|410:83,1,70,8|0,0:0|0:0,0:0:0:0:
331,91,6134,2,0,P|279:91|250:78,1,70,8|0,0:0|0:0,0:0:0:0:
191,28,6427,1,8,0:0:0:0:
101,42,6573,2,0,L|112:137,1,70,12|0,0:0|0:0,0:0:0:0:
65,191,6866,5,0,0:0:0:0:
65,191,6939,1,0,0:0:0:0:
65,191,7012,2,0,B|34:183|34:183|28:178|28:178|-24:165,2,70,12|0|0,0:0|0:0|0:0,0:0:0:0:
86,279,7451,2,0,B|64:301|64:301|57:304|57:304|19:343,2,70,8|0|0,0:0|0:0|0:0,0:0:0:0:
172,304,7890,2,0,P|201:316|258:303,1,70,8|0,0:0|0:0,0:0:0:0:
316,265,8183,2,0,P|377:248|440:288,1,140,12|0,0:0|0:0,0:0:0:0:
440,377,8622,1,12,0:0:0:0:
503,206,8915,1,12,0:0:0:0:
455,29,9208,5,0,0:0:0:0:
455,29,9281,1,0,0:0:0:0:
455,29,9354,2,0,P|429:63|419:95,1,70,8|0,0:0|0:0,0:0:0:0:
410,179,9647,1,8,0:0:0:0:
410,179,9793,1,0,0:0:0:0:
336,125,9939,6,0,L|258:105,1,70,8|0,0:0|0:0,0:0:0:0:
179,86,10232,1,8,0:0:0:0:
179,86,10378,1,0,0:0:0:0:
95,50,10525,6,0,L|83:96,3,35,8|0|2|0,0:0|0:0|0:0|0:0,0:0:0:0:
42,97,10817,2,0,L|53:143,3,35,8|0|2|0,0:0|0:0|0:0|0:0,0:0:0:0:
22,167,11110,2,0,L|8:278,1,105,8|0,0:0|0:0,0:0:0:0:
1,316,11403,2,0,P|40:275|105:280,1,105,8|0,0:0|0:0,0:0:0:0:
129,284,11695,6,0,L|138:363,1,70,12|2,0:0|0:0,0:0:0:0:
224,382,11988,2,0,L|232:312,1,70,8|2,0:0|0:0,0:0:0:0:
244,221,12281,1,8,0:0:0:0:
219,133,12427,2,0,P|188:102|136:100,2,70,2|8|2,0:0|0:0|0:0,0:0:0:0:
244,221,12866,6,0,L|315:212,1,70,8|2,0:0|0:0,0:0:0:0:
361,289,13159,2,0,L|432:297,1,70,8|2,0:0|0:0,0:0:0:0:
488,227,13451,1,8,0:0:0:0:
474,136,13598,2,0,P|428:160|409:184,2,70,2|8|2,0:0|0:0|0:0,0:0:0:0:
508,51,14037,6,0,P|464:23|433:18,1,70,8|2,0:0|0:0,0:0:0:0:
379,80,14329,2,0,L|307:88,1,70,8|2,0:0|0:0,0:0:0:0:
246,22,14622,2,0,L|174:13,1,70,8|2,0:0|0:0,0:0:0:0:
119,84,14915,2,0,L|47:92,1,70,8|2,0:0|0:0,0:0:0:0:
2,170,15208,5,8,0:0:0:0:
2,170,15354,1,2,0:0:0:0:
93,181,15500,2,0,L|112:258,2,70,8|2|8,0:0|0:0|0:0,0:0:0:0:
176,143,15939,5,14,0:0:0:0:
198,232,16085,1,8,0:0:0:0:
220,320,16232,1,2,0:0:0:0:
301,360,16378,6,0,L|320:282,2,70,12|2|0,0:0|0:0|0:0,0:0:0:0:
391,346,16817,2,0,L|410:268,2,70,14|0|2,0:0|0:0|0:0,0:0:0:0:
481,332,17256,2,0,L|500:254,1,70,12|2,0:0|0:0,0:0:0:0:
487,173,17549,2,0,P|453:134|413:131,1,70,8|2,0:0|0:0,0:0:0:0:
346,139,17842,1,8,0:0:0:0:
346,139,17988,1,2,0:0:0:0:
270,88,18134,2,0,L|250:10,1,70,8|2,0:0|0:0,0:0:0:0:
162,11,18427,2,0,L|178:78,1,70,8|2,0:0|0:0,0:0:0:0:
196,168,18720,6,0,L|157:158,7,35,8|0|2|0|8|0|2|0,0:0|0:0|0:0|0:0|0:0|0:0|0:0|0:0,0:0:0:0:
123,183,19305,2,0,L|84:192,3,35,8|0|2|0,0:0|0:0|0:0|0:0,0:0:0:0:
44,202,19598,2,0,L|33:289,1,70,8|2,0:0|0:0,0:0:0:0:
95,339,19890,1,12,0:0:0:0:
95,339,20037,2,0,P|152:307|199:322,1,105,12|12,0:0|0:0,0:0:0:0:
315,365,20476,2,0,P|366:370|407:340,2,105,12|12|12,0:0|0:0|0:0,0:0:0:0:
306,274,21061,6,0,L|291:154,1,105,8|0,0:0|0:0,0:0:0:0:
287,124,21354,1,8,0:0:0:0:
152,1,21647,2,0,L|138:112,1,105,8|0,0:0|0:0,0:0:0:0:
159,145,21939,2,0,P|121:155|92:187,1,70,8|2,0:0|0:0,0:0:0:0:
15,137,22232,2,0,P|4:174|17:216,1,70,8|2,0:0|0:0,0:0:0:0:
80,263,22525,1,8,0:0:0:0:
170,274,22671,2,0,L|193:367,2,70,0|8|2,0:0|0:0|0:0,0:0:0:0:
260,285,23110,2,0,L|283:191,1,70,8|0,0:0|0:0,0:0:0:0:
295,127,23403,6,0,P|334:72|407:46,1,140,12|8,0:0|0:0,0:0:0:0:
491,46,23842,2,0,L|454:191,1,140,2|0,0:0|0:0,0:0:0:0:
489,267,24281,2,0,B|438:273|438:273|432:270|432:270|381:276,1,105,8|0,0:0|0:0,0:0:0:0:
338,286,24573,6,0,L|320:355,1,70,8|2,0:0|0:0,0:0:0:0:
229,363,24866,1,8,0:0:0:0:
229,363,25012,1,2,0:0:0:0:
138,374,25159,2,0,L|154:306,1,70,8|2,0:0|0:0,0:0:0:0:
172,216,25451,2,0,P|130:179|74:174,1,105,12|0,0:0|0:0,0:0:0:0:
42,151,25744,6,0,P|51:114|76:90,1,70,8|2,0:0|0:0,0:0:0:0:
163,78,26037,2,0,L|242:68,1,70,8|2,0:0|0:0,0:0:0:0:
303,13,26329,1,8,0:0:0:0:
303,13,26476,1,2,0:0:0:0:
342,94,26622,2,0,L|421:103,1,70,8|2,0:0|0:0,0:0:0:0:
451,184,26915,6,0,L|289:203,1,140,12|8,0:0|0:0,0:0:0:0:
245,369,27500,1,8,0:0:0:0:
245,369,27647,2,0,L|227:299,2,70,2|8|2,0:0|0:0|0:0,0:0:0:0:
155,348,28086,2,0,L|115:208,1,140,12|8,0:0|0:0,0:0:0:0:
69,37,28671,1,8,0:0:0:0:
69,37,28817,2,0,P|91:10|131:-1,2,70,2|8|2,0:0|0:0|0:0,0:0:0:0:
83,127,29256,5,8,0:0:0:0:
83,127,29403,2,0,B|146:134|146:134|155:130|155:130|249:142,1,140,2|0,0:0|0:0,0:0:0:0:
312,153,29842,1,8,0:0:0:0:
312,153,29988,1,2,0:0:0:0:
388,104,30134,2,0,L|382:56,3,35,8|0|2|0,0:0|0:0|0:0|0:0,0:0:0:0:
378,23,30427,6,0,P|425:20|487:88,1,140,12|8,0:0|0:0,0:0:0:0:
505,264,31012,2,0,L|385:249,1,105,8|0,0:0|0:0,0:0:0:0:
354,247,31305,2,0,P|307:267|283:302,1,70,8|2,0:0|0:0,0:0:0:0:
230,345,31598,2,0,P|197:333|171:310,1,70,8|2,0:0|0:0,0:0:0:0:
160,220,31890,1,8,0:0:0:0:
69,209,32037,2,0,L|-2:200,2,70,0|8|2,0:0|0:0|0:0,0:0:0:0:
160,220,32476,2,0,L|140:142,1,70,8|0,0:0|0:0,0:0:0:0:
124,62,32769,6,0,P|162:39|223:58,1,105,12|0,0:0|0:0,0:0:0:0:
252,83,33061,1,8,0:0:0:0:
317,19,33208,2,0,P|356:69|444:54,1,140,2|0,0:0|0:0,0:0:0:0:
511,32,33647,2,0,L|498:135,1,105,8|0,0:0|0:0,0:0:0:0:
491,169,33939,6,0,P|453:192|440:230,1,70,8|2,0:0|0:0,0:0:0:0:
476,298,34232,1,8,0:0:0:0:
476,298,34378,1,2,0:0:0:0:
440,382,34525,2,0,P|398:346|387:320,1,70,8|2,0:0|0:0,0:0:0:0:
357,249,34817,2,0,B|306:255|306:255|300:252|300:252|249:258,1,105,12|0,0:0|0:0,0:0:0:0:
208,265,35110,6,0,L|188:342,1,70,8|2,0:0|0:0,0:0:0:0:
100,341,35403,2,0,L|116:273,1,70,8|2,0:0|0:0,0:0:0:0:
135,184,35695,2,0,L|118:116,1,70,8|2,0:0|0:0,0:0:0:0:
28,108,35988,2,0,L|44:175,1,70,8|2,0:0|0:0,0:0:0:0:
135,184,36281,2,0,L|257:170,1,105,12|0,0:0|0:0,0:0:0:0:
284,164,36573,2,0,P|294:104|372:43,1,140
440,38,37012,1,2,0:0:0:0:
440,38,37159,2,0,L|449:117,1,70,12|0,0:0|0:0,0:0:0:0:
477,193,37451,6,0,L|333:209,1,140,12|8,0:0|0:0,0:0:0:0:
235,360,38037,1,8,0:0:0:0:
235,360,38183,2,0,L|165:351,2,70,0|8|0,0:0|0:0|0:0,0:0:0:0:
249,269,38622,2,0,L|161:258,1,70,8|2,0:0|0:0,0:0:0:0:
89,247,38915,1,8,0:0:0:0:
89,247,39061,1,2,0:0:0:0:
30,177,39208,2,0,L|24:130,3,35,8|0|2|0,0:0|0:0|0:0|0:0,0:0:0:0:
24,96,39500,2,0,P|58:43|109:39,1,105,8|0,0:0|0:0,0:0:0:0:
136,42,39793,6,0,B|171:60|171:60|326:41,1,188.999994232178,12|12,0:0|0:0,0:0:0:0:
482,21,40525,1,2,0:0:0:0:
482,21,40671,2,0,P|439:90|478:201,1,188.999994232178,12|12,0:0|0:0,0:0:0:0:
492,350,41403,1,2,0:0:0:0:
492,350,41549,2,0,L|421:341,1,62.9999980773926,12|2,0:0|0:0,0:0:0:0:
348,354,41842,2,0,L|340:283,1,62.9999980773926,12|2,0:0|0:0,0:0:0:0:
329,210,42134,6,0,P|281:207|211:320,1,188.999994232178,12|12,0:0|0:0,0:0:0:0:
45,315,42866,1,2,0:0:0:0:
45,315,43012,2,0,L|-3:120,1,188.999994232178,12|12,0:0|0:0,0:0:0:0:
152,71,43744,1,2,0:0:0:0:
152,71,43890,2,0,L|222:88,1,62.9999980773926,12|2,0:0|0:0,0:0:0:0:
293,107,44183,2,0,L|310:37,1,62.9999980773926,12|2,0:0|0:0,0:0:0:0:
390,40,44476,6,0,L|453:32,2,62.9999980773926,12|2|0,0:0|0:0|0:0,0:0:0:0:
409,119,44915,2,0,L|472:111,2,62.9999980773926,12|2|0,0:0|0:0|0:0,0:0:0:0:
429,199,45354,2,0,L|492:191,2,62.9999980773926,12|2|0,0:0|0:0|0:0,0:0:0:0:
347,208,45793,1,12,0:0:0:0:
347,208,45939,2,0,P|314:244|311:281,1,62.9999980773926,0|2,0:0|0:0,0:0:0:0:
309,338,46232,2,0,L|237:329,1,62.9999980773926,12|2,0:0|0:0,0:0:0:0:
186,274,46525,2,0,L|114:282,1,62.9999980773926,12|2,0:0|0:0,0:0:0:0:
42,292,46817,6,0,P|54:239|68:223,1,62.9999980773926,12|2,0:0|0:0,0:0:0:0:
121,179,47110,1,0,0:0:0:0:
121,179,47256,2,0,L|105:116,2,62.9999980773926,12|0|2,0:0|0:0|0:0,0:0:0:0:
203,182,47695,2,0,L|187:120,1,62.9999980773926,12|2,0:0|0:0,0:0:0:0:
169,40,47988,1,0,0:0:0:0:
87,37,48134,2,0,P|42:21|20:-1,2,62.9999980773926,12|0|2,0:0|0:0|0:0,0:0:0:0:
169,40,48573,2,0,P|215:31|246:39,1,62.9999980773926,12|0,0:0|0:0,0:0:0:0:
303,72,48866,1,12,0:0:0:0:
359,13,49012,1,0,0:0:0:0:
359,13,49086,1,0,0:0:0:0:
359,13,49159,6,0,P|376:32|387:79,1,70,8|2,0:0|0:0,0:0:0:0:
475,97,49451,2,0,P|467:121|431:154,1,70,8|2,0:0|0:0,0:0:0:0:
349,181,49744,1,8,0:0:0:0:
359,271,49890,2,0,L|371:367,2,70,2|8|2,0:0|0:0|0:0,0:0:0:0:
349,181,50329,6,0,P|299:198|276:228,1,70,8|2,0:0|0:0,0:0:0:0:
248,292,50622,2,0,L|176:282,1,70,8|2,0:0|0:0,0:0:0:0:
87,270,50915,2,0,P|54:243|47:206,1,70,8|2,0:0|0:0,0:0:0:0:
32,127,51208,1,8,0:0:0:0:
32,127,51354,2,0,L|23:47,2,70,2|8|2,0:0|0:0|0:0,0:0:0:0:
116,162,51793,2,0,L|125:82,1,70,8|2,0:0|0:0,0:0:0:0:
134,1,52086,6,0,P|178:16|194:34,1,70,8|2,0:0|0:0,0:0:0:0:
277,0,52378,2,0,P|286:45|278:68,1,70,8|2,0:0|0:0,0:0:0:0:
227,142,52671,1,8,0:0:0:0:
227,142,52817,1,2,0:0:0:0:
309,181,52964,2,0,L|396:170,1,70,8|2,0:0|0:0,0:0:0:0:
457,218,53256,1,8,0:0:0:0:
481,129,53403,2,0,L|459:43,2,70,2|8|2,0:0|0:0|0:0,0:0:0:0:
457,218,53842,6,0,L|435:303,2,70,12|2|0,0:0|0:0|0:0,0:0:0:0:
366,229,54281,2,0,L|344:314,2,70,14|0|2,0:0|0:0|0:0,0:0:0:0:
276,240,54720,2,0,P|231:253|212:283,1,70,12|2,0:0|0:0,0:0:0:0:
175,350,55012,2,0,P|130:337|111:307,1,70,8|2,0:0|0:0,0:0:0:0:
39,270,55305,2,0,L|47:198,1,70,8|2,0:0|0:0,0:0:0:0:
105,129,55598,2,0,L|113:57,1,70,8|2,0:0|0:0,0:0:0:0:
23,47,55890,2,0,L|14:116,1,70,8|2,0:0|0:0,0:0:0:0:
105,129,56183,6,0,L|151:117,7,35,8|0|2|0|8|0|2|0,0:0|0:0|0:0|0:0|0:0|0:0|0:0|0:0,0:0:0:0:
179,141,56769,2,0,L|225:152,3,35,8|0|2|0,0:0|0:0|0:0|0:0,0:0:0:0:
250,124,57061,2,0,P|278:90|318:90,1,70,8|2,0:0|0:0,0:0:0:0:
392,100,57354,1,12,0:0:0:0:
469,53,57500,2,0,L|496:161,1,105,12|12,0:0|0:0,0:0:0:0:
456,286,57939,2,0,B|424:278|424:278|384:276|384:276|345:266,2,105,12|12|12,0:0|0:0|0:0,0:0:0:0:
503,364,58525,1,14,0:0:0:0:
144,48,63208,6,0,L|126:117,1,70,8|0,0:0|0:0,0:0:0:0:
155,151,63500,1,0,0:0:0:0:
243,125,63793,1,0,0:0:0:0:
330,104,64086,1,0,0:0:0:0:
411,57,64378,6,0,L|428:126,1,70,0|2,0:0|0:0,0:0:0:0:
439,169,64671,1,0,0:0:0:0:
419,258,64964,1,0,0:0:0:0:
398,346,65256,6,0,P|351:334|318:338,1,70,0|8,0:0|0:0,0:0:0:0:
299,369,65549,1,12,0:0:0:0:
29,335,65988,1,8,0:0:0:0:
29,335,66134,1,12,0:0:0:0:
63,65,66573,1,8,0:0:0:0:
63,65,66720,2,0,L|80:134,1,70,12|0,0:0|0:0,0:0:0:0:
170,143,67012,2,0,L|153:75,1,70,12|0,0:0|0:0,0:0:0:0:
242,56,67305,2,0,L|251:17,7,35,8|0|2|0|8|0|2|0,0:0|0:0|0:0|0:0|0:0|0:0|0:0|0:0,0:0:0:0:
290,0,67890,1,12,0:0:0:0:
480,352,70232,5,8,0:0:0:0:
480,352,70378,1,2,0:0:0:0:
396,295,70525,2,0,L|312:305,1,77.0000023498536,12|2,0:0|0:0,0:0:0:0:
220,317,70817,1,8,0:0:0:0:
139,256,70964,2,0,L|99:251,2,38.5000011749268,2|0|12,0:0|0:0|0:0,0:0:0:0:
220,317,71256,1,2,0:0:0:0:
250,221,71403,6,0,P|284:181|330:172,1,77.0000023498536,8|2,0:0|0:0,0:0:0:0:
355,164,71622,1,2,0:0:0:0:
355,164,71695,2,0,L|434:154,1,77.0000023498536,12|2,0:0|0:0,0:0:0:0:
506,87,71988,2,0,P|497:31|461:5,1,77.0000023498536,8|2,0:0|0:0,0:0:0:0:
397,67,72281,2,0,L|317:57,1,77.0000023498536,12|2,0:0|0:0,0:0:0:0:
232,11,72573,6,0,P|225:86|240:111,1,77.0000023498536,8|2,0:0|0:0,0:0:0:0:
155,157,72866,2,0,L|67:167,1,77.0000023498536,12|2,0:0|0:0,0:0:0:0:
8,238,73159,2,0,L|-1:276,2,38.5000011749268,8|0|2,0:0|0:0|0:0,0:0:0:0:
74,312,73451,2,0,L|83:350,2,38.5000011749268,12|0|2,0:0|0:0|0:0,0:0:0:0:
166,350,73744,6,0,L|187:264,1,77.0000023498536,8|0,0:0|0:0,0:0:0:0:
199,226,73964,1,2,0:0:0:0:
199,226,74037,2,0,P|246:226|280:256,1,77.0000023498536,12|2,0:0|0:0,0:0:0:0:
331,320,74329,2,0,P|378:320|412:290,1,77.0000023498536,8|2,0:0|0:0,0:0:0:0:
498,273,74622,2,0,P|481:219|454:192,1,77.0000023498536,12|2,0:0|0:0,0:0:0:0:
371,178,74915,6,0,L|351:100,1,77.0000023498536,8|2,0:0|0:0,0:0:0:0:
384,65,75134,1,2,0:0:0:0:
384,65,75208,2,0,L|290:41,1,77.0000023498536,12|2,0:0|0:0,0:0:0:0:
220,0,75500,2,0,P|174:13|152:44,1,77.0000023498536,8|0,0:0|0:0,0:0:0:0:
122,129,75793,2,0,L|135:184,2,38.5000011749268,12|0|2,0:0|0:0|0:0,0:0:0:0:
70,43,76086,6,0,P|36:79|27:118,1,77.0000023498536,8|2,0:0|0:0,0:0:0:0:
38,203,76378,2,0,L|47:282,1,77.0000023498536,12|2,0:0|0:0,0:0:0:0:
136,325,76671,2,0,P|123:353|107:368,2,38.5000011749268,8|0|2,0:0|0:0|0:0,0:0:0:0:
232,298,76964,2,0,P|214:272|209:251,2,38.5000011749268,12|0|2,0:0|0:0|0:0,0:0:0:0:
306,364,77256,6,0,P|322:320|353:300,1,77.0000023498536,8|0,0:0|0:0,0:0:0:0:
445,300,77549,2,0,L|433:204,1,77.0000023498536,12|0,0:0|0:0,0:0:0:0:
480,200,77769,1,0,0:0:0:0:
480,200,77842,2,0,B|487:142|487:142|492:138|492:138|500:73,1,115.50000352478,8|0,0:0|0:0,0:0:0:0:
506,38,78134,1,12,0:0:0:0:
406,22,78281,1,0,0:0:0:0:
406,22,78354,1,0,0:0:0:0:
406,22,78427,2,0,L|416:109,1,77.0000023498536,12|8,0:0|0:0,0:0:0:0:
179,284,79012,6,0,L|189:196,1,77.0000023498536,8|12,0:0|0:0,0:0:0:0:
203,108,79305,2,0,L|250:102,3,38.5000011749268,8|0|0|0,0:0|0:0|0:0|0:0,0:0:0:0:
283,132,79598,6,0,P|335:105|336:68,1,77.0000023498536,8|2,0:0|0:0,0:0:0:0:
270,19,79890,2,0,L|190:28,1,77.0000023498536,12|2,0:0|0:0,0:0:0:0:
93,36,80183,1,8,0:0:0:0:
8,89,80329,2,0,L|-1:126,2,38.5000011749268,2|0|12,0:0|0:0|0:0,0:0:0:0:
93,36,80622,1,2,0:0:0:0:
118,133,80769,6,0,L|137:210,1,77.0000023498536,8|2,0:0|0:0,0:0:0:0:
153,254,80988,1,2,0:0:0:0:
153,254,81061,2,0,P|102:234|63:253,1,77.0000023498536,12|2,0:0|0:0,0:0:0:0:
0,297,81354,2,0,P|12:336|57:355,1,77.0000023498536,8|2,0:0|0:0,0:0:0:0:
139,380,81647,2,0,L|224:358,1,77.0000023498536,12|2,0:0|0:0,0:0:0:0:
253,268,81939,6,0,L|327:287,1,77.0000023498536,8|2,0:0|0:0,0:0:0:0:
401,355,82232,2,0,P|426:294|424:260,1,77.0000023498536,12|2,0:0|0:0,0:0:0:0:
401,186,82525,2,0,L|406:138,2,38.5000011749268,8|0|2,0:0|0:0|0:0,0:0:0:0:
499,203,82817,2,0,L|503:241,2,38.5000011749268,12|0|2,0:0|0:0|0:0,0:0:0:0:
485,103,83110,2,0,P|451:64|404:54,1,77.0000023498536,8|0,0:0|0:0,0:0:0:0:
381,71,83329,1,2,0:0:0:0:
381,71,83403,2,0,L|285:59,1,77.0000023498536,12|2,0:0|0:0,0:0:0:0:
217,12,83696,2,0,L|207:91,1,77.0000023498536,8|2,0:0|0:0,0:0:0:0:
139,161,83988,2,0,L|43:173,1,77.0000023498536,12|2,0:0|0:0,0:0:0:0:
3,240,84281,6,0,P|45:263|61:301,1,70,8|2,0:0|0:0,0:0:0:0:
72,323,84500,1,0,0:0:0:0:
72,323,84573,2,0,L|159:333,1,70,12|2,0:0|0:0,0:0:0:0:
217,382,84866,2,0,B|235:360|235:360|251:233,1,140,8|12,0:0|0:0,0:0:0:0:
139,104,85451,2,0,L|156:246,1,140,8|12,0:0|0:0,0:0:0:0:
334,281,86037,2,0,L|328:225,2,35,8|0|2,0:0|0:0|0:0,0:0:0:0:
412,328,86329,2,0,L|418:383,2,35,12|0|2,0:0|0:0|0:0,0:0:0:0:
455,247,86622,6,0,P|476:224|493:218,7,35,8|0|2|0|12|0|2|0,0:0|0:0|0:0|0:0|0:0|0:0|0:0|0:0,0:0:0:0:
478,176,87208,2,0,P|508:170|522:158,7,35,8|0|2|0|12|0|2|0,0:0|0:0|0:0|0:0|0:0|0:0|0:0|0:0,0:0:0:0:
511,122,87793,1,12,0:0:0:0:
478,37,87939,2,0,L|373:63,1,105,12|12,0:0|0:0,0:0:0:0:
244,101,88378,2,0,B|257:53|257:53|253:46|253:46|268:-10,2,105,12|12|12,0:0|0:0|0:0,0:0:0:0:
146,80,88964,6,0,L|156:158,1,77.0000023498536,8|2,0:0|0:0,0:0:0:0:
166,256,89256,2,0,P|133:232|93:231,1,77.0000023498536,12|2,0:0|0:0,0:0:0:0:
8,276,89549,2,0,L|-5:221,2,38.5000011749268,8|0|2,0:0|0:0|0:0,0:0:0:0:
78,347,89842,2,0,L|64:401,2,38.5000011749268,12|0|2,0:0|0:0|0:0,0:0:0:0:
177,337,90134,6,0,L|256:327,1,77.0000023498536,8|2,0:0|0:0,0:0:0:0:
341,375,90427,2,0,L|417:384,1,77.0000023498536,12|2,0:0|0:0,0:0:0:0:
502,330,90720,2,0,P|482:300|458:281,3,38.5000011749268,8|0|2|0,0:0|0:0|0:0|0:0,0:0:0:0:
461,252,91012,2,0,P|425:254|396:265,3,38.5000011749268,12|0|2|0,0:0|0:0|0:0|0:0,0:0:0:0:
373,266,91305,6,0,L|383:178,1,77.0000023498536,8|2,0:0|0:0,0:0:0:0:
394,89,91598,1,12,0:0:0:0:
394,89,91671,1,0,0:0:0:0:
394,89,91744,1,2,0:0:0:0:
303,46,91890,2,0,L|307:85,3,38.5000011749268,8|2|2|2,0:0|0:0|0:0|0:0,0:0:0:0:
313,134,92183,2,0,P|290:140|265:164,3,38.5000011749268,12|2|2|0,0:0|0:0|0:0|0:0,0:0:0:0:
229,162,92476,6,0,L|133:150,1,77.0000023498536,8|2,0:0|0:0,0:0:0:0:
53,134,92769,2,0,P|12:162|-6:202,1,77.0000023498536,12|2,0:0|0:0,0:0:0:0:
77,246,93061,2,0,L|124:240,2,38.5000011749268,8|0|2,0:0|0:0|0:0,0:0:0:0:
0,309,93354,2,0,P|29:348|61:352,1,77.0000023498536,12|2,0:0|0:0,0:0:0:0:
154,366,93647,6,0,L|241:376,1,77.0000023498536,8|2,0:0|0:0,0:0:0:0:
261,335,93866,1,2,0:0:0:0:
261,335,93939,2,0,P|293:305|340:312,1,77.0000023498536,12|2,0:0|0:0,0:0:0:0:
416,347,94232,2,0,L|437:261,1,77.0000023498536,8|2,0:0|0:0,0:0:0:0:
501,197,94525,2,0,L|479:111,1,77.0000023498536,12|2,0:0|0:0,0:0:0:0:
510,26,94817,6,0,P|461:19|422:36,1,77.0000023498536,8|2,0:0|0:0,0:0:0:0:
378,109,95110,2,0,P|329:116|290:99,1,77.0000023498536,12|2,0:0|0:0,0:0:0:0:
271,12,95403,2,0,L|223:6,3,38.5000011749268,8|0|2|0,0:0|0:0|0:0|0:0,0:0:0:0:
196,41,95695,2,0,L|148:46,3,38.5000011749268,12|0|2|0,0:0|0:0|0:0|0:0,0:0:0:0:
107,51,95988,6,0,P|61:77|43:110,1,77.0000023498536,8|2,0:0|0:0,0:0:0:0:
12,190,96281,2,0,L|99:179,1,77.0000023498536,12|2,0:0|0:0,0:0:0:0:
187,172,96573,2,0,P|171:143|156:131,2,38.5000011749268,8|2|2,0:0|0:0|0:0,0:0:0:0:
134,257,96866,2,0,P|118:286|103:298,2,38.5000011749268,12|2|2,0:0|0:0|0:0,0:0:0:0:
213,319,97159,1,12,0:0:0:0:
213,319,97305,2,0,B|284:327|284:327|330:349|330:349|417:360,1,192.500005874634,4|0,0:0|0:0,0:0:0:0:
447,376,97744,6,0,L|437:296,1,77.0000023498536,8|12,0:0|0:0,0:0:0:0:
511,231,98037,2,0,L|497:176,3,38.5000011749268,8|0|0|0,0:0|0:0|0:0|0:0,0:0:0:0:
491,144,98329,6,0,P|470:108|422:96,1,77.0000023498536,8|2,0:0|0:0,0:0:0:0:
403,0,98622,2,0,P|361:0|326:35,1,77.0000023498536,12|2,0:0|0:0,0:0:0:0:
312,119,98915,2,0,L|300:165,2,38.5000011749268,8|0|2,0:0|0:0|0:0,0:0:0:0:
236,52,99208,2,0,L|224:5,2,38.5000011749268,12|0|2,0:0|0:0|0:0,0:0:0:0:
146,95,99500,6,0,L|66:85,1,77.0000023498536,8|0,0:0|0:0,0:0:0:0:
19,80,99720,1,2,0:0:0:0:
19,80,99793,2,0,P|41:111|48:158,1,77.0000023498536,12|2,0:0|0:0,0:0:0:0:
33,248,100086,2,0,L|120:237,1,77.0000023498536,8|2,0:0|0:0,0:0:0:0:
182,307,100378,2,0,P|198:272|228:248,1,77.0000023498536,12|2,0:0|0:0,0:0:0:0:
327,243,100671,6,0,L|337:330,1,77.0000023498536,8|2,0:0|0:0,0:0:0:0:
426,363,100964,2,0,L|436:275,1,77.0000023498536,12|2,0:0|0:0,0:0:0:0:
444,187,101256,2,0,L|498:172,2,38.5000011749268,8|0|2,0:0|0:0|0:0,0:0:0:0:
358,134,101549,1,12,0:0:0:0:
358,134,101622,1,0,0:0:0:0:
358,134,101695,1,2,0:0:0:0:
272,81,101842,6,0,L|216:74,3,38.5000011749268,8|0|2|0,0:0|0:0|0:0|0:0,0:0:0:0:
198,40,102134,2,0,L|142:33,3,38.5000011749268,12|0|2|0,0:0|0:0|0:0|0:0,0:0:0:0:
110,25,102427,2,0,P|88:40|75:67,3,38.5000011749268,8|0|2|0,0:0|0:0|0:0|0:0,0:0:0:0:
50,89,102720,2,0,L|59:168,1,77.0000023498536,12|2,0:0|0:0,0:0:0:0:
131,221,103012,6,0,B|186:214|186:214|211:219|211:219|298:208,1,140,8|12,0:0|0:0,0:0:0:0:
298,29,103598,2,0,B|353:35|353:35|378:30|378:30|465:41,1,140,8|12,0:0|0:0,0:0:0:0:
510,204,104183,2,0,P|448:232|423:321,1,140,8|12,0:0|0:0,0:0:0:0:
256,375,104769,2,0,L|247:305,1,70,8|2,0:0|0:0,0:0:0:0:
180,245,105061,2,0,L|188:175,1,70,12|2,0:0|0:0,0:0:0:0:
199,84,105354,6,0,L|204:36,3,35,8|0|2|0,0:0|0:0|0:0|0:0,0:0:0:0:
208,3,105647,2,0,P|251:3|282:10,1,70,12|2,0:0|0:0,0:0:0:0:
306,95,105939,2,0,L|310:129,3,35,8|0|2|0,0:0|0:0|0:0|0:0,0:0:0:0:
317,175,106232,2,0,P|348:196|401:202,1,70,12|2,0:0|0:0,0:0:0:0:
454,150,106525,2,0,B|448:133|448:133|460:29|460:29|448:-3,2,140,8|8|8,0:0|0:0|0:0,0:0:0:0:
512,330,107403,2,0,L|416:318,1,70,8|2,0:0|0:0,0:0:0:0:
357,374,107695,6,0,P|336:328|300:304,1,77.0000023498536,8|2,0:0|0:0,0:0:0:0:
222,274,107988,2,0,L|118:286,1,77.0000023498536,8|2,0:0|0:0,0:0:0:0:
46,302,108281,2,0,B|53:244|53:244|58:240|58:240|66:175,1,115.50000352478,8|0,0:0|0:0,0:0:0:0:
17,172,108573,2,0,B|10:114|10:114|5:110|5:110|-3:45,1,115.50000352478,8|0,0:0|0:0,0:0:0:0:
27,18,108866,6,0,L|73:29,3,38.5000011749268,8|2|2|0,0:0|0:0|0:0|0:0,0:0:0:0:
100,62,109159,2,0,P|171:72|217:19,1,115.50000352478,8|0,0:0|0:0,0:0:0:0:
229,5,109451,2,0,L|258:121,1,115.50000352478,8|0,0:0|0:0,0:0:0:0:
273,165,109744,2,0,P|338:136|397:176,1,115.50000352478,8|0,0:0|0:0,0:0:0:0:
415,183,110037,1,12,0:0:0:0:
415,183,110183,1,12,0:0:0:0:
