osu file format v14

[General]
AudioFilename: Boys & Girls (TV Size).mp3
AudioLeadIn: 0
PreviewTime: 22847
Countdown: 0
SampleSet: Soft
StackLeniency: 0.7
Mode: 0
LetterboxInBreaks: 0
WidescreenStoryboard: 1

[Editor]
DistanceSpacing: 1
BeatDivisor: 4
GridSize: 8
TimelineZoom: 3.699999

[Metadata]
Title:Boys & Girls (TV Size)
TitleUnicode:Boys & Girls (TV Size)
Artist:L.M.C
ArtistUnicode:L.M.C
Creator:[Konoshintaro]-
Version:T&K Insane
Source:Katekyo Hitman Reborn
Tags:Khr tsuna vongola and kateikyoushi kateikyoshi nohitter tutor lepidopodus
BeatmapID:1516392
BeatmapSetID:715031

[Difficulty]
HPDrainRate:7
CircleSize:4
OverallDifficulty:8
ApproachRate:9
SliderMultiplier:1.4
SliderTickRate:1

[Events]
//Background and Video events
0,0,"580049b3890a249025a745b2346ff875.jpg",0,0
//Break Periods
//Storyboard Layer 0 (Background)
//Storyboard Layer 1 (Fail)
//Storyboard Layer 2 (Pass)
//Storyboard Layer 3 (Foreground)
//Storyboard Sound Samples

[TimingPoints]
3092,319.148936170213,4,2,0,100,1,0
6921,-100,4,2,0,50,0,0
22879,-83.3333333333333,4,2,0,50,0,0
23198,-142.857142857143,4,2,0,50,0,0
23517,-100,4,2,0,50,0,0
54155,-100,4,2,0,70,0,1
74421,-100,4,2,0,50,0,0
83677,-100,4,2,0,0,0,0

[Colours]
Combo1 : 128,128,255
Combo2 : 255,170,85
Combo3 : 255,102,102
Combo4 : 40,148,255
Combo5 : 255,255,0
Combo6 : 128,0,255

[HitObjects]
256,192,3092,6,0,P|256:120|264:112,1,70
432,320,3411,1,0,0:0:0:0:
336,272,3570,1,0,0:0:0:0:
392,200,3730,1,0,0:0:0:0:
336,112,3889,2,0,P|272:64|264:64,2,70
96,160,4368,1,0,0:0:0:0:
192,112,4528,1,0,0:0:0:0:
248,192,4687,1,0,0:0:0:0:
184,272,4847,1,0,0:0:0:0:
120,192,5006,1,0,0:0:0:0:
192,112,5166,2,0,P|264:56|272:56,2,70
232,240,5645,5,0,0:0:0:0:
328,64,5804,1,0,0:0:0:0:
352,152,5964,1,0,0:0:0:0:
416,216,6123,1,0,0:0:0:0:
336,264,6283,2,0,P|232:272|144:200,1,210
256,192,7081,12,0,8198,0:0:0:0:
184,72,8517,5,8,0:0:0:0:
288,64,8677,1,0,0:0:0:0:
256,168,8836,1,0,0:0:0:0:
184,72,8996,1,0,0:0:0:0:
288,64,9155,1,8,0:0:0:0:
360,136,9315,6,0,P|392:200|384:232,2,70
288,64,9794,1,0,0:0:0:0:
232,144,9953,1,0,0:0:0:0:
232,144,10033,1,0,0:0:0:0:
232,144,10113,1,0,0:0:0:0:
320,200,10272,1,0,0:0:0:0:
240,256,10432,2,0,P|184:256|168:240,1,70,4|0,0:0|0:0,0:0:0:0:
256,80,10751,5,0,0:0:0:0:
184,152,10911,1,0,0:0:0:0:
232,240,11070,2,0,P|280:288|312:288,2,70,8|0|0,0:0|0:0|0:0,0:0:0:0:
128,288,11549,1,0,0:0:0:0:
80,200,11709,1,8,0:0:0:0:
128,288,11868,1,0,0:0:0:0:
80,200,12028,5,0,0:0:0:0:
144,104,12187,5,0,0:0:0:0:
144,104,12347,1,8,0:0:0:0:
256,184,12506,5,0,0:0:0:0:
256,184,12666,1,0,0:0:0:0:
344,104,12826,5,0,0:0:0:0:
400,200,12985,2,0,P|384:248|368:256,1,70,4|0,0:0|0:0,0:0:0:0:
160,80,13304,5,0,0:0:0:0:
96,144,13464,1,0,0:0:0:0:
168,192,13623,1,8,0:0:0:0:
160,80,13783,1,0,0:0:0:0:
264,56,13943,2,0,P|320:64|328:80,1,70
392,152,14262,1,8,0:0:0:0:
304,208,14421,1,0,0:0:0:0:
216,160,14581,1,0,0:0:0:0:
128,200,14740,1,0,0:0:0:0:
216,160,14900,5,8,0:0:0:0:
304,208,15060,1,0,0:0:0:0:
304,208,15139,1,0,0:0:0:0:
304,208,15219,1,0,0:0:0:0:
264,88,15379,2,0,B|240:104|232:120|200:112,1,70,0|4,0:0|0:0,0:0:0:0:
64,160,15857,5,0,0:0:0:0:
112,248,16017,1,0,0:0:0:0:
208,280,16177,1,8,0:0:0:0:
312,240,16336,2,0,P|368:208|376:192,2,70
256,144,16815,1,8,0:0:0:0:
312,232,16974,1,0,0:0:0:0:
144,272,17134,5,0,0:0:0:0:
64,184,17294,1,4,0:0:0:0:
304,48,17613,1,4,0:0:0:0:
448,200,17932,1,4,0:0:0:0:
80,200,18251,1,4,0:0:0:0:
208,96,18411,6,0,P|232:64|264:56,2,70,0|0|8,0:0|0:0|0:0,0:0:0:0:
224,192,18889,1,0,0:0:0:0:
304,248,19049,1,0,0:0:0:0:
304,136,19209,1,0,0:0:0:0:
224,192,19368,1,8,0:0:0:0:
424,200,19528,2,0,P|416:264|408:280,2,70
376,104,20006,1,8,0:0:0:0:
248,88,20166,5,0,0:0:0:0:
248,88,20246,1,0,0:0:0:0:
248,88,20326,1,0,0:0:0:0:
144,136,20485,1,0,0:0:0:0:
96,232,20645,2,0,B|136:256|144:280|160:272,1,70,8|0,0:0|0:0,0:0:0:0:
256,192,20964,5,0,0:0:0:0:
248,72,21123,1,0,0:0:0:0:
256,192,21283,1,8,0:0:0:0:
160,112,21443,1,0,0:0:0:0:
256,192,21602,1,0,0:0:0:0:
336,112,21762,1,0,0:0:0:0:
256,192,21921,1,8,0:0:0:0:
160,248,22081,2,0,P|112:264|96:280,2,70
256,320,22560,1,8,0:0:0:0:
272,240,22719,2,0,P|268:208|216:184,1,70
224,176,22879,5,0,0:0:0:0:
208,168,22959,1,0,0:0:0:0:
192,160,23038,1,0,0:0:0:0:
184,152,23118,2,0,B|128:136|144:80|200:72|232:104|232:104|304:104,1,209.999993591309
360,64,23836,6,0,P|416:72|448:96,1,70
264,176,24155,1,0,0:0:0:0:
168,72,24315,2,0,P|128:96|104:120,1,70
264,176,24634,2,0,P|328:128|336:120,1,70
432,104,24953,2,0,L|448:176,1,70
368,272,25272,5,0,0:0:0:0:
264,200,25432,1,0,0:0:0:0:
368,120,25592,1,0,0:0:0:0:
368,272,25751,1,0,0:0:0:0:
264,200,25911,1,0,0:0:0:0:
136,144,26070,6,0,L|88:80,1,70
64,272,26389,2,0,L|136:248,1,70
256,184,26709,2,0,L|256:96,1,70
368,80,27028,2,0,L|448:64,1,70
440,184,27347,2,0,L|368:248,1,70
256,192,27666,6,0,L|200:136,1,70
80,184,27985,2,0,L|96:256,2,70
152,96,28464,1,0,0:0:0:0:
312,56,28623,5,0,0:0:0:0:
392,136,28783,2,0,L|416:208,1,70,0|8,0:0|0:0,0:0:0:0:
296,216,29102,2,0,L|224:216,1,70
232,120,29421,2,0,L|288:64,1,70,0|8,0:0|0:0,0:0:0:0:
120,128,29740,1,0,0:0:0:0:
64,216,29900,5,0,0:0:0:0:
144,280,30060,1,0,0:0:0:0:
280,280,30219,2,0,L|352:240,1,70,8|0,0:0|0:0,0:0:0:0:
320,160,30538,2,0,L|240:128,1,70
368,48,30857,2,0,L|448:48,1,70,8|0,0:0|0:0,0:0:0:0:
464,168,31177,5,0,0:0:0:0:
376,240,31336,1,0,0:0:0:0:
280,184,31496,1,8,0:0:0:0:
208,104,31655,2,0,L|136:64,1,70
120,176,31974,2,0,L|48:216,1,70,0|8,0:0|0:0,0:0:0:0:
144,48,32294,6,0,L|200:112,1,70
248,200,32613,2,0,L|192:248,1,70,0|8,0:0|0:0,0:0:0:0:
64,200,32932,2,0,L|128:128,1,70
192,72,33251,1,0,0:0:0:0:
288,104,33411,1,0,0:0:0:0:
360,176,33570,1,0,0:0:0:0:
440,288,33730,6,0,L|368:288,1,70,4|0,0:0|0:0,0:0:0:0:
304,224,34049,1,0,0:0:0:0:
192,192,34209,1,0,0:0:0:0:
272,104,34368,2,0,L|352:72,1,70
176,56,34687,1,0,0:0:0:0:
96,128,34847,6,0,L|56:200,1,70
128,256,35166,1,0,0:0:0:0:
224,288,35326,1,0,0:0:0:0:
312,240,35485,1,0,0:0:0:0:
248,176,35645,2,0,L|184:136,1,70
328,96,35964,2,0,L|416:64,1,70
188,138,36283,6,0,L|260:194,1,70
352,192,36602,1,0,0:0:0:0:
400,288,36762,1,0,0:0:0:0:
464,144,36921,2,0,L|448:72,1,70
312,56,37240,2,0,L|232:80,1,70
160,152,37560,5,0,0:0:0:0:
264,192,37719,1,0,0:0:0:0:
344,248,37879,2,0,P|400:288|408:304,1,70
184,304,38198,5,0,0:0:0:0:
88,136,38357,1,0,0:0:0:0:
184,256,38517,1,0,0:0:0:0:
240,112,38677,1,0,0:0:0:0:
320,72,38836,6,0,P|384:48|408:56,1,70,8|0,0:0|0:0,0:0:0:0:
384,168,39155,2,0,P|328:192|312:216,1,70
208,272,39474,1,0,0:0:0:0:
128,208,39634,1,0,0:0:0:0:
64,296,39794,1,8,0:0:0:0:
208,272,39953,1,0,0:0:0:0:
128,208,40113,5,0,0:0:0:0:
64,296,40272,1,0,0:0:0:0:
48,112,40432,2,0,P|88:88|128:80,1,70,8|0,0:0|0:0,0:0:0:0:
208,128,40751,1,0,0:0:0:0:
304,184,40911,1,0,0:0:0:0:
352,96,41070,2,0,P|400:72|440:64,1,70,8|0,0:0|0:0,0:0:0:0:
464,168,41389,5,0,0:0:0:0:
432,256,41549,2,0,P|392:288|368:296,1,70,0|8,0:0|0:0,0:0:0:0:
280,248,41868,2,0,P|272:208|240:200,1,70
128,184,42187,2,0,P|112:136|120:112,1,70,0|8,0:0|0:0,0:0:0:0:
200,72,42506,2,0,P|256:56|288:56,1,70,0|4,0:0|0:0,0:0:0:0:
368,88,42826,5,4,0:0:0:0:
432,264,42985,1,4,0:0:0:0:
256,96,43145,1,4,0:0:0:0:
200,240,43304,1,4,0:0:0:0:
312,224,43464,1,4,2:2:0:0:
328,233,43543,1,0,2:2:0:0:
347,239,43623,1,0,2:2:0:0:
366,240,43703,1,0,2:2:0:0:
385,237,43783,1,0,2:2:0:0:
403,230,43862,1,0,2:2:0:0:
416,216,43943,6,0,P|432:184|424:152,1,70,0|0,2:0|0:0,0:0:0:0:
360,72,44421,1,0,0:0:0:0:
272,144,44581,1,0,0:0:0:0:
248,40,44740,1,0,0:0:0:0:
360,72,44900,1,0,0:0:0:0:
272,144,45060,5,0,0:0:0:0:
248,40,45219,1,0,0:0:0:0:
152,96,45379,2,0,P|120:120|88:144,1,70
96,138,45698,2,0,L|144:192,1,70
142,190,46017,2,0,L|80:240,1,70
256,288,46336,5,0,0:0:0:0:
312,200,46496,1,0,0:0:0:0:
408,232,46655,1,0,0:0:0:0:
488,168,46815,2,0,P|504:112|504:96,1,70
400,64,47134,1,0,0:0:0:0:
248,80,47294,5,0,0:0:0:0:
312,0,47453,1,0,0:0:0:0:
400,64,47613,1,0,0:0:0:0:
296,56,47772,2,0,P|248:88|232:112,1,70
144,104,48092,1,0,0:0:0:0:
72,200,48251,2,0,P|48:240|48:272,2,70
144,312,48730,5,4,0:0:0:0:
408,192,49049,1,0,0:0:0:0:
344,96,49209,2,0,P|320:64|280:48,1,70
264,184,49528,1,0,0:0:0:0:
208,104,49687,1,0,0:0:0:0:
293,50,49847,1,0,0:0:0:0:
352,136,50006,1,0,0:0:0:0:
360,256,50166,6,0,P|344:304|312:304,1,70
200,272,50485,1,0,0:0:0:0:
128,200,50645,2,0,P|144:152|128:128,1,70
192,48,50964,1,0,0:0:0:0:
288,96,51123,1,0,0:0:0:0:
192,48,51283,1,0,0:0:0:0:
288,96,51443,1,0,0:0:0:0:
408,160,51602,6,0,P|408:208|392:248,1,70
320,288,51921,1,0,0:0:0:0:
256,200,52081,2,0,P|232:160|192:152,1,70
128,200,52400,1,0,0:0:0:0:
264,184,52560,5,0,0:0:0:0:
248,152,52639,5,0,0:0:0:0:
288,168,52719,5,0,0:0:0:0:
240,176,52799,5,0,0:0:0:0:
272,152,52879,5,4,0:0:0:0:
72,72,53198,5,0,0:0:0:0:
320,0,53517,1,0,0:0:0:0:
472,192,53836,1,0,0:0:0:0:
152,296,54155,2,0,P|112:280|96:256,1,70,4|0,0:0|0:0,0:0:0:0:
184,176,54474,1,8,0:0:0:0:
104,104,54634,1,0,0:0:0:0:
184,176,54794,1,0,0:0:0:0:
264,96,54953,2,0,P|288:64|320:48,1,70,0|8,0:0|0:0,0:0:0:0:
408,120,55272,1,0,0:0:0:0:
328,200,55432,2,0,P|288:216|272:248,1,70
168,256,55751,1,8,0:0:0:0:
112,176,55911,6,0,L|80:112,1,70
216,72,56230,2,0,L|248:152,1,70,0|8,0:0|0:0,0:0:0:0:
112,176,56549,2,0,L|72:88,1,70
216,72,56868,5,0,0:0:0:0:
216,72,56948,1,0,0:0:0:0:
216,72,57028,1,8,0:0:0:0:
328,80,57187,2,0,L|400:120,1,70
464,192,57506,1,0,0:0:0:0:
392,272,57666,5,8,0:0:0:0:
272,256,57826,2,0,L|200:216,1,70
160,312,58145,2,0,L|224:352,1,70,0|8,0:0|0:0,0:0:0:0:
272,256,58464,2,0,L|200:216,1,70
152,48,58783,5,0,0:0:0:0:
120,152,58943,1,8,0:0:0:0:
232,80,59102,2,0,P|264:56|320:48,1,70
384,88,59421,1,0,0:0:0:0:
320,168,59581,1,8,0:0:0:0:
416,208,59740,2,0,L|464:280,1,70
312,168,60060,6,0,L|368:104,1,70,0|8,0:0|0:0,0:0:0:0:
416,208,60379,2,0,L|472:288,1,70
352,304,60698,1,0,0:0:0:0:
272,232,60857,1,8,0:0:0:0:
184,288,61017,1,0,0:0:0:0:
88,232,61177,6,0,P|80:192|88:152,1,70
144,80,61496,1,8,0:0:0:0:
240,160,61655,1,0,0:0:0:0:
328,88,61815,2,0,P|360:48|400:40,1,70
448,136,62134,1,8,0:0:0:0:
432,232,62294,2,0,P|400:256|360:272,1,70
264,224,62613,1,0,0:0:0:0:
168,288,62772,5,8,0:0:0:0:
80,232,62932,2,0,L|72:176,1,35,0|8,0:0|3:0,0:0:0:0:
120,104,63092,5,8,3:0:0:0:
336,112,63251,1,8,3:0:0:0:
112,264,63411,1,8,3:0:0:0:
336,256,63570,1,8,3:0:0:0:
176,208,63730,5,8,3:0:0:0:
280,64,63889,1,8,3:0:0:0:
272,304,64049,1,8,3:0:0:0:
272,304,64288,5,0,0:0:0:0:
240,304,64368,1,0,2:0:0:0:
208,304,64448,1,0,2:0:0:0:
176,304,64528,1,0,2:0:0:0:
144,304,64607,1,0,2:0:0:0:
120,304,64687,6,0,L|80:224,1,70,8|0,0:0|0:0,0:0:0:0:
128,144,65006,1,0,0:0:0:0:
216,224,65166,1,0,0:0:0:0:
216,88,65326,1,8,0:0:0:0:
304,144,65485,2,0,L|384:192,1,70
192,272,65804,6,0,L|264:224,1,70,0|8,0:0|0:0,0:0:0:0:
192,144,66123,2,0,L|112:168,1,70
64,80,66443,1,0,0:0:0:0:
160,40,66602,1,8,0:0:0:0:
232,112,66762,1,0,0:0:0:0:
296,192,66921,6,0,L|360:240,1,70
96,296,67240,1,8,0:0:0:0:
120,192,67400,1,0,0:0:0:0:
192,128,67560,2,0,P|248:104|272:104,1,70
344,144,67879,1,8,0:0:0:0:
416,240,68038,6,0,L|344:272,1,70
256,200,68357,2,0,L|200:144,1,70,0|8,0:0|0:0,0:0:0:0:
344,64,68677,2,0,L|416:96,1,70
432,224,68996,2,0,L|368:264,1,70,0|8,0:0|0:0,0:0:0:0:
256,192,69315,1,0,0:0:0:0:
184,104,69474,6,0,L|120:64,1,70,4|0,0:0|0:0,0:0:0:0:
64,160,69794,1,8,0:0:0:0:
120,248,69953,1,0,0:0:0:0:
248,184,70113,1,0,0:0:0:0:
312,96,70272,1,0,0:0:0:0:
384,184,70432,1,8,0:0:0:0:
248,184,70592,5,0,0:0:0:0:
64,128,70751,2,0,L|136:144,1,70
248,184,71070,1,8,0:0:0:0:
328,248,71230,1,0,0:0:0:0:
424,200,71389,2,0,L|408:120,2,70,0|0|8,0:0|0:0|0:0,0:0:0:0:
304,64,71868,5,0,0:0:0:0:
216,128,72028,1,0,0:0:0:0:
280,208,72187,2,0,L|360:208,1,70,0|8,0:0|0:0,0:0:0:0:
432,288,72506,1,0,0:0:0:0:
296,320,72666,2,0,L|216:320,1,70
144,256,72985,1,8,0:0:0:0:
64,176,73145,5,0,0:0:0:0:
360,168,73304,1,0,0:0:0:0:
240,80,73464,1,4,0:0:0:0:
240,304,73783,1,4,0:0:0:0:
112,112,74102,1,4,0:0:0:0:
256,40,74421,5,4,0:0:0:0:
432,184,74581,2,0,L|376:240,1,70,0|8,0:0|0:0,0:0:0:0:
288,144,74900,1,0,0:0:0:0:
192,192,75060,1,0,0:0:0:0:
80,160,75219,2,0,L|40:80,1,70
200,152,75538,6,0,L|160:224,1,70,8|0,0:0|0:0,0:0:0:0:
80,160,75857,2,0,L|40:88,1,70
128,24,76177,1,8,0:0:0:0:
216,72,76336,1,0,0:0:0:0:
312,32,76496,2,0,P|352:32|384:48,1,70
456,120,76815,1,8,0:0:0:0:
376,288,77134,5,0,0:0:0:0:
264,272,77294,2,0,L|184:304,1,70,0|8,0:0|0:0,0:0:0:0:
80,192,77613,2,0,L|152:240,1,70
312,192,77932,2,0,L|248:240,1,70,0|8,0:0|0:0,0:0:0:0:
184,144,78251,1,0,0:0:0:0:
104,72,78411,1,0,0:0:0:0:
48,160,78570,5,0,0:0:0:0:
96,248,78730,2,0,L|160:296,1,70,8|0,0:0|0:0,0:0:0:0:
256,256,79049,1,0,0:0:0:0:
328,200,79209,1,0,0:0:0:0:
408,136,79368,2,0,P|432:96|432:64,1,70,8|0,0:0|0:0,0:0:0:0:
224,48,79687,5,0,0:0:0:0:
144,112,79847,1,0,0:0:0:0:
160,208,80006,1,8,0:0:0:0:
200,296,80166,2,0,P|160:328|120:320,1,70
80,256,80485,1,0,0:0:0:0:
176,192,80645,5,8,0:0:0:0:
72,128,80804,1,0,0:0:0:0:
80,256,80964,1,0,0:0:0:0:
176,192,81123,1,0,0:0:0:0:
72,128,81283,1,8,0:0:0:0:
168,72,81443,2,0,P|208:48|240:48,1,70
352,56,81762,5,0,0:0:0:0:
288,128,81921,1,0,0:0:0:0:
464,128,82081,1,0,0:0:0:0:
432,288,82240,1,0,0:0:0:0:
336,232,82400,6,0,L|256:216,1,70,0|8,0:0|0:0,0:0:0:0:
400,136,82719,2,0,L|480:80,1,70
280,72,83038,6,0,L|216:128,1,70,0|8,0:0|0:0,0:0:0:0:
48,120,83357,2,0,L|104:192,2,70
160,72,83836,1,0,0:0:0:0:
264,192,83996,1,0,0:0:0:0:
352,40,84155,1,0,0:0:0:0:
352,40,84315,1,4,0:0:0:0:
256,192,84474,12,0,89262,0:0:0:0:
