osu file format v14

[General]
AudioFilename: Yes! Party Time!!.mp3
AudioLeadIn: 0
PreviewTime: 56743
Countdown: 0
SampleSet: Soft
StackLeniency: 0.7
Mode: 0
LetterboxInBreaks: 0
WidescreenStoryboard: 0

[Editor]
Bookmarks: 5662,8905,12148,18634,21878,25121,28364,31607,37891,44580,51067,54310,57553,67283,73770,80256,86743,93229,102959,109445,115932,119175,122418,123634
DistanceSpacing: 1.4
BeatDivisor: 4
GridSize: 4
TimelineZoom: 3.499999

[Metadata]
Title:Yes! Party Time!!
TitleUnicode:Yes! Party Time!!
Artist:L.M.B.G.
ArtistUnicode:L.M.B.G.
Creator:rui
Version:Party Time
Source:アイドルマスター シンデレラガールズ
Tags:赤城みりあ、龍崎薫、佐々木千枝、櫻井桃華、市原仁奈 リトルマーチングバンドガールズ
BeatmapID:1436643
BeatmapSetID:679404

[Difficulty]
HPDrainRate:6.5
CircleSize:4
OverallDifficulty:8
ApproachRate:9
SliderMultiplier:1.6
SliderTickRate:1

[Events]
//Background and Video events
Video,0,"PV_x264_002.mp4"
0,0,"BG.png",0,0
//Break Periods
//Storyboard Layer 0 (Background)
//Storyboard Layer 1 (Fail)
//Storyboard Layer 2 (Pass)
//Storyboard Layer 3 (Foreground)
//Storyboard Sound Samples

[TimingPoints]
5662,405.405405405405,4,2,1,50,1,0
12148,-100,4,2,1,60,0,0
18634,-125,4,2,1,40,0,0
21067,-66.6666666666667,4,2,1,60,0,0
21878,-83.3333333333333,4,2,2,50,0,0
25121,-125,4,2,1,40,0,0
27553,-66.6666666666667,4,2,1,60,0,0
28364,-83.3333333333333,4,2,2,50,0,0
31607,-83.3333333333333,4,2,1,50,0,0
36472,-83.3333333333333,4,2,1,60,0,0
38094,-100,4,2,2,50,0,0
44580,-142.857142857143,4,2,1,40,0,0
45594,-142.857142857143,4,2,3,60,0,0
46202,-71.4285714285714,4,2,1,40,0,0
47216,-71.4285714285714,4,2,3,60,0,0
47824,-100,4,2,1,40,0,0
49445,-142.857142857143,4,2,1,50,0,0
50256,-100,4,2,1,50,0,0
51067,-100,4,2,1,55,0,0
53905,-100,4,2,1,35,0,0
54716,-66.6666666666667,4,2,1,65,0,0
55121,-100,4,2,1,50,0,0
55526,-66.6666666666667,4,2,1,65,0,0
56134,-66.6666666666667,4,2,1,70,0,0
56945,-100,4,2,1,70,0,0
57553,-90.9090909090909,4,2,2,65,0,1
67689,-62.5,4,2,2,75,0,1
68094,-90.9090909090909,4,2,2,65,0,1
68499,-62.5,4,2,2,75,0,1
68905,-90.9090909090909,4,2,2,65,0,1
69310,-62.5,4,2,2,75,0,1
69716,-90.9090909090909,4,2,2,65,0,1
70121,-62.5,4,2,2,75,0,1
70526,-90.9090909090909,4,2,2,65,0,1
72553,-133.333333333333,4,2,2,75,0,1
72959,-133.333333333333,4,2,2,55,0,1
73770,-100,4,2,2,65,0,1
78837,-100,4,2,2,70,0,1
79040,-83.3333333333333,4,2,2,70,0,1
79243,-62.5,4,2,2,70,0,1
79445,-47.6189977324287,4,2,2,70,0,1
80256,-100,4,2,2,55,0,0
86743,-100,4,2,2,50,0,0
87553,-90.9090909090909,4,2,2,50,0,0
93229,-90.9090909090909,4,2,2,65,0,1
96878,-62.5,4,2,2,75,0,1
97283,-90.9090909090909,4,2,2,65,0,1
97689,-62.5,4,2,2,75,0,1
98094,-90.9090909090909,4,2,2,65,0,1
98499,-62.5,4,2,2,75,0,1
98905,-90.9090909090909,4,2,2,65,0,1
99310,-62.5,4,2,2,75,0,1
99716,-90.9090909090909,4,2,2,65,0,1
101743,-133.333333333333,4,2,2,75,0,1
102148,-133.333333333333,4,2,2,55,0,1
102959,-100,4,2,2,65,0,1
108026,-100,4,2,2,70,0,1
108229,-83.3333333333333,4,2,2,70,0,1
108432,-62.5,4,2,2,70,0,1
108634,-47.6189977324287,4,2,2,70,0,1
109445,-100,4,2,1,50,0,0
115932,-100,4,2,1,50,0,0
120189,-100,4,2,1,62,0,0
120391,-100,4,2,1,64,0,0
120594,-100,4,2,1,66,0,0
120797,-100,4,2,1,70,0,0
121607,-66.6666666666667,4,2,1,70,0,0

[Colours]
Combo1 : 148,254,254
Combo2 : 255,70,255
Combo3 : 77,255,166
Combo4 : 255,255,128

[HitObjects]
464,152,5662,5,4,0:0:0:0:
480,148,5763,1,2,0:0:0:0:
356,120,5966,1,0,0:0:0:0:
370,127,6067,1,2,0:0:0:0:
284,32,6271,1,0,0:0:0:0:
290,46,6372,1,2,0:0:0:0:
444,68,6574,1,0,0:0:0:0:
426,64,6676,6,0,P|407:54|383:46,1,40,2|0,0:0|0:0,0:0:0:0:
288,112,6878,2,0,P|289:132|293:157,1,40,2|0,0:0|0:0,0:0:0:0:
400,208,7081,2,0,P|417:196|436:180,1,40,2|0,0:0|0:0,0:0:0:0:
372,128,7283,5,0,0:0:0:0:
364,116,7384,1,2,0:0:0:0:
300,252,7587,1,0,0:0:0:0:
311,260,7688,1,2,0:0:0:0:
200,152,7891,1,0,0:0:0:0:
196,165,7992,1,2,0:0:0:0:
140,348,8297,5,8,0:0:0:0:
311,260,8499,1,8,0:0:0:0:
156,296,8702,1,8,0:0:0:0:
361,93,8905,5,4,0:0:0:0:
366,78,9006,1,2,0:0:0:0:
252,132,9209,1,0,0:0:0:0:
268,128,9310,1,2,0:0:0:0:
144,96,9513,1,0,0:0:0:0:
155,107,9614,1,2,0:0:0:0:
260,208,9817,1,0,0:0:0:0:
275,212,9918,6,0,P|294:207|313:200,1,40,2|0,0:0|0:0,0:0:0:0:
328,80,10121,2,0,P|314:66|298:53,1,40,2|0,0:0|0:0,0:0:0:0:
188,100,10324,2,0,P|182:118|179:138,1,40,2|0,0:0|0:0,0:0:0:0:
196,292,10526,5,8,0:0:0:0:
323,313,10729,1,2,0:0:0:0:
159,258,10932,5,8,0:0:0:0:
352,240,11135,1,2,0:0:0:0:
89,144,11337,5,8,0:0:0:0:
380,168,11540,1,2,0:0:0:0:
28,80,11743,5,8,0:0:0:0:
428,28,11946,1,2,0:0:0:0:
300,140,12148,6,0,P|300:176|320:224,1,80,4|2,0:0|0:0,0:0:0:0:
200,304,12452,1,0,0:0:0:0:
188,292,12553,2,0,P|192:276|200:252,1,40,8|0,0:0|0:0,0:0:0:0:
164,120,12756,2,0,P|168:136|176:160,1,40,2|0,0:0|0:0,0:0:0:0:
160,36,12959,2,0,P|132:44|108:52,2,40,8|0|2,0:0|0:0|0:0,0:0:0:0:
368,164,13364,2,0,L|412:152,1,40,8|0,0:0|0:0,0:0:0:0:
448,76,13567,2,0,L|409:65,1,40,2|0,0:0|0:0,0:0:0:0:
272,220,13770,6,0,P|296:248|336:272,1,80,8|2,0:0|0:0,0:0:0:0:
484,184,14074,1,0,0:0:0:0:
476,168,14175,2,0,L|464:128,1,40,8|0,0:0|0:0,0:0:0:0:
348,24,14378,2,0,P|340:42|336:62,1,40,2|0,0:0|0:0,0:0:0:0:
392,172,14580,6,0,P|395:191|401:210,2,40,8|0|2,0:0|0:0|0:0,0:0:0:0:
316,340,14986,1,8,0:0:0:0:
196,44,15189,1,2,0:0:0:0:
140,112,15391,6,0,P|176:128|224:132,1,80,12|2,0:0|0:0,0:0:0:0:
368,44,15695,1,0,0:0:0:0:
380,56,15797,2,0,P|375:79|368:104,1,40,8|0,0:0|0:0,0:0:0:0:
324,216,15999,2,0,P|335:232|345:249,1,40,2|0,0:0|0:0,0:0:0:0:
192,360,16202,6,0,P|180:343|170:326,1,40,8|0,0:0|0:0,0:0:0:0:
56,258,16405,2,0,P|76:256|96:256,1,40,2|0,0:0|0:0,0:0:0:0:
207,158,16607,2,0,P|188:163|169:168,1,40,8|0,0:0|0:0,0:0:0:0:
39,80,16810,2,0,P|57:88|76:96,1,40,2|0,0:0|0:0,0:0:0:0:
240,36,17013,5,2,0:1:0:0:
488,248,17216,1,2,0:1:0:0:
408,92,17418,1,2,0:1:0:0:
140,280,17621,1,2,0:1:0:0:
16,32,17824,6,0,L|100:40,1,80,2|0,0:1|0:0,0:0:0:0:
212,88,18128,1,8,0:3:0:0:
207,104,18229,2,0,L|128:112,1,80,8|0,0:3|0:0,0:0:0:0:
288,32,18634,6,0,P|296:60|302:95,1,64,4|0,0:0|0:0,0:0:0:0:
276,172,18939,1,0,0:0:0:0:
276,172,19040,2,0,P|268:204|264:236,1,64,8|0,0:0|0:0,0:0:0:0:
368,184,19445,2,0,P|364:148|356:119,1,64,8|0,0:0|0:0,0:0:0:0:
180,216,19851,2,0,P|184:252|192:281,1,64,8|0,0:0|0:0,0:0:0:0:
128,124,20256,2,0,P|162:113|195:111,1,64,8|0,0:0|0:0,0:0:0:0:
376,24,20661,2,0,P|341:34|308:36,1,64,8|0,0:0|0:0,0:0:0:0:
408,128,21067,6,0,P|456:192|428:280,1,180.000006866455,4|0,0:0|0:0,0:0:0:0:
104,256,21472,2,0,P|56:192|84:104,1,180.000006866455,4|0,0:0|0:0,0:0:0:0:
248,145,21878,6,0,L|156:172,1,95.9999970703126,8|0,0:0|0:0,0:0:0:0:
308,44,22182,1,0,0:0:0:0:
324,56,22283,2,0,P|352:92|364:148,1,95.9999970703126,8|0,0:0|0:0,0:0:0:0:
215,310,22689,1,8,0:0:0:0:
371,338,22891,1,2,0:0:0:0:
367,322,22993,1,8,0:0:0:0:
187,222,23195,1,8,0:0:0:0:
183,238,23297,1,2,0:0:0:0:
343,136,23499,6,0,L|436:162,1,95.9999970703126,8|0,0:0|0:0,0:0:0:0:
304,52,23803,1,0,0:0:0:0:
288,62,23904,2,0,P|256:102|248:150,1,95.9999970703126,8|0,0:0|0:0,0:0:0:0:
288,336,24310,1,8,0:0:0:0:
136,304,24513,1,2,0:0:0:0:
132,284,24614,1,8,0:0:0:0:
324,156,24817,1,2,0:0:0:0:
320,176,24918,1,8,0:0:0:0:
224,76,25121,6,0,P|188:84|152:96,1,64,4|0,0:0|0:0,0:0:0:0:
152,172,25425,1,0,0:0:0:0:
152,172,25526,2,0,P|188:164|224:152,1,64,8|0,0:0|0:0,0:0:0:0:
308,88,25932,2,0,P|304:57|287:12,1,64,8|0,0:0|0:0,0:0:0:0:
89,21,26337,2,0,P|79:52|76:84,1,64,8|0,0:0|0:0,0:0:0:0:
133,173,26743,2,0,P|103:184|72:188,1,64,8|0,0:0|0:0,0:0:0:0:
260,144,27148,2,0,P|290:154|321:158,1,64,8|0,0:0|0:0,0:0:0:0:
185,67,27553,6,0,P|272:36|348:80,1,180.000006866455,4|0,0:0|0:0,0:0:0:0:
326,316,27959,2,0,P|240:348|164:304,1,180.000006866455,4|0,0:0|0:0,0:0:0:0:
216,157,28364,6,0,L|248:248,1,95.9999970703126,8|0,0:0|0:0,0:0:0:0:
248,56,28668,1,0,0:0:0:0:
228,53,28769,2,0,P|182:58|134:89,1,95.9999970703126,8|0,0:0|0:0,0:0:0:0:
284,224,29175,1,8,0:0:0:0:
172,328,29377,1,2,0:0:0:0:
179,313,29479,1,8,0:0:0:0:
216,124,29681,1,8,0:0:0:0:
209,109,29783,1,2,0:0:0:0:
376,204,29986,6,0,L|408:113,1,95.9999970703126,8|0,0:0|0:0,0:0:0:0:
408,305,30290,1,0,0:0:0:0:
388,308,30391,2,0,P|342:303|294:272,1,95.9999970703126,8|0,0:0|0:0,0:0:0:0:
204,112,30797,1,8,0:0:0:0:
160,256,31000,1,2,0:0:0:0:
164,276,31101,1,8,0:0:0:0:
36,68,31304,1,8,0:0:0:0:
32,88,31405,1,2,0:0:0:0:
66,278,31607,6,0,L|160:255,1,95.9999970703126,4|0,0:0|0:0,0:0:0:0:
356,189,32013,2,0,L|262:166,1,95.9999970703126,8|0,0:0|0:0,0:0:0:0:
88,79,32418,1,8,0:0:0:0:
101,268,32620,1,0,0:0:0:0:
209,224,32824,1,8,0:0:0:0:
26,179,33026,1,0,0:0:0:0:
202,109,33229,6,0,L|264:120,1,47.9999985351563,2|0,0:0|0:0,0:0:0:0:
351,39,33432,2,0,L|304:48,1,47.9999985351563,2|0,0:0|0:0,0:0:0:0:
112,80,33634,1,2,0:0:0:0:
124,64,33736,2,0,P|140:48|168:28,1,47.9999985351563,2|0,0:0|0:0,0:0:0:0:
336,112,33938,1,2,0:0:0:0:
330,131,34040,2,0,P|320:151|300:179,1,47.9999985351563,2|0,0:0|0:0,0:0:0:0:
176,292,34243,1,0,0:0:0:0:
176,292,34344,1,0,0:0:0:0:
176,292,34445,2,0,P|148:244|124:208,1,95.9999970703126,8|0,0:0|0:0,0:0:0:0:
52,52,34851,6,0,L|148:76,1,95.9999970703126,4|0,0:0|0:0,0:0:0:0:
336,168,35256,2,0,L|242:191,1,95.9999970703126,8|0,0:0|0:0,0:0:0:0:
56,232,35661,1,8,0:0:0:0:
116,48,35864,1,0,0:0:0:0:
228,80,36067,1,8,0:0:0:0:
40,124,36270,1,0,0:0:0:0:
288,148,36472,6,0,P|304:124|316:100,2,47.9999985351563,10|0|0,0:0|0:0|0:0,0:0:0:0:
104,256,36878,2,0,P|80:238|61:220,2,47.9999985351563,10|0|0,0:0|0:0|0:0,0:0:0:0:
372,212,37283,1,2,0:0:0:0:
372,152,37384,1,2,0:0:0:0:
366,97,37486,1,2,0:0:0:0:
353,42,37587,1,2,0:0:0:0:
353,42,38094,6,0,L|272:60,1,80,4|0,0:0|0:0,0:0:0:0:
180,188,38499,2,0,L|284:216,1,80,2|0,0:0|0:0,0:0:0:0:
344,260,38803,1,0,0:0:0:0:
360,256,38905,2,0,L|440:232,1,80,8|0,0:0|0:0,0:0:0:0:
344,151,39310,2,0,P|319:120|307:82,1,80,2|0,0:0|0:0,0:0:0:0:
90,92,39716,6,0,B|171:107|159:141|236:152,1,160,8|2,0:0|0:0,0:0:0:0:
384,212,40324,1,0,0:0:0:0:
412,312,40526,2,0,L|328:296,1,80,8|0,0:0|0:0,0:0:0:0:
202,189,40932,2,0,L|124:204,1,80,2|0,0:0|0:0,0:0:0:0:
228,344,41337,6,0,P|240:308|248:268,1,80,8|0,0:0|0:0,0:0:0:0:
120,48,41743,2,0,P|127:87|140:125,1,80,2|0,0:0|0:0,0:0:0:0:
123,204,42047,1,0,0:0:0:0:
139,212,42148,1,8,0:0:0:0:
292,164,42351,1,0,0:0:0:0:
392,308,42553,1,10,0:0:0:0:
192,284,42756,1,8,0:0:0:0:
380,140,42959,5,10,0:0:0:0:
132,140,43364,1,10,0:0:0:0:
336,64,43567,1,0,0:0:0:0:
336,64,43668,1,8,0:0:0:0:
336,64,43770,1,10,0:0:0:0:
252,184,43972,1,8,0:0:0:0:
80,28,44175,2,0,P|117:36|164:52,1,80,10|0,0:0|0:0,0:0:0:0:
176,176,44580,6,0,P|256:108|328:180,1,223.999993164063,8|0,0:0|0:0,0:0:0:0:
412,116,45594,5,8,0:0:0:0:
108,124,45797,1,8,0:0:0:0:
136,52,46202,6,0,B|93:49|72:82|70:128|108:157|159:161|182:118|193:73|135:51|135:51|93:49|72:82|70:128|108:157|159:161|182:118|194:72|135:51|135:51,1,447.999986328125,8|0,0:0|0:0,0:0:0:0:
0,140,47216,5,8,0:0:0:0:
500,172,47418,1,8,0:0:0:0:
192,120,47824,5,0,0:0:0:0:
396,244,48128,1,2,0:0:0:0:
184,356,48432,1,2,0:0:0:0:
344,336,48634,5,2,0:0:0:0:
140,212,48938,1,2,0:0:0:0:
352,100,49242,1,2,0:0:0:0:
228,236,49445,6,0,B|240:172|200:132|200:104|208:72,1,167.999994873047,8|8,0:0|0:0,0:0:0:0:
128,112,50256,2,0,P|136:152|152:192,1,80,8|0,0:0|0:0,0:0:0:0:
404,328,51067,5,2,0:0:0:0:
477,224,51270,1,2,0:0:0:0:
404,122,51472,1,2,0:0:0:0:
282,161,51675,1,2,0:0:0:0:
273,172,51776,1,2,0:0:0:0:
230,223,52689,5,2,0:0:0:0:
153,324,52892,1,2,0:0:0:0:
34,286,53094,1,2,0:0:0:0:
33,158,53297,1,2,0:0:0:0:
41,146,53398,1,2,0:0:0:0:
8,56,53905,6,0,L|12:76,1,20,2|2,0:0|0:0,0:0:0:0:
31,47,54006,2,0,L|25:66,1,20,2|2,0:0|0:0,0:0:0:0:
54,49,54107,2,0,L|42:65,1,20,2|2,0:0|0:0,0:0:0:0:
82,58,54209,2,0,L|65:69,1,20,2|2,0:0|0:0,0:0:0:0:
84,80,54310,6,0,L|204:48,1,120,8|0,0:0|0:0,0:0:0:0:
336,100,54716,6,0,B|248:112|256:140|160:144,1,180.000006866455,4|0,0:0|0:0,0:0:0:0:
58,229,55121,6,0,B|112:208|112:208|140:220|172:224,1,120.000004577637,8|0,0:0|0:0,0:0:0:0:
264,292,55526,6,0,P|228:300|196:312,1,60.0000022888184,4|0,0:0|0:0,0:0:0:0:
300,196,55729,2,0,B|332:192|360:180|360:180|416:204|416:204|472:196,1,180.000006866455,4|0,0:0|0:0,0:0:0:0:
504,108,56134,6,0,P|476:112|440:120,1,60.0000022888184,4|0,0:0|0:0,0:0:0:0:
356,272,56337,2,0,P|386:290|412:308,1,60.0000022888184,4|0,0:0|0:0,0:0:0:0:
232,136,56540,2,0,P|207:63|286:70,1,180.000006866455,4|0,0:0|0:0,0:0:0:0:
416,44,56945,6,0,B|455:30|464:36|503:24,2,80
380,136,57553,6,0,P|336:128|288:120,1,88.000002685547,4|0,0:0|0:0,0:0:0:0:
95,31,57959,2,0,P|138:38|182:47,1,88.000002685547,10|0,0:0|0:0,0:0:0:0:
320,204,58364,2,0,P|276:212|228:220,1,88.000002685547,8|0,0:0|0:0,0:0:0:0:
128,180,58668,1,0,0:0:0:0:
144,176,58770,2,0,P|184:164|224:136,1,88.000002685547,10|0,0:0|0:0,0:0:0:0:
364,32,59175,5,8,0:0:0:0:
452,184,59378,1,0,0:0:0:0:
280,220,59580,1,10,0:0:0:0:
432,96,59783,1,0,0:0:0:0:
232,88,59986,2,0,P|216:128|200:184,1,88.000002685547,8|0,0:0|0:0,0:0:0:0:
320,276,60290,1,0,0:0:0:0:
316,260,60391,2,0,P|303:217|287:177,1,88.000002685547,10|0,0:0|0:0,0:0:0:0:
148,52,60797,5,8,0:0:0:0:
28,24,60999,1,0,0:0:0:0:
192,164,61202,1,10,0:0:0:0:
312,136,61405,2,0,L|264:160,1,44.0000013427735
220,268,61607,2,0,P|176:263|134:251,1,88.000002685547,8|0,0:0|0:0,0:0:0:0:
304,224,62013,2,0,P|328:220|356:216,1,44.0000013427735,10|0,0:0|0:0,0:0:0:0:
476,272,62216,2,0,P|452:276|424:280,1,44.0000013427735,8|0,0:0|0:0,0:0:0:0:
456,40,62418,5,10,0:0:0:0:
404,176,62621,1,0,0:0:0:0:
324,64,62824,1,10,0:0:0:0:
304,264,63026,1,0,0:0:0:0:
176,72,63229,1,10,0:0:0:0:
228,216,63432,1,8,0:0:0:0:
28,77,63634,1,10,0:0:0:0:
123,272,63837,1,8,0:0:0:0:
192,40,64040,6,0,L|280:56,1,88.000002685547,4|0,0:0|0:0,0:0:0:0:
454,155,64445,2,0,L|368:140,1,88.000002685547,10|0,0:0|0:0,0:0:0:0:
156,152,64851,2,0,P|192:172|232:196,1,88.000002685547,8|0,0:0|0:0,0:0:0:0:
308,268,65155,1,0,0:0:0:0:
292,272,65256,2,0,L|200:284,1,88.000002685547,10|0,0:0|0:0,0:0:0:0:
36,188,65661,5,8,0:0:0:0:
200,144,65864,1,0,0:0:0:0:
84,304,66067,1,10,0:0:0:0:
104,104,66270,1,0,0:0:0:0:
252,240,66472,2,0,P|292:228|344:208,1,88.000002685547,8|0,0:0|0:0,0:0:0:0:
412,140,66776,1,0,0:0:0:0:
396,136,66878,2,0,L|308:116,1,88.000002685547,10|0,0:0|0:0,0:0:0:0:
100,32,67283,6,0,P|56:72|76:140,1,132.00000402832,2|0,0:1|0:0,0:0:0:0:
96,164,67689,2,0,B|148:140|168:160|232:128,1,128,4|0,0:0|0:0,0:0:0:0:
408,68,68094,6,0,P|452:108|432:176,1,132.00000402832,2|0,0:1|0:0,0:0:0:0:
412,200,68500,2,0,B|360:176|340:196|276:164,1,128,4|0,0:0|0:0,0:0:0:0:
56,168,68905,6,0,P|12:208|32:276,1,132.00000402832,2|0,0:1|0:0,0:0:0:0:
52,300,69311,2,0,B|104:276|124:296|188:264,1,128,4|0,0:0|0:0,0:0:0:0:
456,208,69716,6,0,P|500:248|480:316,1,132.00000402832,2|0,0:1|0:0,0:0:0:0:
460,340,70122,2,0,B|408:316|388:336|324:304,1,128,4|0,0:0|0:0,0:0:0:0:
96,208,70526,5,10,0:0:0:0:
464,68,70830,1,10,0:0:0:0:
160,324,71134,1,10,0:0:0:0:
416,208,71337,5,10,0:0:0:0:
48,68,71641,1,10,0:0:0:0:
352,324,71945,1,10,0:0:0:0:
256,32,72148,5,10,0:0:0:0:
216,128,72553,6,0,P|256:112|300:128,1,90.0000034332277,4|0,0:0|0:0,0:0:0:0:
332,284,72959,1,0,0:0:0:0:
142,344,73162,1,8,0:0:0:0:
259,183,73364,1,8,0:0:0:0:
259,383,73567,1,8,0:0:0:0:
142,221,73770,6,0,P|146:176|156:115,1,80,4|0,0:0|0:0,0:0:0:0:
336,44,74175,2,0,P|341:83|344:123,1,80,10|0,0:0|0:0,0:0:0:0:
217,241,74580,2,0,P|178:235|141:220,1,80,8|0,0:0|0:0,0:0:0:0:
108,120,74884,1,0,0:0:0:0:
124,120,74986,2,0,P|163:125|200:140,1,80,10|0,0:0|0:0,0:0:0:0:
364,138,75391,6,0,P|352:176|344:216,1,80,8|0,0:0|0:0,0:0:0:0:
196,353,75797,2,0,P|187:314|176:276,1,80,10|0,0:0|0:0,0:0:0:0:
300,112,76202,1,8,0:0:0:0:
264,256,76405,1,0,0:0:0:0:
224,40,76607,1,10,0:0:0:0:
376,180,76810,1,0,0:0:0:0:
460,52,77013,6,0,P|424:64|384:76,1,80,8|0,0:0|0:0,0:0:0:0:
217,160,77418,2,0,P|256:165|296:173,1,80,10|0,0:0|0:0,0:0:0:0:
130,182,77824,6,0,P|132:142|144:104,1,80,8|0,0:0|0:0,0:0:0:0:
236,52,78128,2,0,P|274:63|314:65,1,80,8|0,0:0|0:0,0:0:0:0:
376,152,78432,2,0,P|374:191|362:230,1,80,8|0,0:0|0:0,0:0:0:0:
180,344,78837,6,0,L|236:324,1,40,2|0,0:1|0:0,0:0:0:0:
292,176,79040,6,0,L|277:130,1,47.9999985351563,2|0,0:1|0:0,0:0:0:0:
140,60,79243,6,0,P|128:90|124:122,1,64,2|0,0:1|0:0,0:0:0:0:
248,252,79445,6,0,B|328:276|364:216|364:216|404:276|464:292|464:292|484:260|492:220,1,336.000339660988,2|0,0:1|0:0,0:0:0:0:
192,56,80256,5,12,0:0:0:0:
324,28,80458,1,0,0:0:0:0:
408,136,80661,1,2,0:0:0:0:
392,140,80763,2,0,L|313:153,1,80
208,152,81067,2,0,P|215:191|236:225,1,80,8|0,0:0|0:0,0:0:0:0:
288,316,81371,2,0,P|318:290|337:255,1,80,8|0,0:0|0:0,0:0:0:0:
313,152,81675,1,8,0:0:0:0:
148,68,81878,5,8,0:0:0:0:
276,20,82080,1,0,0:0:0:0:
200,172,82283,1,2,0:0:0:0:
192,184,82384,1,0,0:0:0:0:
384,172,82689,6,0,L|396:220,1,40,8|0,0:0|0:0,0:0:0:0:
484,272,82891,1,0,0:0:0:0:
472,280,82993,2,0,B|431:308|431:308|356:296,1,120,8|0,0:0|0:0,0:0:0:0:
168,16,83499,6,0,P|125:56|151:107,1,120,12|0,0:0|0:0,0:0:0:0:
98,184,83905,2,0,L|218:172,1,120,10|0,0:0|0:0,0:0:0:0:
284,132,84310,1,10,0:0:0:0:
300,136,84411,1,2,0:0:0:0:
248,288,84614,1,8,0:0:0:0:
232,292,84715,1,0,0:0:0:0:
180,96,84918,1,8,0:0:0:0:
132,248,85121,5,8,0:0:0:0:
128,264,85222,1,2,0:0:0:0:
304,212,85425,1,0,0:0:0:0:
308,228,85526,1,2,0:0:0:0:
480,92,85729,1,8,0:0:0:0:
476,108,85830,1,2,0:0:0:0:
216,212,86134,2,0,P|224:252|244:292,2,80
163,91,86743,6,0,L|324:112,1,160,8|0,0:0|0:0,0:0:0:0:
321,111,87553,6,0,P|280:120|236:132,1,88.000002685547,8|0,0:0|0:0,0:0:0:0:
293,288,87857,2,0,P|306:248|317:204,1,88.000002685547,8|0,0:0|0:0,0:0:0:0:
368,24,88161,1,2,0:0:0:0:
367,24,89175,6,0,P|381:65|392:108,1,88.000002685547,8|0,0:0|0:0,0:0:0:0:
481,223,89479,2,0,P|438:211|395:202,1,88.000002685547,8|0,0:0|0:0,0:0:0:0:
152,84,89986,5,2,0:0:0:0:
36,44,90188,1,0,0:0:0:0:
196,180,90391,1,0,0:0:0:0:
316,148,90594,2,0,L|264:180,1,44.0000013427735
129,266,90796,2,0,P|171:279|215:287,1,88.000002685547,2|0,0:0|0:0,0:0:0:0:
435,248,91202,2,0,P|393:259|350:267,1,88.000002685547,0|8,0:0|0:0,0:0:0:0:
456,40,91607,5,2,0:0:0:0:
404,176,91810,1,0,0:0:0:0:
324,64,92013,1,2,0:0:0:0:
304,264,92215,1,0,0:0:0:0:
176,72,92418,1,10,0:0:0:0:
228,216,92621,1,8,0:0:0:0:
28,77,92823,1,10,0:0:0:0:
123,272,93026,1,8,0:0:0:0:
264,96,93229,6,0,P|292:67|316:24,1,88.000002685547,4|0,0:0|0:0,0:0:0:0:
368,244,93634,2,0,L|284:276,1,88.000002685547,10|0,0:0|0:0,0:0:0:0:
188,152,94040,2,0,P|179:105|175:65,1,88.000002685547,8|0,0:0|0:0,0:0:0:0:
288,152,94344,1,0,0:0:0:0:
280,168,94445,2,0,P|254:204|220:236,1,88.000002685547,10|0,0:0|0:0,0:0:0:0:
48,288,94851,5,8,0:0:0:0:
188,152,95053,1,0,0:0:0:0:
76,208,95256,1,10,0:0:0:0:
236,344,95459,1,0,0:0:0:0:
352,172,95661,2,0,P|360:128|359:84,1,88.000002685547,8|0,0:0|0:0,0:0:0:0:
201,51,95966,1,0,0:0:0:0:
213,63,96067,2,0,P|242:95|274:125,1,88.000002685547,10|0,0:0|0:0,0:0:0:0:
412,352,96472,6,0,P|456:312|436:244,1,132.00000402832,2|0,0:1|0:0,0:0:0:0:
416,220,96878,2,0,B|364:244|344:224|280:256,1,128,4|0,0:0|0:0,0:0:0:0:
104,316,97283,6,0,P|60:276|80:208,1,132.00000402832,2|0,0:1|0:0,0:0:0:0:
100,184,97689,2,0,B|152:208|172:188|236:220,1,128,4|0,0:0|0:0,0:0:0:0:
456,216,98094,6,0,P|500:176|480:108,1,132.00000402832,2|0,0:1|0:0,0:0:0:0:
460,84,98500,2,0,B|408:108|388:88|324:120,1,128,4|0,0:0|0:0,0:0:0:0:
56,176,98905,6,0,P|12:136|32:68,1,132.00000402832,2|0,0:1|0:0,0:0:0:0:
52,44,99311,2,0,B|104:68|124:48|188:80,1,128,4|0,0:0|0:0,0:0:0:0:
416,176,99715,5,10,0:0:0:0:
64,360,100020,1,10,0:0:0:0:
328,88,100324,1,10,0:0:0:0:
96,176,100526,5,10,0:0:0:0:
448,360,100831,1,10,0:0:0:0:
184,88,101135,1,10,0:0:0:0:
256,352,101337,5,10,0:0:0:0:
216,128,101743,6,0,P|256:112|300:128,1,90.0000034332277,4|0,0:0|0:0,0:0:0:0:
356,196,102148,1,0,0:0:0:0:
204,320,102351,1,8,0:0:0:0:
400,292,102553,1,8,0:0:0:0:
212,224,102756,1,8,0:0:0:0:
384,108,102959,6,0,P|344:96|304:92,1,80,4|0,0:0|0:0,0:0:0:0:
134,208,103364,2,0,P|174:220|214:224,1,80,10|0,0:0|0:0,0:0:0:0:
400,216,103770,2,0,P|364:200|316:172,1,80,8|0,0:0|0:0,0:0:0:0:
260,100,104074,1,0,0:0:0:0:
244,96,104175,2,0,P|204:98|150:108,1,80,10|0,0:0|0:0,0:0:0:0:
356,56,104580,6,0,L|452:76,1,80,8|0,0:0|0:0,0:0:0:0:
294,216,104986,2,0,L|216:200,1,80,10|0,0:0|0:0,0:0:0:0:
92,172,105391,1,8,0:0:0:0:
228,296,105594,1,0,0:0:0:0:
112,344,105797,1,10,0:0:0:0:
256,188,105999,1,0,0:0:0:0:
104,76,106202,6,0,P|64:84|20:100,1,80,8|0,0:0|0:0,0:0:0:0:
240,96,106607,2,0,P|280:104|324:120,1,80,10|0,0:0|0:0,0:0:0:0:
160,168,107013,6,0,P|141:203|133:242,1,80,8|0,0:0|0:0,0:0:0:0:
186,333,107317,2,0,P|224:342|260:360,1,80,8|0,0:0|0:0,0:0:0:0:
358,316,107621,2,0,P|375:281|384:241,1,80,8|0,0:0|0:0,0:0:0:0:
336,72,108026,6,0,L|285:78,1,40,2|0,0:1|0:0,0:0:0:0:
156,134,108229,6,0,L|196:159,1,47.9999985351563,2|0,0:1|0:0,0:0:0:0:
372,201,108432,6,0,P|346:219|326:244,1,64,2|0,0:1|0:0,0:0:0:0:
90,315,108634,6,0,B|75:297|71:272|71:272|47:271|25:259|25:259|32:203|84:174|84:174|56:100|120:60,1,336.000339660988,2|0,0:1|0:0,0:0:0:0:
320,76,109445,5,12,0:0:0:0:
317,59,109546,1,2,0:0:0:0:
389,163,109749,1,0,0:0:0:0:
377,152,109850,1,10,0:0:0:0:
498,197,110054,1,0,0:0:0:0:
483,196,110155,1,2,0:0:0:0:
404,63,110357,1,8,0:0:0:0:
415,77,110459,6,0,P|431:90|447:110,1,40,2|0,0:0|0:0,0:0:0:0:
422,223,110661,2,0,P|403:229|378:235,1,40,10|0,0:0|0:0,0:0:0:0:
291,155,110864,2,0,P|295:134|303:111,1,40,2|0,0:0|0:0,0:0:0:0:
384,160,111067,5,8,0:0:0:0:
376,148,111168,1,2,0:0:0:0:
272,260,111371,1,0,0:0:0:0:
283,268,111472,1,10,0:0:0:0:
172,160,111675,1,0,0:0:0:0:
168,173,111776,1,2,0:0:0:0:
112,356,112081,5,8,0:0:0:0:
24,184,112283,1,8,0:0:0:0:
76,336,112486,1,8,0:0:0:0:
196,72,112688,5,12,0:0:0:0:
191,57,112789,1,2,0:0:0:0:
305,111,112992,1,0,0:0:0:0:
289,107,113093,1,10,0:0:0:0:
413,75,113296,1,0,0:0:0:0:
402,86,113397,1,2,0:0:0:0:
297,187,113600,1,0,0:0:0:0:
282,191,113701,6,0,P|263:186|244:179,1,40,2|0,0:0|0:0,0:0:0:0:
229,59,113904,2,0,P|243:45|259:32,1,40,10|0,0:0|0:0,0:0:0:0:
369,79,114107,2,0,P|375:97|378:117,1,40,10|0,0:0|0:0,0:0:0:0:
332,312,114310,5,8,0:0:0:0:
243,178,114513,1,2,0:0:0:0:
201,375,114716,5,8,0:0:0:0:
335,213,114919,1,2,0:0:0:0:
104,268,115121,5,8,0:0:0:0:
380,312,115324,1,2,0:0:0:0:
48,192,115527,5,8,0:0:0:0:
436,92,115730,1,2,0:0:0:0:
320,224,115932,6,0,P|320:260|340:308,1,80,4|2,0:0|0:0,0:0:0:0:
180,320,116236,1,0,0:0:0:0:
168,308,116337,2,0,P|172:292|180:268,1,40,8|0,0:0|0:0,0:0:0:0:
144,136,116540,2,0,P|148:152|156:176,1,40,2|0,0:0|0:0,0:0:0:0:
140,52,116743,2,0,P|112:60|88:68,2,40,8|0|2,0:0|0:0|0:0,0:0:0:0:
348,180,117148,2,0,L|392:168,1,40,8|0,0:0|0:0,0:0:0:0:
428,92,117351,2,0,L|389:81,1,40,2|0,0:0|0:0,0:0:0:0:
272,220,117553,6,0,P|296:248|336:272,1,80,8|2,0:0|0:0,0:0:0:0:
484,184,117857,1,0,0:0:0:0:
476,168,117958,2,0,L|464:128,1,40,8|0,0:0|0:0,0:0:0:0:
348,24,118161,2,0,P|340:42|336:62,1,40,2|0,0:0|0:0,0:0:0:0:
372,188,118364,6,0,P|375:207|381:226,2,40,8|0|2,0:0|0:0|0:0,0:0:0:0:
296,356,118770,1,8,0:0:0:0:
176,60,118973,1,2,0:0:0:0:
128,132,119175,6,0,P|167:143|208:140,1,80,4|2,0:0|0:0,0:0:0:0:
296,60,119479,1,0,0:0:0:0:
310,56,119580,2,0,P|350:58|387:75,1,80,8|2,0:0|0:0,0:0:0:0:
488,140,119884,1,0,0:0:0:0:
492,156,119986,6,0,L|504:196,1,40,8|0,0:0|0:0,0:0:0:0:
392,276,120189,2,0,L|399:236,1,40,2|0,0:0|0:0,0:0:0:0:
280,92,120391,2,0,L|292:132,1,40,8|0,0:0|0:0,0:0:0:0:
176,308,120594,2,0,L|183:268,1,40,2|0,0:0|0:0,0:0:0:0:
60,28,120797,5,2,0:1:0:0:
328,200,120999,1,2,0:1:0:0:
416,48,121202,1,2,0:1:0:0:
156,232,121405,1,2,0:1:0:0:
420,120,121607,6,0,P|448:194|412:284,1,180.000006866455,2|0,0:1|0:0,0:0:0:0:
92,312,122013,2,0,P|63:237|100:148,1,180.000006866455,2|0,0:1|0:0,0:0:0:0:
88,32,122418,5,6,0:0:0:0:
111,38,122520,2,0,L|169:49,1,60.0000022888184,2|0,0:0|0:0,0:0:0:0:
424,120,122824,1,6,0:0:0:0:
401,126,122926,2,0,L|343:137,1,60.0000022888184,2|0,0:0|0:0,0:0:0:0:
168,326,123229,1,6,0:0:0:0:
172,302,123331,2,0,L|184:238,1,60.0000022888184,2|0,0:0|0:0,0:0:0:0:
256,24,123533,5,4,0:0:0:0:
