osu file format v14

[General]
AudioFilename: audio.mp3
AudioLeadIn: 0
PreviewTime: -1
Countdown: 1
SampleSet: None
StackLeniency: 0.7
Mode: 0
LetterboxInBreaks: 0
SkinPreference:Kurumis Skin v2.0
WidescreenStoryboard: 0

[Editor]
Bookmarks: 61773,80059,134917,189775,226347,244633,299491
DistanceSpacing: 2.3
BeatDivisor: 4
GridSize: 4
TimelineZoom: 1

[Metadata]
Title:New Future
TitleUnicode:New Future
Artist:L.M.
ArtistUnicode:L.M.
Creator:hungrybadgerr
Version:New Future
Source:
Tags:
BeatmapID:1412803
BeatmapSetID:667735

[Difficulty]
HPDrainRate:5
CircleSize:4.2
OverallDifficulty:8
ApproachRate:9.5
SliderMultiplier:1.4
SliderTickRate:1

[Events]
//Background and Video events
//Break Periods
//Storyboard Layer 0 (Background)
//Storyboard Layer 1 (Fail)
//Storyboard Layer 2 (Pass)
//Storyboard Layer 3 (Foreground)
//Storyboard Sound Samples

[TimingPoints]
25201.288896657,285.718717851019,4,1,0,100,1,0
61773,-100,4,1,0,100,0,1
134917,-100,4,1,0,100,0,0

[Colours]
Combo1 : 0,0,128
Combo2 : 0,0,255

[HitObjects]
91,79,25201,6,0,B|176:84|234:114|243:172|336:129|378:102,1,280
380,210,26058,1,0,0:0:0:0:
362,322,26344,2,0,B|306:274|243:239|198:268|109:264|98:230,1,280
81,135,27201,5,0,0:0:0:0:
151,62,27487,2,0,B|224:91|281:139|368:175|436:178,1,280
413,270,28344,1,0,0:0:0:0:
336,335,28629,2,0,B|297:276|235:262|203:260|198:217|135:186|110:153,1,280
96,258,29487,5,0,0:0:0:0:
176,272,29772,2,0,P|202:200|245:135,1,140
313,157,30344,1,0,0:0:0:0:
323,272,30629,1,0,0:0:0:0:
401,325,30915,6,0,P|463:287|467:223,1,140
416,157,31487,1,0,0:0:0:0:
332,207,31772,1,0,0:0:0:0:
266,281,32058,2,0,P|194:310|113:269,1,140
82,226,32629,6,0,B|118:175|172:174|197:127,1,140
330,187,33201,2,0,B|271:233|276:282|232:298,1,140
116,246,33772,1,0,0:0:0:0:
187,164,34058,1,0,0:0:0:0:
337,110,34344,6,0,L|421:166,1,70
372,221,34630,2,0,L|309:173,1,70
360,77,34915,6,0,L|446:120,1,70
398,206,35201,2,0,L|329:163,1,70
253,114,35487,6,0,L|173:156,1,70
218,227,35772,2,0,L|298:231,1,70
353,195,36058,2,0,L|307:118,1,70
142,205,36344,2,0,L|208:280,1,70
229,104,36630,6,0,L|151:92,3,70
211,183,37201,2,0,L|138:198,3,70
262,235,37772,6,0,P|234:292|220:308,3,70
338,233,38344,2,0,P|383:279|398:308,3,70
359,153,38915,6,0,L|427:139,1,70
297,91,39201,1,0,0:0:0:0:
212,111,39344,1,0,0:0:0:0:
122,149,39487,2,0,P|97:155|67:195,1,70
175,224,39772,1,0,0:0:0:0:
268,236,39915,1,0,0:0:0:0:
211,328,40058,6,0,L|132:278,1,70
132,159,40344,1,0,0:0:0:0:
40,229,40487,1,0,0:0:0:0:
134,301,40630,1,0,0:0:0:0:
221,257,40772,1,0,0:0:0:0:
308,214,40915,1,0,0:0:0:0:
382,144,41058,1,0,0:0:0:0:
428,235,41201,6,0,L|448:311,1,70
371,329,41487,2,0,L|319:246,1,70
260,322,41772,1,0,0:0:0:0:
180,327,41915,1,0,0:0:0:0:
100,308,42058,1,0,0:0:0:0:
32,265,42201,1,0,0:0:0:0:
134,212,42344,6,0,L|67:179,3,70
168,133,42915,1,0,0:0:0:0:
251,96,43058,1,0,0:0:0:0:
345,97,43201,1,0,0:0:0:0:
425,150,43344,1,0,0:0:0:0:
398,269,43487,5,0,0:0:0:0:
312,341,43630,1,0,0:0:0:0:
201,358,43773,1,0,0:0:0:0:
101,308,43915,1,0,0:0:0:0:
48,208,44058,1,0,0:0:0:0:
134,137,44201,1,0,0:0:0:0:
224,203,44344,1,0,0:0:0:0:
233,314,44487,1,0,0:0:0:0:
122,330,44630,5,0,0:0:0:0:
74,228,44773,1,0,0:0:0:0:
93,118,44915,1,0,0:0:0:0:
175,42,45058,1,0,0:0:0:0:
286,34,45201,1,0,0:0:0:0:
397,47,45344,1,0,0:0:0:0:
488,111,45487,1,0,0:0:0:0:
498,222,45630,1,0,0:0:0:0:
383,302,45773,5,0,0:0:0:0:
419,167,45915,1,0,0:0:0:0:
297,237,46058,1,0,0:0:0:0:
338,103,46201,1,0,0:0:0:0:
215,170,46344,1,0,0:0:0:0:
247,33,46487,1,0,0:0:0:0:
116,83,46630,1,0,0:0:0:0:
29,193,46773,1,0,0:0:0:0:
48,330,46915,5,0,0:0:0:0:
187,312,47058,1,0,0:0:0:0:
154,175,47201,1,0,0:0:0:0:
293,164,47344,1,0,0:0:0:0:
330,298,47487,1,0,0:0:0:0:
412,184,47630,1,0,0:0:0:0:
348,58,47773,1,0,0:0:0:0:
208,62,47915,1,0,0:0:0:0:
92,174,48058,5,0,0:0:0:0:
130,330,48201,1,0,0:0:0:0:
174,175,48344,1,0,0:0:0:0:
214,330,48487,1,0,0:0:0:0:
249,172,48630,1,0,0:0:0:0:
290,327,48773,1,0,0:0:0:0:
324,170,48915,1,0,0:0:0:0:
365,325,49058,1,0,0:0:0:0:
423,224,49201,5,0,0:0:0:0:
392,80,49344,1,0,0:0:0:0:
233,98,49487,1,0,0:0:0:0:
133,193,49630,1,0,0:0:0:0:
195,336,49773,1,0,0:0:0:0:
333,336,49915,1,0,0:0:0:0:
421,230,50058,1,0,0:0:0:0:
357,79,50201,1,0,0:0:0:0:
221,114,50344,5,0,0:0:0:0:
118,142,50487,1,0,0:0:0:0:
160,232,50630,1,0,0:0:0:0:
266,217,50773,1,0,0:0:0:0:
209,80,50915,1,0,0:0:0:0:
91,122,51058,1,0,0:0:0:0:
144,273,51201,1,0,0:0:0:0:
298,232,51344,1,0,0:0:0:0:
355,68,51487,5,0,0:0:0:0:
260,157,51630,1,0,0:0:0:0:
359,235,51773,1,0,0:0:0:0:
445,157,51915,1,0,0:0:0:0:
353,28,52058,1,0,0:0:0:0:
220,159,52201,1,0,0:0:0:0:
362,278,52344,1,0,0:0:0:0:
487,157,52487,1,0,0:0:0:0:
310,50,52630,5,0,0:0:0:0:
218,168,52773,1,0,0:0:0:0:
69,132,52916,1,0,0:0:0:0:
103,275,53058,1,0,0:0:0:0:
237,333,53201,1,0,0:0:0:0:
348,232,53344,1,0,0:0:0:0:
215,140,53487,1,0,0:0:0:0:
112,314,53630,1,0,0:0:0:0:
311,362,53773,5,0,0:0:0:0:
420,284,53916,1,0,0:0:0:0:
416,155,54058,1,0,0:0:0:0:
358,49,54201,1,0,0:0:0:0:
229,37,54344,1,0,0:0:0:0:
122,107,54487,1,0,0:0:0:0:
84,226,54630,1,0,0:0:0:0:
192,325,54773,1,0,0:0:0:0:
310,258,54916,5,0,0:0:0:0:
421,169,55058,1,0,0:0:0:0:
308,79,55201,1,0,0:0:0:0:
205,171,55344,1,0,0:0:0:0:
310,326,55487,1,0,0:0:0:0:
492,171,55630,1,0,0:0:0:0:
309,7,55773,1,0,0:0:0:0:
138,180,55916,1,0,0:0:0:0:
324,293,56058,6,0,L|386:248,1,70
468,160,56344,2,0,L|429:95,1,70
310,45,56630,2,0,L|243:88,1,70
155,212,56916,2,0,L|226:286,1,70
198,133,57201,6,0,L|277:103,1,70
305,184,57487,2,0,L|229:218,1,70
159,80,57773,6,0,L|239:56,1,70
325,248,58058,2,0,L|248:290,1,70
101,88,58344,6,0,L|162:32,1,70
368,291,58630,2,0,L|284:348,1,70
54,58,58916,6,0,L|127:-11,1,70
423,332,59201,2,0,L|346:387,1,70
256,192,59487,12,0,61201,0:0:0:0:
240,100,61773,5,0,0:0:0:0:
78,250,61916,1,0,0:0:0:0:
150,127,62059,1,0,0:0:0:0:
212,295,62201,1,0,0:0:0:0:
312,206,62344,1,0,0:0:0:0:
410,124,62487,1,0,0:0:0:0:
410,124,62630,1,0,0:0:0:0:
410,124,62773,1,0,0:0:0:0:
410,232,62916,5,0,0:0:0:0:
268,140,63059,1,0,0:0:0:0:
352,88,63201,1,0,0:0:0:0:
304,287,63344,1,0,0:0:0:0:
160,302,63487,6,0,B|147:301|147:301|167:299|167:299|173:299|173:299|160:297|160:297|149:299|149:299|153:293|153:293|162:295|162:295|171:294|171:295|172:295|176:295|176:295|174:289|174:289|169:288|169:288|167:287|164:287|162:288|155:290|154:291|144:291|144:291|143:291|142:288|144:285|145:284|149:284|150:284|158:282|158:281|163:281|165:281|167:282|169:283|170:283|169:279|160:277|156:277|152:277|147:277|147:278|141:280|138:279|137:279|144:274|154:274|160:274|164:274|173:274|179:275|182:275|187:273|184:269|174:264|170:264|166:264|161:264|156:264|151:264|147:264|145:264|141:264|136:262|133:261|146:255,1,245
113,148,64059,5,0,0:0:0:0:
214,72,64201,1,0,0:0:0:0:
214,72,64344,1,0,0:0:0:0:
214,72,64487,1,0,0:0:0:0:
312,134,64630,5,0,0:0:0:0:
216,220,64773,1,0,0:0:0:0:
317,296,64916,1,0,0:0:0:0:
402,216,65059,1,0,0:0:0:0:
265,92,65201,1,0,0:0:0:0:
181,271,65344,1,0,0:0:0:0:
360,357,65487,1,0,0:0:0:0:
474,216,65630,1,0,0:0:0:0:
367,89,65773,6,0,B|302:43|302:44|210:72,1,140
226,301,66344,5,0,0:0:0:0:
85,195,66487,1,0,0:0:0:0:
300,251,66630,1,0,0:0:0:0:
145,71,66773,1,0,0:0:0:0:
407,216,66916,6,0,P|405:156|400:125,1,70
184,57,67201,1,0,0:0:0:0:
100,124,67344,1,0,0:0:0:0:
85,306,67487,6,0,L|166:344,1,70
322,309,67773,1,0,0:0:0:0:
408,248,67916,1,0,0:0:0:0:
256,190,68059,5,0,0:0:0:0:
206,71,68630,5,0,0:0:0:0:
129,230,68773,1,0,0:0:0:0:
97,104,68916,1,0,0:0:0:0:
308,279,69059,1,0,0:0:0:0:
450,71,69201,5,0,0:0:0:0:
386,281,69344,1,0,0:0:0:0:
374,46,69487,1,0,0:0:0:0:
265,300,69630,1,0,0:0:0:0:
299,33,69773,1,0,0:0:0:0:
129,328,69916,1,0,0:0:0:0:
27,236,70059,1,0,0:0:0:0:
96,99,70201,5,0,0:0:0:0:
110,84,70273,1,0,0:0:0:0:
143,75,70344,1,0,0:0:0:0:
213,245,70487,1,0,0:0:0:0:
286,77,70630,1,0,0:0:0:0:
368,242,70773,1,0,0:0:0:0:
465,87,70916,6,0,L|399:41,1,70
306,161,71202,1,0,0:0:0:0:
220,64,71344,1,0,0:0:0:0:
74,97,71487,5,0,0:0:0:0:
32,247,71630,1,0,0:0:0:0:
189,281,71773,1,0,0:0:0:0:
238,131,71916,1,0,0:0:0:0:
30,124,72059,1,0,0:0:0:0:
47,293,72202,1,0,0:0:0:0:
231,245,72344,1,0,0:0:0:0:
196,88,72487,1,0,0:0:0:0:
125,201,72630,5,0,0:0:0:0:
323,93,73202,5,0,0:0:0:0:
431,200,73344,1,0,0:0:0:0:
319,299,73487,1,0,0:0:0:0:
213,202,73630,1,0,0:0:0:0:
128,65,73773,1,0,0:0:0:0:
27,201,73916,1,0,0:0:0:0:
108,340,74059,2,0,L|199:328,1,70
238,142,74344,5,0,0:0:0:0:
357,340,74487,1,0,0:0:0:0:
270,109,74630,1,0,0:0:0:0:
470,278,74773,1,0,0:0:0:0:
450,161,74916,6,0,B|441:170|441:170|443:156|443:156|444:146|444:145|431:160|431:160|427:153|426:148|430:148|422:156,1,70
299,242,75202,2,0,B|286:231|296:231|297:231|302:231|313:234|313:234|307:227|300:224|294:222|293:221|292:220|302:220|302:220|310:226,1,70
209,98,75487,5,0,0:0:0:0:
92,266,75630,1,0,0:0:0:0:
106,60,75773,1,0,0:0:0:0:
238,325,75916,1,0,0:0:0:0:
443,301,76059,5,0,0:0:0:0:
185,254,76202,1,0,0:0:0:0:
446,266,76344,1,0,0:0:0:0:
235,137,76487,1,0,0:0:0:0:
450,235,76630,1,0,0:0:0:0:
303,66,76773,1,0,0:0:0:0:
469,206,76916,1,0,0:0:0:0:
414,0,77059,1,0,0:0:0:0:
373,165,77202,5,0,0:0:0:0:
373,165,77487,1,0,0:0:0:0:
302,314,77773,6,0,L|227:289,1,70
328,232,78059,2,0,L|284:162,1,70
120,55,78344,6,0,L|205:110,1,70
101,146,78630,2,0,L|131:221,1,70
196,308,78916,6,0,L|253:261,1,70
288,338,79202,2,0,L|373:315,1,70
400,230,79487,5,0,0:0:0:0:
408,207,79559,1,0,0:0:0:0:
416,176,79630,1,0,0:0:0:0:
417,146,79702,1,0,0:0:0:0:
401,122,79773,1,0,0:0:0:0:
375,98,79844,1,0,0:0:0:0:
342,89,79916,1,0,0:0:0:0:
311,95,79987,1,0,0:0:0:0:
276,110,80059,6,0,P|215:88|186:86,1,70
78,175,80345,1,0,0:0:0:0:
122,346,80487,1,0,0:0:0:0:
196,55,80630,2,0,P|244:53|288:23,1,70
390,165,80916,5,0,0:0:0:0:
335,191,81059,1,0,0:0:0:0:
317,322,81202,2,0,P|292:359|266:376,1,70
98,251,81487,1,0,0:0:0:0:
145,51,81630,1,0,0:0:0:0:
218,314,81773,6,0,B|205:312|205:312|215:312|215:312|221:313|221:313|226:311|226:311|224:310|221:309|216:307|210:306|209:305|208:305|198:299|198:299|207:302|221:301|221:301|223:301|236:301|236:301|238:302|239:302|240:301|240:301|229:297|225:295|221:293|219:292|213:290|213:290|206:290|205:289|202:288|200:287|203:283|211:284|215:284|218:285|226:286|227:287|229:288|232:289|234:289|234:286|230:280|225:279|216:277|211:274|209:275|207:275|203:275|197:269|203:272,1,201.25
250,71,82345,6,0,P|290:64|321:77,1,70
402,324,82630,1,0,0:0:0:0:
196,190,82773,1,0,0:0:0:0:
361,353,82916,2,0,P|324:360|280:344,1,70
79,109,83202,5,0,0:0:0:0:
150,307,83345,1,0,0:0:0:0:
128,90,83487,2,0,P|158:57|199:33,1,70
250,154,83773,1,0,0:0:0:0:
365,150,83916,1,0,0:0:0:0:
456,210,84059,6,0,P|437:271|421:296,2,70
298,244,84487,1,0,0:0:0:0:
169,351,84630,5,0,0:0:0:0:
53,99,84773,1,0,0:0:0:0:
257,103,84916,1,0,0:0:0:0:
32,254,85059,1,0,0:0:0:0:
314,246,85202,2,0,P|359:221|399:229,1,70
433,96,85487,5,0,0:0:0:0:
321,54,85630,1,0,0:0:0:0:
223,120,85773,6,0,P|180:144|148:130,1,70
78,77,86059,1,0,0:0:0:0:
36,145,86202,1,0,0:0:0:0:
108,292,86345,1,0,0:0:0:0:
340,299,86630,1,0,0:0:0:0:
346,132,86916,6,0,P|378:101|414:93,1,70
159,69,87202,1,0,0:0:0:0:
229,165,87345,1,0,0:0:0:0:
105,190,87487,2,0,P|57:220|19:216,1,70
192,280,87773,1,0,0:0:0:0:
92,352,87916,1,0,0:0:0:0:
141,241,88059,6,0,P|174:199|212:188,1,70
338,86,88345,1,0,0:0:0:0:
261,295,88487,1,0,0:0:0:0:
415,138,88630,1,0,0:0:0:0:
189,259,88773,1,0,0:0:0:0:
442,223,88916,1,0,0:0:0:0:
156,182,89059,1,0,0:0:0:0:
181,91,89202,6,0,P|126:65|97:83,3,70
290,149,89773,1,0,0:0:0:0:
315,293,89916,1,0,0:0:0:0:
398,157,90059,1,0,0:0:0:0:
188,320,90202,1,0,0:0:0:0:
70,243,90345,6,0,P|39:210|19:172,1,70
122,58,90630,1,0,0:0:0:0:
241,84,90773,1,0,0:0:0:0:
422,48,90916,1,0,0:0:0:0:
422,48,91202,1,0,0:0:0:0:
394,214,91488,5,0,0:0:0:0:
270,87,91630,1,0,0:0:0:0:
336,312,91773,1,0,0:0:0:0:
106,174,91916,1,0,0:0:0:0:
398,135,92059,6,0,P|361:159|336:185,1,70
482,328,92345,1,0,0:0:0:0:
194,257,92488,1,0,0:0:0:0:
245,83,92630,5,0,0:0:0:0:
99,141,92773,1,0,0:0:0:0:
255,248,92916,1,0,0:0:0:0:
245,83,93059,1,0,0:0:0:0:
136,213,93202,2,0,P|101:249|75:250,1,70
58,69,93488,2,0,P|104:87|132:114,1,70
226,177,93773,6,0,P|266:212|309:215,1,70
344,68,94059,1,0,0:0:0:0:
465,196,94202,1,0,0:0:0:0:
452,312,94345,2,0,P|421:343|382:362,1,70
336,173,94630,1,0,0:0:0:0:
235,290,94773,1,0,0:0:0:0:
178,176,94916,6,0,P|138:181|89:170,1,70
175,47,95202,1,0,0:0:0:0:
253,95,95345,1,0,0:0:0:0:
426,38,95488,2,0,P|454:80|462:112,1,70
414,307,95773,1,0,0:0:0:0:
324,348,95916,1,0,0:0:0:0:
155,136,96059,6,0,P|112:158|97:176,1,70
198,210,96345,2,0,P|182:248|179:279,1,70
406,96,96630,6,0,P|452:55|462:50,1,70
463,161,96916,2,0,P|441:198|416:219,1,70
256,192,97202,12,0,98059,0:0:0:0:
162,110,98345,6,0,L|79:101,1,70
344,315,98630,1,0,0:0:0:0:
179,45,98773,1,0,0:0:0:0:
367,248,98916,2,0,L|449:266,1,70
367,50,99202,5,0,0:0:0:0:
413,130,99345,1,0,0:0:0:0:
362,321,99488,2,0,P|320:342|291:345,1,70
126,193,99773,1,0,0:0:0:0:
365,250,99916,1,0,0:0:0:0:
143,130,100059,2,0,B|149:121|149:121|150:114|150:114|150:112|150:112|149:107|147:109|144:113|143:118|143:119|143:123|143:124|142:124|137:127|135:127|130:122|130:119|131:117|131:116|133:110|138:106|138:104|145:91|132:103|129:107|127:114|125:117|121:123|112:123|105:114|110:107|114:104|120:99|120:95|118:95|113:99|113:104|111:109|109:111|105:113|104:112|102:110|106:106|110:104|113:100|112:98|105:104|100:116|98:121|92:126|89:126|88:123|90:113|104:104|106:102|106:97|102:93|94:96|86:102|84:113|79:118,1,140
94,316,100631,6,0,L|163:354,1,70
345,309,100916,1,0,0:0:0:0:
409,188,101059,1,0,0:0:0:0:
394,50,101202,2,0,L|311:22,1,70
247,244,101488,5,0,0:0:0:0:
124,104,101631,1,0,0:0:0:0:
153,254,101773,1,0,0:0:0:0:
226,84,101916,1,0,0:0:0:0:
79,193,102059,1,0,0:0:0:0:
298,151,102202,1,0,0:0:0:0:
238,261,102345,6,0,P|195:289|165:296,1,70
309,301,102631,2,0,P|289:350|271:367,1,70
330,197,102916,5,0,0:0:0:0:
432,80,103059,1,0,0:0:0:0:
330,197,103202,1,0,0:0:0:0:
432,80,103345,1,0,0:0:0:0:
111,68,103488,1,0,0:0:0:0:
329,280,103631,1,0,0:0:0:0:
111,68,103773,1,0,0:0:0:0:
329,280,103916,1,0,0:0:0:0:
235,305,104059,6,0,P|169:321|147:321,1,70
185,244,104345,2,0,P|133:242|107:238,1,70
62,100,104631,1,0,0:0:0:0:
62,100,104916,1,0,0:0:0:0:
299,69,105202,5,0,0:0:0:0:
234,250,105345,1,0,0:0:0:0:
299,69,105488,1,0,0:0:0:0:
234,250,105631,1,0,0:0:0:0:
487,68,105773,1,0,0:0:0:0:
380,354,105916,1,0,0:0:0:0:
487,68,106059,1,0,0:0:0:0:
380,354,106202,1,0,0:0:0:0:
284,237,106345,1,0,0:0:0:0:
177,294,106488,5,0,0:0:0:0:
63,233,106631,1,0,0:0:0:0:
0,103,106773,1,0,0:0:0:0:
100,0,106916,1,0,0:0:0:0:
260,10,107059,1,0,0:0:0:0:
417,43,107202,1,0,0:0:0:0:
512,171,107345,1,0,0:0:0:0:
412,288,107488,6,0,P|379:258|354:232,1,70
354,341,107773,2,0,P|315:335|272:321,1,70
76,173,108059,6,0,P|132:182|157:191,1,70
159,76,108345,1,0,0:0:0:0:
253,55,108488,1,0,0:0:0:0:
417,202,108631,6,0,P|448:172|454:142,1,70
321,240,108916,2,0,P|289:271|265:297,1,70
331,144,109202,2,0,P|344:84|362:65,1,70
420,198,109488,1,0,0:0:0:0:
356,276,109631,1,0,0:0:0:0:
229,300,109774,6,2,P|170:282|152:268,1,70
106,110,110059,1,2,0:0:0:0:
254,285,110202,1,2,0:0:0:0:
212,61,110345,2,2,P|262:99|265:114,1,70
304,289,110631,1,0,0:0:0:0:
384,218,110774,1,0,0:0:0:0:
409,69,110916,6,0,P|342:58|323:74,1,70
272,170,111202,2,0,P|311:207|339:218,1,70
430,171,111488,1,0,0:0:0:0:
290,54,111631,1,0,0:0:0:0:
158,182,111774,1,0,0:0:0:0:
305,295,111916,1,0,0:0:0:0:
409,214,112059,5,0,0:0:0:0:
244,80,112202,1,0,0:0:0:0:
239,258,112345,2,0,B|194:292|194:292|167:275,1,70
80,123,112631,5,0,0:0:0:0:
171,322,112774,1,0,0:0:0:0:
188,83,112916,2,0,P|202:50|234:40,1,70
322,86,113202,5,0,0:0:0:0:
199,200,113345,1,0,0:0:0:0:
338,100,113488,1,0,0:0:0:0:
282,286,113631,1,0,0:0:0:0:
359,104,113774,1,0,0:0:0:0:
418,329,113916,1,0,0:0:0:0:
389,103,114059,2,0,P|419:63|453:58,1,70
156,100,114345,6,0,P|111:95|81:83,1,70
169,170,114631,2,0,P|110:187|82:190,1,70
360,306,114916,6,0,P|397:335|422:365,1,70
401,257,115202,2,0,P|454:273|481:302,1,70
326,120,115488,1,0,0:0:0:0:
256,192,115631,12,0,116345,0:0:0:0:
215,260,116631,6,0,B|190:237|190:237|202:230|202:230|192:216|192:216|181:210,1,70
164,81,116916,1,0,0:0:0:0:
335,201,117059,1,0,0:0:0:0:
128,312,117202,2,0,B|94:329|93:329|48:318,1,70
295,308,117488,5,0,0:0:0:0:
199,190,117631,1,0,0:0:0:0:
385,81,117774,2,0,B|397:121|397:121|375:150,1,70
176,293,118059,1,0,0:0:0:0:
266,102,118202,1,0,0:0:0:0:
75,217,118345,6,0,B|80:224|80:224|77:213|77:213|76:207|76:207|80:214|80:214|85:221|85:221|84:211|84:210|82:205|81:203|81:203|89:211|89:211|92:220|92:219|90:208|90:208|87:201|87:201|93:209|93:209|97:216|97:216|95:205|95:205|91:200|91:200|97:206|97:206|101:216|101:216|94:204|94:204|93:200|93:200|97:210|97:210|93:204|93:204|97:213|97:213|97:205|97:205|97:200|97:200|96:200,1,210
206,56,118917,6,0,B|252:62|252:62|270:77,1,70
279,258,119202,1,0,0:0:0:0:
458,157,119345,1,0,0:0:0:0:
240,236,119488,2,0,B|191:244|191:244|162:223,1,70
239,96,119774,6,0,B|218:56|218:56|181:33,1,70
149,277,120059,2,0,B|102:299|102:299|75:323,1,70
366,253,120345,2,0,B|420:273|420:273|447:292,1,70
324,112,120631,5,0,0:0:0:0:
324,112,120917,1,0,0:0:0:0:
206,267,121202,5,0,0:0:0:0:
140,117,121345,1,0,0:0:0:0:
342,155,121488,1,0,0:0:0:0:
155,307,121631,1,0,0:0:0:0:
86,154,121774,1,0,0:0:0:0:
296,196,121917,1,0,0:0:0:0:
92,302,122059,2,0,P|61:248|68:223,1,70
236,37,122345,5,0,0:0:0:0:
342,183,122488,1,0,0:0:0:0:
205,322,122631,1,0,0:0:0:0:
70,174,122774,1,0,0:0:0:0:
166,77,122917,6,0,B|172:70|172:70|167:78|167:78|176:73|176:73|173:82|172:82|183:78|183:78|181:86|181:86|190:83|190:83|188:95|188:95|189:95,1,70
283,245,123202,2,0,B|273:252|272:252|275:236|275:236|269:246|269:246|272:238|273:238|263:240|263:240|272:231|272:231|261:236|261:236|265:231|265:231|264:230,1,70
101,42,123488,6,0,B|63:71|63:71|64:96,1,70
324,199,123774,1,0,0:0:0:0:
161,327,123917,1,0,0:0:0:0:
128,183,124059,2,0,B|159:154|159:154|155:113,1,70
346,81,124345,5,0,0:0:0:0:
293,277,124488,1,0,0:0:0:0:
328,73,124631,1,0,0:0:0:0:
133,255,124774,1,0,0:0:0:0:
154,41,124917,2,0,B|196:43|196:43|215:65,1,70
223,285,125202,1,0,0:0:0:0:
90,121,125345,1,0,0:0:0:0:
335,66,125488,1,0,0:0:0:0:
223,285,125631,1,0,0:0:0:0:
427,290,125774,5,0,0:0:0:0:
307,267,125917,1,0,0:0:0:0:
439,245,126059,1,0,0:0:0:0:
322,125,126202,1,0,0:0:0:0:
129,329,126345,2,0,B|68:310|68:309|54:289,1,70
75,166,126631,5,0,0:0:0:0:
135,232,126774,1,0,0:0:0:0:
297,54,126917,2,0,B|336:48|337:48|372:58,1,70
395,210,127202,2,0,P|359:198|323:179,1,70
167,69,127488,2,0,B|128:73|128:73|152:112,1,70
195,335,127774,1,0,0:0:0:0:
128,309,127917,1,0,0:0:0:0:
381,260,128060,5,0,0:0:0:0:
435,148,128202,1,0,0:0:0:0:
278,226,128345,1,0,0:0:0:0:
403,356,128488,1,0,0:0:0:0:
334,31,128631,2,0,B|288:11|288:11|261:24,1,70
203,111,128917,1,0,0:0:0:0:
144,344,129060,6,0,B|101:361|100:361|83:333,1,70
92,58,129345,1,0,0:0:0:0:
160,108,129488,2,0,B|198:137|197:137|222:118,1,70
446,105,129774,2,0,B|395:76|395:76|380:59,1,70
440,170,130060,2,0,B|394:165|394:165|342:163,1,70
275,296,130345,5,0,0:0:0:0:
70,91,130488,1,0,0:0:0:0:
164,46,130631,2,0,B|200:70|200:70|232:79,1,70
140,295,130917,1,0,0:0:0:0:
225,344,131060,1,0,0:0:0:0:
152,81,131202,2,0,B|110:103|110:103|95:126,1,70
157,206,131488,1,0,0:0:0:0:
351,69,131631,5,0,0:0:0:0:
428,132,131774,1,0,0:0:0:0:
419,324,131917,1,0,0:0:0:0:
140,294,132060,1,0,0:0:0:0:
405,255,132202,2,0,B|440:227|440:227|441:201,1,70
208,203,132488,1,0,0:0:0:0:
67,112,132631,6,0,P|137:91|155:97,1,93.3333333333333
227,253,133012,1,0,0:0:0:0:
136,84,133202,6,0,L|86:53,1,46.6666666666667
413,85,133393,2,0,L|475:80,1,46.6666666666667
266,291,133583,2,0,L|251:356,1,46.6666666666667
107,128,133774,1,0,0:0:0:0:
256,192,134060,12,0,134917,0:0:0:0:
