osu file format v14

[General]
AudioFilename: audio.mp3
AudioLeadIn: 0
PreviewTime: 75942
Countdown: 0
SampleSet: Soft
StackLeniency: 0.5
Mode: 0
LetterboxInBreaks: 0
WidescreenStoryboard: 1

[Editor]
Bookmarks: 55212
DistanceSpacing: 0.9
BeatDivisor: 4
GridSize: 8
TimelineZoom: 3.299999

[Metadata]
Title:EMPEROR OF THE AVALON
TitleUnicode:EMPEROR OF THE AVALON
Artist:L.E.D.-G
ArtistUnicode:L.E.D.-G
Creator:Acylica
Version:Normal
Source:REFLEC BEAT colette -Summer-
Tags:pastel adventure gabber hardcore electronic instrumental acyl led-g toshiyuki kakuta konami bemani video game arcade rhythm
BeatmapID:2481304
BeatmapSetID:1190926

[Difficulty]
HPDrainRate:2
CircleSize:3
OverallDifficulty:3
ApproachRate:4
SliderMultiplier:0.999999999999999
SliderTickRate:1

[Events]
//Background and Video events
0,0,"496801.jpg",0,0
//Break Periods
2,42163,51309
//Storyboard Layer 0 (Background)
//Storyboard Layer 1 (Fail)
//Storyboard Layer 2 (Pass)
//Storyboard Layer 3 (Foreground)
//Storyboard Layer 4 (Overlay)
//Storyboard Sound Samples

[TimingPoints]
420,333.333333333333,4,2,1,90,1,0
11086,-100,4,2,1,80,0,0
21753,315.789473684211,4,2,1,50,1,0
31858,-100,4,2,0,60,0,0
41963,333.333333333333,4,2,1,70,1,0
63296,-100,4,2,1,60,0,0
68629,-100,4,2,1,70,0,0
76629,-100,4,2,1,90,0,0
91296,-100,4,2,1,60,0,0
92629,-100,4,2,1,90,0,0
93962,-100,4,2,1,60,0,0
95296,-100,4,2,1,90,0,0
105962,-100,4,2,1,5,0,0

[Colours]
Combo1 : 196,174,174
Combo2 : 245,146,146

[HitObjects]
78,384,420,6,0,L|76:263,1,99.9999999999999,2|8,3:2|0:0,0:0:0:0:
79,242,919,1,2,0:2:0:0:
79,242,1086,2,0,P|133:216|183:248,1,99.9999999999999,0|10,3:0|0:0,0:0:0:0:
187,318,1753,2,0,L|304:313,1,99.9999999999999,0|8,3:0|0:0,0:0:0:0:
376,309,2419,2,0,L|434:305,2,50,0|2|8,3:0|3:2|0:0,0:0:0:0:
286,313,3086,6,0,P|263:262|291:214,1,99.9999999999999,0|8,3:0|0:0,0:0:0:0:
353,171,3753,2,0,P|369:125|346:82,1,99.9999999999999,0|8,3:0|0:0,0:0:0:0:
256,85,4419,2,0,L|124:98,1,99.9999999999999,0|8,3:0|0:0,0:0:0:0:
67,106,5086,2,0,L|71:161,2,50,0|2|8,3:0|3:2|0:0,0:0:0:0:
58,16,5753,5,0,3:0:0:0:
146,3,6086,1,8,0:0:0:0:
159,91,6419,2,0,P|200:123|270:106,1,99.9999999999999,0|8,3:0|0:0,0:0:0:0:
314,62,7086,2,0,P|363:61|400:92,1,99.9999999999999,0|8,3:0|0:0,0:0:0:0:
468,152,7753,6,0,L|455:319,1,150,0|2,3:0|0:0,0:0:0:0:
452,346,8419,2,0,P|405:363|358:331,1,99.9999999999999,0|8,3:0|0:0,0:0:0:0:
320,261,9086,2,0,L|324:207,2,50,0|2|8,3:0|0:0|0:0,0:0:0:0:
275,339,9752,1,2,0:0:0:0:
55,355,11086,6,0,P|51:264|142:215,1,200,0|2,3:0|0:0,0:0:0:0:
218,252,12086,1,8,0:0:0:0:
218,252,12253,2,0,P|247:196|225:137,1,99.9999999999999,2|2,0:0|0:0,0:0:0:0:
205,133,12753,1,8,0:0:0:0:
243,51,13086,2,0,L|438:26,1,150,2|2,0:0|0:0,0:0:0:0:
436,26,13753,5,0,3:0:0:0:
436,26,13919,2,0,P|462:74|443:126,1,99.9999999999999,2|0,0:0|0:0,0:0:0:0:
414,141,14419,1,2,0:0:0:0:
464,222,14753,1,8,0:0:0:0:
464,222,14919,2,0,L|336:234,1,99.9999999999999,2|2,0:0|0:0,0:0:0:0:
320,240,15419,1,8,0:0:0:0:
266,312,15753,2,0,P|178:299|124:357,1,150,2|0,0:0|3:0,0:0:0:0:
101,364,16419,6,0,B|73:344|73:344|72:255,2,99.9999999999999,0|0|0,3:0|3:0|3:0,0:0:0:0:
189,381,17419,1,0,3:0:0:0:
265,332,17753,6,0,L|400:343,1,99.9999999999999,0|0,3:0|3:0,0:0:0:0:
454,339,18419,2,0,L|465:204,1,99.9999999999999,0|0,3:0|3:0,0:0:0:0:
484,200,18919,1,8,0:0:0:0:
464,159,19086,6,0,P|435:98|333:95,1,150,4|8,3:2|0:0,0:0:0:0:
323,53,19753,2,0,P|310:124|245:157,1,150,4|8,3:2|0:0,0:0:0:0:
204,139,20419,2,0,L|195:68,2,50,4|8|4,3:2|0:0|3:2,0:0:0:0:
146,208,21086,2,0,L|155:331,1,99.9999999999999,4|12,3:2|0:2,0:0:0:0:
158,352,21586,1,8,0:0:0:0:
158,352,21753,5,4,3:2:0:0:
158,352,23647,6,0,L|374:343,1,200,2|4,0:0|3:0,0:0:0:0:
358,344,26489,6,0,B|376:292|376:292|350:246,1,99.9999999999999,2|6,0:3|0:0,0:0:0:0:
357,343,28700,6,0,L|158:352,1,200,2|4,0:0|3:0,0:0:0:0:
72,384,30595,6,0,B|27:297|100:240|117:259|195:198|111:75,1,300,0|2,3:0|3:2,0:0:0:0:
78,43,31858,6,0,P|217:14|469:368,1,599.999999999999,4|2,0:0|0:0,0:0:0:0:
379,226,34384,2,0,B|264:165|177:294|226:312|149:422|28:347,1,400,0|0,3:0|3:0,0:0:0:0:
18,220,36279,1,2,0:0:0:0:
133,140,36910,6,0,B|283:8|283:8|479:106,1,400,4|0,0:0|3:0,0:0:0:0:
330,144,38805,1,8,0:0:0:0:
393,268,39437,6,0,P|315:354|128:62,1,599.999999999999,2|0,0:0|3:0,0:0:0:0:
223,39,41963,1,4,0:0:0:0:
473,58,52629,6,0,L|57:34,1,400,4|0,0:0|0:0,0:0:0:0:
73,34,54796,2,0,P|46:81|67:148,1,99.9999999999999,4|2,0:0|3:0,0:0:0:0:
80,159,55296,6,0,P|150:165|196:292,1,200,4|0,0:0|0:0,0:0:0:0:
358,361,56629,2,0,P|428:355|474:228,1,200,0|4,0:0|0:0,0:0:0:0:
413,187,57629,1,4,0:0:0:0:
451,105,57962,5,4,0:0:0:0:
83,13,59296,2,0,B|6:124|106:201|126:169|214:260|131:373,1,400,4|4,0:0|0:0,0:0:0:0:
134,368,61962,6,0,L|262:355,2,99.9999999999999,4|2|4,0:0|3:0|0:0,0:0:0:0:
50,333,62962,1,4,0:0:0:0:
92,253,63296,6,0,P|98:170|232:148,1,200,4|8,0:0|0:0,0:0:0:0:
257,195,64296,1,2,0:0:0:0:
282,108,64629,2,0,B|440:93|440:93|498:134,1,200,0|8,3:0|0:0,0:0:0:0:
431,196,65629,1,2,0:0:0:0:
504,248,65962,6,0,P|494:312|370:352,1,200,0|8,3:0|0:0,0:0:0:0:
329,280,66962,1,2,0:0:0:0:
260,338,67296,2,0,L|127:347,2,99.9999999999999,0|2|8,3:0|0:0|0:0,0:0:0:0:
343,372,68296,1,2,0:0:0:0:
416,319,68629,6,0,P|431:206|348:164,1,200,2|8,3:2|0:0,0:0:0:0:
317,91,69629,1,2,3:0:0:0:
288,126,69796,1,2,0:0:0:0:
245,139,69962,2,0,L|31:122,1,200,2|8,3:2|0:0,0:0:0:0:
24,210,70962,1,2,3:0:0:0:
39,252,71129,1,2,0:0:0:0:
77,276,71296,6,0,L|199:286,1,99.9999999999999,4|8,3:2|3:2,0:0:0:0:
245,224,71962,2,0,L|367:234,1,99.9999999999999,4|8,3:2|3:2,0:0:0:0:
416,286,72629,2,0,B|435:332|435:332|407:381,2,99.9999999999999,4|8|4,3:2|3:2|3:2,0:0:0:0:
489,233,73629,2,0,L|497:163,2,50,12|0|4,3:2|3:2|3:2,0:0:0:0:
256,357,76629,6,0,P|203:309|145:317,1,99.9999999999999,4|8,3:2|3:2,0:0:0:0:
141,333,77129,1,2,0:0:0:0:
141,333,77296,2,0,L|127:219,1,99.9999999999999,8|8,3:2|3:2,0:0:0:0:
45,200,77962,6,0,P|19:155|32:103,1,99.9999999999999,4|8,3:2|3:2,0:0:0:0:
65,85,78462,1,2,0:0:0:0:
65,85,78629,2,0,L|173:93,1,99.9999999999999,8|8,3:2|3:2,0:0:0:0:
248,59,79296,6,0,L|376:71,1,99.9999999999999,4|8,3:2|3:2,0:0:0:0:
380,106,79796,1,2,0:0:0:0:
380,106,79962,2,0,L|451:114,2,50,8|2|8,3:2|0:0|3:2,0:0:0:0:
303,153,80629,2,0,L|290:261,1,99.9999999999999,4|8,3:2|3:2,0:0:0:0:
307,294,81129,1,2,0:0:0:0:
345,316,81296,2,0,L|337:387,2,50,10|0|10,3:2|0:0|0:0,0:0:0:0:
291,252,81962,6,0,P|235:252|188:306,1,99.9999999999999,4|8,3:2|3:2,0:0:0:0:
198,326,82462,1,2,0:0:0:0:
198,326,82629,2,0,L|126:313,2,50,8|2|8,3:2|0:0|3:2,0:0:0:0:
276,370,83296,2,0,L|408:384,1,99.9999999999999,4|8,3:2|3:2,0:0:0:0:
416,361,83796,1,2,0:0:0:0:
416,361,83962,2,0,P|438:306|423:266,1,99.9999999999999,8|8,3:2|3:2,0:0:0:0:
348,222,84629,6,0,P|346:114|447:83,1,200,4|4,3:2|0:0,0:0:0:0:
486,137,85629,1,8,0:0:0:0:
497,180,85796,1,2,0:0:0:0:
479,221,85962,6,0,L|465:352,1,99.9999999999999,4|4,0:0|0:0,0:0:0:0:
389,363,86629,2,0,P|341:315|246:330,1,150,4|8,0:0|0:0,0:0:0:0:
229,348,87296,5,4,0:0:0:0:
223,168,87962,1,4,0:0:0:0:
66,258,88629,2,0,P|109:227|187:252,1,99.9999999999999
182,314,89296,2,0,P|139:345|61:320,1,99.9999999999999
4,334,89962,5,4,0:0:0:0:
96,179,90629,1,4,0:0:0:0:
54,3,91296,5,0,0:0:0:0:
124,59,91629,2,0,L|339:37,1,200,2|2,0:0|0:0,0:0:0:0:
374,112,92629,6,0,P|356:147|314:174,2,74.9999999999999,4|4|4,0:0|0:0|0:0,0:0:0:0:
419,112,93296,2,0,P|440:143|441:199,2,74.9999999999999,4|4|4,0:0|0:0|0:0,0:0:0:0:
422,66,93962,6,0,P|451:61|484:73,2,50
355,4,94629,1,0,0:0:0:0:
276,165,95296,6,0,L|182:153,2,74.9999999999999,4|4|4,0:0|0:0|0:0,0:0:0:0:
293,206,95962,2,0,L|387:218,2,74.9999999999999,4|4|4,0:0|0:0|0:0,0:0:0:0:
265,241,96629,6,0,L|253:311,2,50,4|0|4,0:0|3:0|0:0,0:0:0:0:
186,195,97296,2,0,B|161:313|161:313|185:356,1,150,4|4,0:0|0:0,0:0:0:0:
198,377,97962,6,0,L|308:365,1,99.9999999999999,4|8,0:0|0:0,0:0:0:0:
342,357,98462,1,2,0:0:0:0:
378,384,98629,2,0,L|366:274,1,99.9999999999999,4|8,0:0|0:0,0:0:0:0:
330,202,99296,2,0,L|440:190,1,99.9999999999999,4|8,0:0|0:0,0:0:0:0:
474,185,99796,1,2,0:0:0:0:
510,211,99963,2,0,L|498:101,1,99.9999999999999,4|8,0:0|0:0,0:0:0:0:
461,30,100629,5,4,0:0:0:0:
372,17,100962,1,12,0:0:0:0:
348,56,101129,1,2,3:2:0:0:
350,101,101296,2,0,L|241:116,1,99.9999999999999,4|12,0:0|0:0,0:0:0:0:
162,128,101962,5,4,3:2:0:0:
220,197,102296,2,0,L|228:251,2,50,12|0|12,3:2|3:2|3:2,0:0:0:0:
143,244,102962,1,8,0:0:0:0:
102,263,103129,1,2,3:2:0:0:
87,305,103296,6,0,L|69:191,1,99.9999999999999,0|4,3:0|0:0,0:0:0:0:
256,192,103712,12,0,105962,0:0:0:0:
