osu file format v14

[General]
AudioFilename: audio.mp3
AudioLeadIn: 0
PreviewTime: 75942
Countdown: 0
SampleSet: Soft
StackLeniency: 0.5
Mode: 0
LetterboxInBreaks: 0
WidescreenStoryboard: 1

[Editor]
Bookmarks: 55212
DistanceSpacing: 0.6
BeatDivisor: 4
GridSize: 8
TimelineZoom: 3.299999

[Metadata]
Title:EMPEROR OF THE AVALON
TitleUnicode:EMPEROR OF THE AVALON
Artist:L.E.D.-G
ArtistUnicode:L.E.D.-G
Creator:Acylica
Version:Hyper
Source:REFLEC BEAT colette -Summer-
Tags:pastel adventure gabber hardcore electronic instrumental acyl led-g toshiyuki kakuta konami bemani video game arcade rhythm
BeatmapID:2481303
BeatmapSetID:1190926

[Difficulty]
HPDrainRate:4
CircleSize:4
OverallDifficulty:6
ApproachRate:8
SliderMultiplier:1.7
SliderTickRate:1

[Events]
//Background and Video events
0,0,"496801.jpg",0,0
//Break Periods
2,42163,51879
//Storyboard Layer 0 (Background)
//Storyboard Layer 1 (Fail)
//Storyboard Layer 2 (Pass)
//Storyboard Layer 3 (Foreground)
//Storyboard Layer 4 (Overlay)
//Storyboard Sound Samples

[TimingPoints]
420,333.333333333333,4,2,1,90,1,0
11086,-100,4,2,1,80,0,0
21753,315.789473684211,4,2,1,50,1,0
23647,-133.333333333333,4,2,1,50,0,0
31858,-133.333333333333,4,2,0,60,0,0
41963,333.333333333333,4,2,1,70,1,0
63296,-100,4,2,1,60,0,0
68629,-100,4,2,1,70,0,0
76629,-100,4,2,1,90,0,0
91296,-100,4,2,1,60,0,0
92629,-100,4,2,1,90,0,0
93962,-100,4,2,1,60,0,0
95296,-100,4,2,1,90,0,0
105962,-100,4,2,1,5,0,0

[Colours]
Combo1 : 196,174,174
Combo2 : 245,146,146

[HitObjects]
178,219,420,6,0,L|158:33,2,170,2|8|0,3:2|0:0|3:0,0:0:0:0:
126,289,1253,1,0,3:0:0:0:
51,303,1419,2,0,P|77:232|96:223,1,85,10|0,0:0|0:0,0:0:0:0:
127,295,1753,6,0,P|236:299|325:303,1,170,0|8,3:0|0:0,0:0:0:0:
357,362,2252,1,2,0:0:0:0:
408,296,2419,6,0,L|398:201,1,85,0|2,3:0|3:2,0:0:0:0:
408,134,2753,2,0,L|313:144,1,85,8|2,0:0|0:0,0:0:0:0:
246,176,3086,5,0,3:0:0:0:
221,99,3253,1,2,0:0:0:0:
244,187,3419,2,0,P|238:245|220:303,1,85,8|2,0:0|0:0,0:0:0:0:
166,158,3753,6,0,P|82:140|1:78,1,170,0|8,3:0|0:0,0:0:0:0:
0,200,4253,1,2,0:0:0:0:
56,267,4419,2,0,P|107:259|143:235,1,85,0|0,3:0|0:0,0:0:0:0:
172,148,4753,2,0,P|222:159|252:182,1,85,8|2,0:0|0:0,0:0:0:0:
270,257,5086,5,0,3:0:0:0:
338,200,5253,1,2,3:2:0:0:
425,221,5419,1,8,0:0:0:0:
508,82,5753,6,0,L|498:15,3,42.5,0|0|0|0,3:0|3:0|3:0|3:0,0:0:0:0:
428,54,6086,2,0,L|438:121,3,42.5,8|0|2|0,0:0|0:0|0:0|0:0,0:0:0:0:
368,130,6419,5,0,3:0:0:0:
300,92,6586,1,2,0:0:0:0:
237,145,6753,6,0,L|140:133,1,85,8|2,0:0|0:0,0:0:0:0:
90,187,7086,2,0,L|78:284,1,85,0|2,3:0|0:0,0:0:0:0:
142,324,7419,2,0,L|239:336,1,85,8|2,0:0|0:0,0:0:0:0:
298,380,7753,2,0,L|445:358,2,127.5,0|2|2,3:0|0:0|0:0,0:0:0:0:
230,333,8419,5,0,3:0:0:0:
288,272,8586,2,0,L|382:286,1,85,2|8,0:0|0:0,0:0:0:0:
206,251,8919,5,2,0:0:0:0:
264,190,9086,2,0,L|358:204,1,85,0|2,3:0|0:0,0:0:0:0:
253,111,9419,2,0,L|159:97,1,85,8|2,0:0|0:0,0:0:0:0:
94,140,11086,5,0,3:0:0:0:
37,85,11253,2,0,L|51:-25,2,85,2|8|0,0:0|0:0|0:0,0:0:0:0:
151,80,11753,2,0,P|220:73|256:182,1,170,2|8,0:0|0:0,0:0:0:0:
208,205,12253,1,2,0:0:0:0:
257,272,12419,6,0,P|247:335|241:366,1,85,0|2,0:0|0:0,0:0:0:0:
171,384,12753,2,0,P|130:377|88:371,1,85,8|2,0:0|0:0,0:0:0:0:
39,301,13086,2,0,P|78:244|155:266,2,127.5,2|2|2,0:0|0:0|0:0,0:0:0:0:
88,371,13753,5,0,3:0:0:0:
171,384,13919,2,0,P|194:335|180:275,1,85,2|8,0:0|0:0,0:0:0:0:
131,245,14253,1,0,0:0:0:0:
71,190,14419,6,0,P|67:111|153:67,1,170,2|8,0:0|0:0,0:0:0:0:
196,123,14919,2,0,L|372:98,1,170,2|2,0:0|0:0,0:0:0:0:
432,58,15419,2,0,P|444:99|430:138,1,85,8|2,0:0|0:0,0:0:0:0:
365,173,15753,5,2,0:0:0:0:
431,218,15919,2,0,L|448:281,2,42.5,0|0|10,3:0|3:0|0:0,0:0:0:0:
392,318,16253,1,0,3:0:0:0:
328,269,16419,6,0,B|257:226|257:226|156:260,1,170,0|0,3:0|3:0,0:0:0:0:
106,291,16919,1,8,0:0:0:0:
63,217,17086,2,0,P|75:163|83:125,1,85,0|0,3:0|0:0,0:0:0:0:
69,39,17419,2,0,P|123:51|169:62,1,85,0|8,3:0|0:0,0:0:0:0:
235,36,17753,5,0,3:0:0:0:
274,109,17919,1,8,0:0:0:0:
350,76,18086,2,0,P|380:42|379:-8,1,85,0|8,3:0|0:0,0:0:0:0:
275,118,18419,6,0,L|287:227,1,85,0|8,3:0|0:0,0:0:0:0:
230,262,18669,1,0,0:0:0:0:
230,262,18753,2,0,L|121:274,1,85,0|8,3:0|0:0,0:0:0:0:
84,311,19086,6,0,B|63:288|63:288|83:162,2,127.5,4|8|8,3:2|0:0|0:0,0:0:0:0:
151,179,19753,2,0,B|174:158|174:158|300:178,2,127.5,4|8|8,3:2|0:0|0:0,0:0:0:0:
300,250,20419,6,0,L|366:259,3,42.5,4|0|8|0,3:2|0:0|0:0|0:0,0:0:0:0:
244,310,20753,2,0,L|201:303,3,42.5,4|0|8|0,3:2|0:0|0:0|0:0,0:0:0:0:
279,379,21086,1,4,3:2:0:0:
346,340,21253,6,0,B|385:324|385:324|432:340,1,85,0|12,3:0|0:2,0:0:0:0:
507,350,21586,2,0,B|468:366|468:366|421:350,1,85,8|4,0:0|3:2,0:0:0:0:
346,340,23647,6,0,L|335:209,2,127.500004863739,2|0|4,0:0|0:0|3:0,0:0:0:0:
346,340,26489,6,0,L|272:348,2,63.7500024318696,2|2|6,0:3|3:3|0:0,0:0:0:0:
346,340,28701,6,0,P|378:298|459:307,2,127.500004863739,2|0|4,0:0|0:0|3:0,0:0:0:0:
346,340,30595,6,0,L|352:398,15,31.8750012159348,0|0|2|0|0|0|2|0|0|0|2|0|2|2|2|2,3:0|3:0|3:2|3:0|3:0|3:0|3:2|3:0|3:0|3:0|3:2|3:0|3:2|3:2|3:2|3:2,0:0:0:0:
411,292,31858,6,0,B|449:236|409:195|405:191|398:183|380:176|251:137|262:-19|453:-105|602:-18|581:161|479:259|397:139|321:157|321:157|262:161|206:206|219:275|263:303|316:300|329:243,1,892.500034046174,4|8,0:0|0:0,0:0:0:0:
329,252,34384,6,0,B|303:211|240:184|179:233|146:282|179:301|189:335|100:404|33:376|10:327|10:327,2,382.500014591218,0|10|2,3:0|0:0|0:0,0:0:0:0:
312,329,36437,1,0,3:0:0:0:
382,371,36595,2,0,P|418:353|425:307,1,63.7500024318696,8|0,0:0|0:0,0:0:0:0:
486,277,36910,6,0,P|470:193|213:81,2,382.500014591218,4|8|8,0:0|0:0|0:0,0:0:0:0:
428,335,39121,1,2,0:0:0:0:
355,374,39437,6,0,B|296:337|278:274|301:213|301:213|277:275|217:312|138:297,1,382.500014591218,2|0,0:0|3:0,0:0:0:0:
58,349,40700,2,0,B|1:249|97:175|121:203|198:126|117:12,1,382.500014591218,2|8,0:0|0:0,0:0:0:0:
27,0,41963,5,4,0:0:0:0:
223,318,52629,6,0,L|95:311,2,127.5,4|2|2,0:0|0:0|0:0,0:0:0:0:
280,372,53296,1,2,0:0:0:0:
274,255,53962,6,0,B|263:209|290:197|310:205|323:166|295:118,2,127.5,2|2|2,0:0|0:0|0:0,0:0:0:0:
300,131,54796,6,0,B|263:105|263:105|199:118,1,85,4|2,0:0|3:2,0:0:0:0:
330,205,55129,2,0,B|367:231|367:231|431:218,1,85,2|4,3:0|0:0,0:0:0:0:
317,37,56629,5,2,0:0:0:0:
485,41,57296,2,0,L|283:51,2,170,4|4|4,0:0|0:0|0:0,0:0:0:0:
481,53,59296,6,0,P|479:118|407:138,2,127.5,4|2|2,0:0|0:0|0:0,0:0:0:0:
334,88,59962,2,0,P|323:150|395:190,2,127.5,4|2|2,0:0|0:0|0:0,0:0:0:0:
302,20,60629,5,4,0:0:0:0:
157,195,61962,6,0,B|165:241|165:241|104:311|104:311|114:372,1,170,4|2,0:0|3:0,0:0:0:0:
31,298,62462,1,2,3:2:0:0:
86,245,62629,2,0,B|50:218|50:218|-7:230,1,85,4|0,0:0|3:0,0:0:0:0:
108,341,62962,2,0,B|144:368|144:368|201:356,1,85,4|0,0:0|3:0,0:0:0:0:
211,288,63296,6,0,P|293:280|332:379,3,170,4|2|8|2,0:0|0:0|0:0|0:0,0:0:0:0:
410,384,64629,5,0,3:0:0:0:
483,346,64962,1,2,0:0:0:0:
512,266,65296,1,8,0:0:0:0:
488,183,65629,1,2,0:0:0:0:
414,150,65962,6,0,B|393:176|393:176|251:191,3,170,0|2|8|2,3:0|0:0|0:0|0:0,0:0:0:0:
199,135,67296,5,0,3:0:0:0:
112,152,67629,1,2,0:0:0:0:
77,233,67962,1,8,0:0:0:0:
95,315,68296,1,2,0:0:0:0:
168,359,68629,6,0,L|266:348,3,85,2|0|2|2,3:2|0:0|3:0|0:0,0:0:0:0:
308,291,69296,2,0,L|297:193,3,85,8|0|2|2,0:0|0:0|3:0|0:0,0:0:0:0:
352,140,69962,6,0,P|390:123|436:138,3,85,2|0|2|2,3:2|0:0|3:0|0:0,0:0:0:0:
478,199,70629,2,0,P|488:239|471:277,3,85,8|0|2|2,0:0|0:0|3:0|0:0,0:0:0:0:
397,294,71296,6,0,L|409:370,3,42.5,4|0|0|0,3:2|3:2|3:2|3:2,0:0:0:0:
324,307,71629,2,0,L|336:383,3,42.5,8|0|0|0,3:2|3:2|3:2|3:2,0:0:0:0:
265,256,71962,6,0,L|258:214,3,42.5,4|0|0|0,3:2|3:2|3:2|3:2,0:0:0:0:
192,269,72296,2,0,L|185:227,3,42.5,8|0|0|0,3:2|3:2|3:2|3:2,0:0:0:0:
150,339,72629,6,0,L|93:349,3,42.5,4|0|0|0,3:2|3:2|3:2|3:2,0:0:0:0:
220,373,72962,2,0,L|277:363,3,42.5,8|0|0|0,3:2|3:2|3:2|3:2,0:0:0:0:
319,310,73296,5,4,3:2:0:0:
432,372,73462,2,0,L|443:304,2,42.5,0|0|12,3:2|0:0|3:2,0:0:0:0:
384,274,73796,2,0,L|391:232,2,42.5,0|0|4,3:2|0:0|3:2,0:0:0:0:
129,323,75962,6,0,P|131:348|125:371,3,42.5,2|0|0|0,3:2|3:0|3:0|3:0,0:0:0:0:
73,271,76296,2,0,P|48:273|25:267,3,42.5,2|0|0|0,3:2|3:0|3:0|3:0,0:0:0:0:
129,214,76629,6,0,P|177:186|278:197,1,127.5,4|2,3:2|0:0,0:0:0:0:
258,183,76962,2,0,P|267:138|248:105,1,85,8|2,3:2|0:0,0:0:0:0:
174,87,77296,6,0,L|116:92,3,42.5,8|0|2|0,3:2|0:0|0:0|0:0,0:0:0:0:
72,42,77629,2,0,L|67:-16,3,42.5,8|0|2|0,3:2|3:0|3:2|3:0,0:0:0:0:
27,110,77962,6,0,L|36:210,1,85,4|0,3:2|0:0,0:0:0:0:
34,194,78212,1,2,0:0:0:0:
34,194,78296,1,8,3:2:0:0:
86,270,78462,1,2,0:0:0:0:
157,230,78629,6,0,P|175:211|204:203,3,42.5,8|0|2|0,3:2|0:0|0:0|0:0,0:0:0:0:
219,278,78962,2,0,P|237:295|245:324,3,42.5,8|0|2|0,3:2|3:0|3:2|3:0,0:0:0:0:
328,336,79296,6,0,L|313:197,1,127.5,4|2,3:2|0:0,0:0:0:0:
315,197,79629,2,0,B|356:174|356:174|408:197,1,85,8|0,3:2|0:0,0:0:0:0:
453,128,79962,6,0,L|444:63,3,42.5,8|0|2|0,3:2|0:0|0:0|0:0,0:0:0:0:
388,37,80296,2,0,L|323:46,3,42.5,8|0|2|0,3:2|3:0|3:2|3:0,0:0:0:0:
300,107,80629,6,0,L|203:120,1,85,4|0,3:2|0:0,0:0:0:0:
215,118,80879,1,2,0:0:0:0:
215,118,80962,1,8,3:2:0:0:
148,82,81129,1,2,0:0:0:0:
82,147,81296,6,0,L|74:203,1,42.5,10|2,3:2|0:0,0:0:0:0:
26,80,81546,2,0,L|34:24,1,42.5,2|10,0:0|0:0,0:0:0:0:
84,136,81796,1,2,3:2:0:0:
6,222,81962,6,0,L|19:358,1,127.5,4|0,3:2|0:0,0:0:0:0:
22,341,82296,2,0,P|58:307|101:313,1,85,8|2,3:2|0:0,0:0:0:0:
149,367,82629,6,0,L|205:360,3,42.5,8|0|2|0,3:2|0:0|0:0|0:0,0:0:0:0:
247,302,82962,2,0,L|240:246,3,42.5,8|0|2|0,3:2|3:0|3:2|3:0,0:0:0:0:
174,211,83296,6,0,B|163:110|163:110|178:81,2,127.5,4|2|2,3:2|0:0|0:0,0:0:0:0:
241,252,83962,2,0,B|285:260|309:231|294:223|315:182|376:204,2,127.5,4|2|0,3:2|0:2|0:2,3:2:0:0:
165,288,84629,6,0,L|171:346,4,42.5,4|0|0|2|8,3:2|3:0|3:2|3:2|0:0,0:0:0:0:
230,384,85129,1,2,0:0:0:0:
282,324,85296,2,0,P|348:318|390:382,1,127.5,4|2,0:0|0:0,0:0:0:0:
387,371,85629,2,0,L|490:361,1,85,8|2,0:0|0:0,0:0:0:0:
511,290,85962,6,0,B|503:223|503:223|482:208,1,85,4|8,0:0|0:0,0:0:0:0:
425,168,86296,2,0,B|407:154|407:154|398:84,1,85,4|8,0:0|0:0,0:0:0:0:
446,27,86629,2,0,B|427:50|427:50|301:65,2,127.5,4|8|8,0:0|0:0|0:0,0:0:0:0:
489,123,87296,5,4,0:0:0:0:
425,168,87462,1,0,0:0:0:0:
425,168,87546,2,0,L|444:302,1,127.5,4|4,0:0|0:0,0:0:0:0:
400,356,87962,5,4,0:0:0:0:
442,294,88129,1,0,0:0:0:0:
442,294,88212,2,0,B|416:282|416:282|301:293,1,127.5,4|4,0:0|0:0,0:0:0:0:
201,358,89962,6,0,P|158:306|89:316,2,127.5,4|4|4,0:0|0:0|0:0,0:0:0:0:
34,378,90629,1,4,0:0:0:0:
27,373,90712,2,0,P|12:326|37:285,1,85,0|4,0:0|0:0,0:0:0:0:
10,271,90962,2,0,P|62:235|104:246,1,85,0|4,0:0|0:0,0:0:0:0:
238,157,91629,6,0,L|220:-3,1,127.5,2|2,0:0|0:0,0:0:0:0:
222,42,91962,2,0,B|198:56|198:56|118:47,1,85,2|2,0:0|0:0,0:0:0:0:
93,150,92296,5,2,0:0:0:0:
23,115,92462,1,2,0:0:0:0:
27,192,92629,6,0,L|7:341,1,127.5,4|0,0:0|0:0,0:0:0:0:
10,333,92962,2,0,P|63:343|93:314,1,85,0|4,0:0|0:0,0:0:0:0:
146,271,93296,2,0,L|295:281,2,127.5,4|4|4,0:0|0:0|0:0,0:0:0:0:
432,192,95296,6,0,B|445:234|412:251|409:242|378:262|395:330,2,127.5,4|4|4,0:0|0:0|0:0,0:0:0:0:
491,141,95962,2,0,L|475:1,2,127.5,4|4|4,0:0|0:0|0:0,0:0:0:0:
375,136,96629,6,0,P|358:153|353:176,3,42.5,4|0|0|0,0:0|3:0|3:0|3:0,0:0:0:0:
307,233,96962,2,0,P|313:256|330:272,3,42.5,4|0|0|0,0:0|3:0|3:0|3:0,0:0:0:0:
394,315,97296,6,0,L|495:298,1,85,4|2,0:0|0:0,0:0:0:0:
477,300,97546,1,4,0:0:0:0:
477,300,97629,1,0,0:0:0:0:
512,231,97796,1,4,0:0:0:0:
475,162,97962,6,0,L|492:28,1,127.5,4|2,0:0|0:0,0:0:0:0:
493,24,98296,2,0,P|457:3|411:12,1,85,8|2,0:0|0:0,0:0:0:0:
365,73,98629,6,0,L|217:90,1,127.5,4|2,0:0|0:0,0:0:0:0:
226,93,98962,2,0,P|219:134|240:170,1,85,8|2,0:0|0:0,0:0:0:0:
309,217,99296,6,0,P|352:269|319:346,1,127.5,4|2,0:0|0:0,0:0:0:0:
332,340,99629,2,0,B|295:314|295:314|241:329,1,85,8|2,0:0|0:0,0:0:0:0:
200,374,99962,6,0,B|133:367|133:367|130:364|130:364|62:358,1,127.5,4|2,0:0|0:0,0:0:0:0:
57,352,100296,2,0,P|49:309|76:274,1,85,8|2,0:0|0:0,0:0:0:0:
148,274,100629,5,4,0:0:0:0:
124,199,100796,1,2,3:2:0:0:
198,214,100962,2,0,B|235:190|235:190|290:200,1,85,12|2,0:0|3:2,0:0:0:0:
320,259,101296,5,4,0:0:0:0:
383,213,101462,1,2,3:2:0:0:
443,270,101629,2,0,L|423:372,1,85,12|2,0:0|3:2,0:0:0:0:
348,381,101962,6,0,L|287:370,3,42.5,4|0|0|0,3:2|3:2|3:2|3:2,0:0:0:0:
260,311,102296,2,0,L|199:300,3,42.5,12|0|0|0,3:2|3:2|3:2|3:2,0:0:0:0:
319,261,102629,5,12,3:2:0:0:
386,306,102796,2,0,B|371:358|371:358|412:393,1,85,2|8,3:2|0:0,0:0:0:0:
321,252,103129,2,0,B|336:200|336:200|295:165,1,85,2|0,3:2|3:0,0:0:0:0:
402,108,103629,5,4,0:0:0:0:
256,192,103712,12,0,105962,0:0:0:0:
