osu file format v14

[General]
AudioFilename: audio.mp3
AudioLeadIn: 0
PreviewTime: 75942
Countdown: 0
SampleSet: Soft
StackLeniency: 0.5
Mode: 0
LetterboxInBreaks: 0
WidescreenStoryboard: 0

[Editor]
Bookmarks: 55212
DistanceSpacing: 0.5
BeatDivisor: 4
GridSize: 8
TimelineZoom: 3.299999

[Metadata]
Title:EMPEROR OF THE AVALON
TitleUnicode:EMPEROR OF THE AVALON
Artist:L.E.D.-G
ArtistUnicode:L.E.D.-G
Creator:Acylica
Version:Another
Source:REFLEC BEAT colette -Summer-
Tags:pastel adventure gabber hardcore electronic instrumental acyl led-g toshiyuki kakuta konami bemani video game arcade rhythm
BeatmapID:2481302
BeatmapSetID:1190926

[Difficulty]
HPDrainRate:5
CircleSize:5
OverallDifficulty:9
ApproachRate:9.3
SliderMultiplier:1.7
SliderTickRate:1

[Events]
//Background and Video events
0,0,"496801.jpg",0,0
//Break Periods
2,42163,52075
//Storyboard Layer 0 (Background)
//Storyboard Layer 1 (Fail)
//Storyboard Layer 2 (Pass)
//Storyboard Layer 3 (Foreground)
//Storyboard Layer 4 (Overlay)
//Storyboard Sound Samples

[TimingPoints]
420,333.333333333333,4,2,1,90,1,0
420,-125,4,2,1,90,0,0
2419,-95.2380952380952,4,2,1,90,0,0
3086,-125,4,2,1,90,0,0
5253,-66.6666666666667,4,2,1,90,0,0
5419,-80,4,2,1,90,0,0
6086,-125,4,2,1,90,0,0
7753,-95.2380952380952,4,2,1,90,0,0
11086,-95.2380952380952,4,2,1,80,0,0
11253,-125,4,2,1,80,0,0
17253,-100,4,2,1,80,0,0
21253,-66.6666666666667,4,2,1,80,0,0
21753,315.789473684211,4,2,1,50,1,0
31858,-125,4,2,0,60,0,0
41963,333.333333333333,4,2,1,70,1,0
52629,-200,4,2,1,70,0,0
54796,-100,4,2,1,70,0,0
55296,-200,4,2,1,70,0,0
57296,-100,4,2,1,70,0,0
59296,-100,4,2,1,70,0,0
61962,-200,4,2,1,70,0,0
62796,-133.333333333333,4,2,1,70,0,0
63296,-133.333333333333,4,2,1,60,0,0
68629,-133.333333333333,4,2,1,70,0,0
71962,-117.647058823529,4,2,1,70,0,0
73296,-100,4,2,1,70,0,0
76629,-100,4,2,1,90,0,0
91296,-100,4,2,1,60,0,0
92629,-100,4,2,1,90,0,0
93962,-100,4,2,1,60,0,0
95296,-100,4,2,1,90,0,0
105962,-100,4,2,1,5,0,0

[Colours]
Combo1 : 196,174,174
Combo2 : 245,146,146

[HitObjects]
0,340,420,5,2,3:2:0:0:
36,279,586,1,2,0:0:0:0:
123,365,753,2,0,L|110:280,1,68,8|2,0:0|0:2,0:0:0:0:
2,218,1086,5,0,3:0:0:0:
40,164,1253,1,0,3:0:0:0:
1,69,1419,2,0,L|84:76,1,68,10|0,0:0|0:0,0:0:0:0:
184,211,1753,5,0,3:0:0:0:
111,156,1919,1,0,0:0:0:0:
118,222,2086,1,8,0:0:0:0:
175,144,2253,1,2,0:0:0:0:
151,7,2420,6,0,L|129:107,1,89.2499972763063,0|2,3:0|3:2,0:0:0:0:
308,288,2753,2,0,L|217:268,1,89.2499972763063,8|2,0:0|0:0,0:0:0:0:
168,315,3086,5,0,3:0:0:0:
111,275,3253,1,2,0:0:0:0:
22,361,3419,2,0,L|10:274,1,68,8|2,0:0|0:0,0:0:0:0:
171,197,3753,5,0,3:0:0:0:
114,157,3920,1,0,3:0:0:0:
0,225,4086,2,0,L|74:215,1,68,8|2,0:0|0:0,0:0:0:0:
223,142,4419,6,0,P|263:83|241:16,1,136,0|8,3:0|0:0,0:0:0:0:
97,63,4919,1,2,0:0:0:0:
119,0,5086,1,0,3:0:0:0:
167,95,5253,6,0,P|165:64|181:37,1,63.7500024318696,2|0,3:2|0:0,0:0:0:0:
247,24,5419,2,0,L|352:13,1,106.25,8|0,0:0|0:0,0:0:0:0:
512,123,5753,5,0,3:0:0:0:
493,127,5836,1,0,3:0:0:0:
476,123,5919,1,0,3:0:0:0:
463,115,6003,1,0,3:0:0:0:
396,102,6086,6,0,L|404:161,1,34,8|0,0:0|0:0,0:0:0:0:
408,202,6253,1,2,0:0:0:0:
303,117,6419,5,0,3:0:0:0:
328,55,6586,1,2,0:0:0:0:
236,109,6753,2,0,P|196:98|157:73,1,68,8|2,0:0|0:0,0:0:0:0:
322,184,7086,2,0,P|339:228|347:262,1,68,0|2,3:0|0:0,0:0:0:0:
244,369,7419,1,8,0:0:0:0:
258,307,7586,1,2,0:0:0:0:
186,251,7753,6,0,L|65:234,1,89.2499972763062,0|2,3:0|0:0,0:0:0:0:
314,353,8003,1,2,0:0:0:0:
314,353,8086,2,0,L|413:340,1,89.2499972763062,8|2,0:0|0:0,0:0:0:0:
279,241,8419,5,0,3:0:0:0:
135,305,8586,1,2,0:0:0:0:
150,370,8753,1,8,0:0:0:0:
201,325,8919,5,2,0:0:0:0:
65,192,9086,1,0,3:0:0:0:
50,257,9253,1,2,0:0:0:0:
114,236,9419,5,8,0:0:0:0:
0,210,9586,1,2,0:0:0:0:
253,14,11086,5,0,3:0:0:0:
291,66,11253,2,0,L|372:51,1,68,2|8,0:0|0:0,0:0:0:0:
154,158,11586,5,0,0:0:0:0:
218,145,11753,2,0,L|228:70,2,68,2|0|8,0:0|3:0|0:0,0:0:0:0:
273,240,12253,6,0,L|255:378,1,136,2|2,0:0|0:0,0:0:0:0:
194,338,12753,1,8,0:0:0:0:
131,360,12919,1,2,0:0:0:0:
30,258,13086,5,2,0:0:0:0:
30,258,13169,1,0,0:0:0:0:
0,319,13336,1,2,0:0:0:0:
0,319,13419,1,8,0:0:0:0:
65,313,13586,1,2,0:0:0:0:
138,221,13753,5,0,3:0:0:0:
86,179,13920,2,0,L|99:86,1,68,2|8,0:0|0:0,0:0:0:0:
215,10,14253,5,0,0:0:0:0:
261,56,14419,2,0,L|338:46,2,68,2|0|8,0:0|3:0|0:0,0:0:0:0:
200,190,14919,6,0,L|216:327,1,136,2|2,0:0|0:0,0:0:0:0:
370,372,15419,1,8,0:0:0:0:
393,307,15586,1,2,0:0:0:0:
329,278,15753,5,2,0:0:0:0:
329,278,15836,2,0,L|319:216,1,34,0|0,0:0|3:0,0:0:0:0:
472,356,16003,1,0,3:0:0:0:
472,356,16087,2,0,L|413:363,1,34,10|0,0:0|0:0,0:0:0:0:
305,343,16253,1,0,3:0:0:0:
443,255,16419,5,0,3:0:0:0:
441,242,16502,1,0,0:0:0:0:
439,229,16585,1,8,0:0:0:0:
437,217,16668,1,0,0:0:0:0:
435,204,16752,1,0,3:0:0:0:
494,165,16919,1,8,0:0:0:0:
355,88,17086,5,0,3:0:0:0:
451,48,17253,2,0,L|383:39,1,42.5,8|0,0:0|0:0,0:0:0:0:
270,30,17419,5,0,3:0:0:0:
284,103,17586,1,8,0:0:0:0:
512,76,17753,5,0,3:0:0:0:
341,18,17919,5,8,0:0:0:0:
297,174,18086,1,0,3:0:0:0:
232,147,18252,1,8,0:0:0:0:
166,172,18419,1,0,3:0:0:0:
147,240,18586,2,0,P|152:259|162:276,3,28.3333333333333,8|0|0|0,0:0|0:0|0:0|3:0,0:0:0:0:
0,177,18919,1,8,0:0:0:0:
59,144,19086,6,0,L|75:33,1,85,4|0,3:2|0:0,0:0:0:0:
147,240,19336,1,8,0:0:0:0:
147,240,19419,2,0,L|133:363,1,85,0|8,0:0|0:0,0:0:0:0:
9,295,19753,6,0,P|43:265|95:267,1,85,4|0,3:2|0:0,0:0:0:0:
207,189,20003,1,8,0:0:0:0:
207,189,20086,2,0,P|228:226|285:248,1,85,0|8,0:0|0:0,0:0:0:0:
483,317,20419,5,4,3:2:0:0:
449,303,20503,1,0,0:0:0:0:
413,312,20586,1,8,0:0:0:0:
391,340,20669,1,0,0:0:0:0:
376,340,20753,5,4,3:2:0:0:
354,368,20836,1,0,0:0:0:0:
318,377,20919,1,8,0:0:0:0:
284,363,21003,1,0,0:0:0:0:
288,349,21086,5,4,3:2:0:0:
115,236,21253,2,0,L|120:268,4,31.8750012159348,0|0|0|0|12,3:0|0:0|3:0|0:0|0:2,0:0:0:0:
134,363,21586,2,0,L|129:331,4,31.8750012159348,8|0|8|0|4,0:0|0:0|0:0|0:0|3:2,0:0:0:0:
288,107,23647,5,2,0:0:0:0:
346,145,23963,1,0,0:0:0:0:
287,176,24278,1,4,3:0:0:0:
9,187,26489,5,2,0:3:0:0:
75,181,26647,1,2,3:3:0:0:
142,174,26805,1,6,0:0:0:0:
252,370,28701,5,2,0:0:0:0:
310,332,29017,1,0,0:0:0:0:
251,301,29332,1,4,3:0:0:0:
440,238,30595,6,0,L|445:170,3,42.5,0|0|2|0,3:0|3:0|3:2|3:0,0:0:0:0:
375,183,30910,2,0,L|330:131,3,42.5,0|0|2|0,3:0|3:0|3:2|3:0,0:0:0:0:
295,199,31226,2,0,L|227:194,3,42.5,0|0|2|0,3:0|3:0|3:2|3:0,0:0:0:0:
240,264,31542,2,0,L|188:308,3,42.5,2|2|2|2,3:2|3:2|3:2|3:2,0:0:0:0:
259,337,31858,5,4,0:0:0:0:
0,232,32331,1,0,3:0:0:0:
50,275,32489,2,0,P|94:238|186:247,1,136,2|8,0:0|0:0,0:0:0:0:
281,166,33121,5,0,3:0:0:0:
261,97,33279,1,2,0:0:0:0:
325,70,33437,2,0,P|328:28|316:-3,1,68,0|0,0:0|3:0,0:0:0:0:
465,193,33753,2,0,P|423:155|330:144,1,136,2|8,0:0|0:0,0:0:0:0:
281,166,34226,1,0,0:0:0:0:
177,84,34384,6,0,P|173:44|180:11,1,68,0|2,3:0|0:0,0:0:0:0:
243,8,34700,1,0,0:0:0:0:
131,132,34858,6,0,L|119:224,1,68,2|0,0:0|3:0,0:0:0:0:
71,245,35174,1,0,0:0:0:0:
160,341,35331,5,10,0:0:0:0:
192,280,35489,1,0,0:0:0:0:
34,320,35647,6,0,P|86:310|125:310,1,68,0|2,3:0|3:2,0:0:0:0:
251,314,35963,1,0,3:0:0:0:
223,371,36121,1,0,0:0:0:0:
345,334,36279,6,0,P|324:309|333:252,1,68,2|0,0:0|3:0,0:0:0:0:
388,251,36595,2,0,P|409:276|400:333,1,68,8|0,0:0|0:0,0:0:0:0:
266,226,36910,6,0,P|293:175|266:79,1,136,4|0,0:0|0:0,0:0:0:0:
220,68,37384,1,2,0:0:0:0:
163,105,37542,1,2,0:0:0:0:
49,0,37858,2,0,P|101:24|131:43,1,68,8|0,0:0|0:0,0:0:0:0:
181,5,38174,5,0,3:0:0:0:
91,94,38331,2,0,L|107:175,1,68,2|2,0:0|3:0,0:0:0:0:
118,225,38647,1,0,0:0:0:0:
82,325,38805,5,8,0:0:0:0:
184,244,39120,1,2,0:0:0:0:
236,364,39438,6,0,P|309:340|389:327,1,136,2|0,0:0|0:0,0:0:0:0:
485,369,39910,1,2,3:0:0:0:
448,312,40068,2,0,P|453:259|462:222,1,68,8|0,0:0|0:0,0:0:0:0:
323,126,40384,2,0,P|328:164|346:203,1,68,0|0,3:0|0:0,0:0:0:0:
403,198,40700,5,2,0:0:0:0:
326,256,40858,2,0,L|233:241,1,68,0|2,3:0|3:0,0:0:0:0:
219,302,41174,1,0,0:0:0:0:
112,229,41331,5,0,3:0:0:0:
95,165,41489,1,0,3:0:0:0:
161,147,41647,1,8,0:0:0:0:
178,211,41805,1,2,0:0:0:0:
73,371,41963,5,4,0:0:0:0:
112,276,52629,6,0,B|117:255|103:223|68:211|21:211|-7:236|-13:277|7:348|116:361|112:320|105:224|224:225|269:276|268:332|238:381|185:365,1,467.5,4|0,0:0|0:0,0:0:0:0:
123,357,54629,1,0,0:0:0:0:
188,366,54796,6,0,L|248:358,1,42.5,4|0,0:0|0:0,0:0:0:0:
349,384,54962,1,2,3:2:0:0:
378,320,55129,1,2,3:0:0:0:
359,384,55296,6,0,B|303:371|309:329|315:301|315:301|348:169|348:169|355:142|341:108|290:106,1,340,4|0,0:0|0:0,0:0:0:0:
294,106,57296,6,0,L|243:109,1,42.5,4|0,0:0|0:0,0:0:0:0:
124,55,57462,1,2,3:0:0:0:
294,116,57629,6,0,L|243:119,1,42.5,4|0,0:0|0:0,0:0:0:0:
123,45,57796,2,0,L|120:-6,1,42.5,0|0,3:0|0:0,0:0:0:0:
142,231,57963,5,4,0:0:0:0:
395,95,59296,5,4,0:0:0:0:
395,95,59379,2,0,L|374:145,1,42.5
321,90,59546,2,0,P|294:68|304:-6,1,85,2|0,0:0|0:0,0:0:0:0:
291,9,59796,1,2,0:0:0:0:
171,155,59962,5,4,0:0:0:0:
171,155,60046,2,0,L|223:146,1,42.5
265,192,60212,2,0,L|255:304,1,85,2|0,0:0|0:0,0:0:0:0:
256,292,60462,1,2,0:0:0:0:
40,177,60629,5,4,0:0:0:0:
40,177,61962,6,0,L|49:111,1,42.5,4|2,0:0|3:2,0:0:0:0:
103,183,62296,2,0,L|112:117,1,42.5,2|2,3:0|3:2,0:0:0:0:
195,300,62629,5,4,0:0:0:0:
254,271,62796,2,0,L|259:233,2,31.8750012159348,0|0|4,3:0|0:0|0:0,0:0:0:0:
353,353,63129,2,0,L|348:391,2,31.8750012159348,0|0|4,3:0|0:0|0:0,0:0:0:0:
473,295,63629,5,2,0:0:0:0:
468,228,63962,1,8,0:0:0:0:
419,176,64296,1,2,0:0:0:0:
350,169,64629,1,0,3:0:0:0:
94,53,64962,5,2,0:0:0:0:
118,117,65296,1,8,0:0:0:0:
53,140,65629,1,2,0:0:0:0:
29,77,65962,1,0,3:0:0:0:
53,290,66296,5,2,0:0:0:0:
123,324,66629,1,8,0:0:0:0:
206,304,66963,1,2,0:0:0:0:
254,237,67296,1,0,3:0:0:0:
425,376,67629,5,2,0:0:0:0:
465,266,67963,1,8,0:0:0:0:
354,227,68296,1,2,0:0:0:0:
314,334,68629,5,2,3:2:0:0:
259,291,68796,1,0,0:0:0:0:
186,373,68962,2,0,P|226:362|267:352,1,63.7500024318696,2|2,3:0|0:0,0:0:0:0:
62,283,69296,5,8,0:0:0:0:
133,318,69462,1,0,0:0:0:0:
133,318,69546,1,2,0:0:0:0:
133,318,69629,1,2,3:0:0:0:
69,356,69796,1,2,0:0:0:0:
6,211,69962,5,2,3:2:0:0:
43,152,70129,1,0,0:0:0:0:
126,186,70296,2,0,P|168:176|205:165,1,63.7500024318696,2|2,3:0|0:0,0:0:0:0:
312,246,70629,5,8,0:0:0:0:
278,309,70796,1,0,0:0:0:0:
278,309,70879,1,2,0:0:0:0:
278,309,70962,1,2,3:0:0:0:
345,312,71129,1,2,0:0:0:0:
192,368,71296,5,4,3:2:0:0:
190,357,71379,1,0,3:2:0:0:
188,346,71462,1,0,3:2:0:0:
187,336,71545,1,0,3:2:0:0:
185,327,71629,2,0,L|176:280,1,31.8750012159348,8|0,3:2|3:2,0:0:0:0:
279,154,71796,2,0,L|269:211,1,31.8750012159348,0|0,3:2|3:2,0:0:0:0:
134,240,71962,5,4,3:2:0:0:
118,236,72045,1,0,3:2:0:0:
102,233,72128,1,0,3:2:0:0:
87,230,72211,1,0,3:2:0:0:
71,227,72296,2,0,L|11:213,1,36.1250006890297,8|0,3:2|3:2,0:0:0:0:
260,360,72462,2,0,L|321:349,1,36.1250006890297,0|0,3:2|3:2,0:0:0:0:
438,298,72629,5,4,3:2:0:0:
440,266,72712,1,0,3:2:0:0:
443,234,72795,1,0,3:2:0:0:
446,202,72878,1,0,3:2:0:0:
448,191,72963,5,8,3:2:0:0:
416,188,73046,1,0,3:2:0:0:
384,185,73129,1,0,3:2:0:0:
352,182,73212,1,0,3:2:0:0:
338,181,73296,5,4,3:2:0:0:
462,38,73462,2,0,L|453:-2,3,28.3333333333333,0|0|0|12,3:2|0:0|0:0|3:2,0:0:0:0:
477,102,73796,2,0,L|486:142,3,28.3333333333333,0|0|0|4,3:2|0:0|0:0|3:2,0:0:0:0:
21,136,75962,5,2,3:2:0:0:
38,135,76046,1,0,3:0:0:0:
52,143,76129,2,0,L|64:206,1,42.5,0|0,3:0|3:0,0:0:0:0:
113,94,76296,5,2,3:2:0:0:
130,95,76380,1,0,3:0:0:0:
144,87,76463,2,0,L|156:24,1,42.5,0|0,3:0|3:0,0:0:0:0:
202,132,76629,6,0,L|311:119,1,85,4|0,3:2|0:0,0:0:0:0:
392,105,76879,1,2,0:0:0:0:
392,105,76962,2,0,L|331:114,1,42.5,8|0,3:2|0:0,0:0:0:0:
286,121,77129,1,2,0:0:0:0:
362,203,77296,6,0,P|344:184|325:174,1,42.5,8|0,3:2|0:0,0:0:0:0:
250,30,77462,2,0,P|236:57|219:71,1,42.5,2|0,0:0|0:0,0:0:0:0:
143,166,77629,1,8,3:2:0:0:
144,176,77712,1,0,3:0:0:0:
146,186,77795,1,2,3:2:0:0:
148,197,77878,1,0,3:0:0:0:
150,207,77962,6,0,L|139:327,1,85,4|0,3:2|0:0,0:0:0:0:
35,384,78212,1,2,0:0:0:0:
35,384,78295,2,0,L|26:323,1,42.5,8|0,3:2|0:0,0:0:0:0:
19,278,78462,1,2,0:0:0:0:
160,368,78629,6,0,L|106:361,1,42.5,8|0,3:2|0:0,0:0:0:0:
210,326,78796,2,0,L|264:333,1,42.5,2|0,0:0|0:0,0:0:0:0:
396,323,78962,1,8,3:2:0:0:
383,339,79045,1,0,3:0:0:0:
366,352,79128,1,2,3:2:0:0:
345,358,79211,1,0,3:0:0:0:
324,357,79296,6,0,L|309:235,1,85,4|0,3:2|0:0,0:0:0:0:
297,166,79546,1,2,0:0:0:0:
297,166,79629,2,0,L|306:227,1,42.5,8|0,3:2|0:0,0:0:0:0:
313,272,79796,1,2,0:0:0:0:
206,255,79962,6,0,P|232:243|244:222,1,42.5,8|0,3:2|0:0,0:0:0:0:
398,150,80129,2,0,P|372:144|347:122,1,42.5,2|0,0:0|0:0,0:0:0:0:
221,46,80296,1,8,3:2:0:0:
225,55,80379,1,0,3:0:0:0:
230,65,80462,1,2,3:2:0:0:
235,74,80545,1,0,3:0:0:0:
240,84,80629,6,0,L|344:68,1,85,4|0,3:2|0:0,0:0:0:0:
455,4,80879,1,2,0:0:0:0:
455,4,80963,2,0,L|464:65,1,42.5,8|0,3:2|0:0,0:0:0:0:
471,110,81129,1,2,0:0:0:0:
324,71,81296,5,10,3:2:0:0:
324,71,81379,2,0,P|319:21|352:0,1,85,2|2,0:0|0:0,0:0:0:0:
402,119,81629,2,0,P|361:148|326:130,1,85,10|2,0:0|3:2,0:0:0:0:
227,193,81962,6,0,L|245:318,1,85,4|0,3:2|0:0,0:0:0:0:
256,384,82212,1,2,0:0:0:0:
256,384,82296,2,0,L|245:320,1,42.5,8|0,3:2|0:0,0:0:0:0:
239,277,82462,1,2,0:0:0:0:
345,357,82629,6,0,P|332:340|306:329,1,42.5,8|0,3:2|0:0,0:0:0:0:
173,261,82796,2,0,P|151:280|126:286,1,42.5,2|0,0:0|0:0,0:0:0:0:
54,375,82962,1,8,3:2:0:0:
52,364,83045,1,0,3:0:0:0:
50,354,83128,1,2,3:2:0:0:
49,343,83211,1,0,3:0:0:0:
47,333,83296,6,0,L|58:235,1,85,4|0,3:2|0:0,0:0:0:0:
103,166,83546,1,2,0:0:0:0:
103,166,83629,2,0,P|113:193|110:211,1,42.5,8|0,3:2|0:0,0:0:0:0:
2,203,83796,1,2,0:0:0:0:
118,271,83962,6,0,L|235:286,1,85,8|2,3:2|0:0,0:0:0:0:
284,377,84212,1,0,0:0:0:0:
284,377,84295,2,0,P|294:350|291:332,1,42.5,8|0,3:2|3:0,0:0:0:0:
222,216,84463,1,2,3:2:0:0:
366,153,84629,5,4,3:2:0:0:
362,131,84712,1,0,3:0:0:0:
359,110,84795,1,0,3:2:0:0:
356,89,84878,1,2,3:2:0:0:
353,68,84962,1,8,0:0:0:0:
411,31,85129,1,2,0:0:0:0:
292,101,85296,6,0,L|200:83,1,85,4|0,0:0|0:0,0:0:0:0:
152,120,85546,1,2,0:0:0:0:
152,120,85629,2,0,L|57:99,1,85,8|2,0:0|0:0,0:0:0:0:
23,46,85962,5,4,0:0:0:0:
58,222,86129,1,8,0:0:0:0:
111,178,86296,1,4,0:0:0:0:
0,194,86462,1,8,0:0:0:0:
77,294,86629,5,4,0:0:0:0:
77,294,86712,2,0,L|70:346,1,42.5,0|8,0:0|0:0,0:0:0:0:
142,365,86879,2,0,P|162:320|139:272,1,85,8|0,0:0|0:0,0:0:0:0:
146,281,87129,1,8,0:0:0:0:
270,359,87296,6,0,L|407:340,2,127.5,4|4|4,0:0|0:0|0:0,0:0:0:0:
219,311,87962,1,4,0:0:0:0:
219,311,88046,1,0,0:0:0:0:
340,384,88212,1,4,0:0:0:0:
340,384,88296,1,0,0:0:0:0:
429,284,88462,1,4,0:0:0:0:
377,186,89962,5,4,0:0:0:0:
377,186,90046,2,0,P|383:159|373:138,1,42.5
320,103,90212,2,0,L|302:7,1,85,4|0,0:0|0:0,0:0:0:0:
302,9,90462,1,4,0:0:0:0:
222,151,90629,5,4,0:0:0:0:
222,151,90712,2,0,L|282:148,1,42.5
174,200,90879,2,0,P|147:173|83:180,1,85,4|0,0:0|0:0,0:0:0:0:
93,176,91129,1,4,0:0:0:0:
223,247,91629,6,0,L|215:391,1,127.5,2|2,0:0|0:0,0:0:0:0:
215,374,91962,1,2,0:0:0:0:
287,358,92129,1,2,0:0:0:0:
354,341,92296,1,2,0:0:0:0:
468,382,92462,1,2,0:0:0:0:
357,272,92629,6,0,P|348:216|373:131,2,127.5,4|4|4,0:0|0:0|0:0,0:0:0:0:
432,140,93296,1,4,0:0:0:0:
432,140,93379,2,0,P|447:88|405:49,1,85,0|4,0:0|0:0,0:0:0:0:
355,56,93629,2,0,P|392:37|432:51,1,85,0|4,0:0|0:0,0:0:0:0:
171,166,95296,6,0,L|156:28,1,127.5,4|4,0:0|0:0,0:0:0:0:
156,31,95629,2,0,P|196:10|241:27,1,85,0|4,0:0|0:0,0:0:0:0:
330,20,95962,5,4,0:0:0:0:
330,20,96046,2,0,L|321:88,1,42.5
380,138,96212,1,4,0:0:0:0:
380,138,96296,2,0,L|389:70,1,42.5
448,79,96462,1,4,0:0:0:0:
326,190,96629,6,0,L|338:253,3,42.5,4|0|0|0,0:0|3:0|3:0|3:0,0:0:0:0:
258,176,96962,2,0,L|250:134,3,42.5,4|0|0|0,0:0|3:0|3:0|3:0,0:0:0:0:
203,226,97296,2,0,P|155:220|111:210,1,85,4|2,0:0|0:0,0:0:0:0:
230,369,97546,1,4,0:0:0:0:
230,369,97629,2,0,P|239:318|255:272,1,85,0|4,0:0|0:0,0:0:0:0:
438,303,97962,6,0,L|286:326,1,127.5,4|2,0:0|0:0,0:0:0:0:
311,322,98296,1,8,0:0:0:0:
329,251,98462,1,2,0:0:0:0:
203,226,98629,6,0,P|175:186|189:126,1,85,4|2,0:0|0:0,0:0:0:0:
310,102,98879,1,2,0:0:0:0:
310,102,98962,2,0,L|300:202,1,85,8|2,0:0|0:0,0:0:0:0:
199,56,99296,6,0,B|236:73|263:44|255:36|281:9|345:39,1,127.5,4|2,0:0|0:0,0:0:0:0:
316,28,99629,1,8,0:0:0:0:
432,107,99796,1,2,0:0:0:0:
390,233,99962,6,0,L|377:150,1,85,4|2,0:0|0:0,0:0:0:0:
501,78,100212,1,2,0:0:0:0:
501,78,100296,2,0,P|503:132|472:161,1,85,8|2,0:0|0:0,0:0:0:0:
316,187,100629,6,0,L|323:240,1,42.5,4|0,0:0|0:0,0:0:0:0:
279,288,100796,2,0,L|328:308,1,42.5,2|0,3:2|0:0,0:0:0:0:
350,369,100962,2,0,L|392:336,1,42.5,12|0,0:0|0:0,0:0:0:0:
455,350,101129,2,0,L|448:297,1,42.5,2|0,3:2|0:0,0:0:0:0:
226,233,101296,6,0,P|200:222|171:229,1,42.5,4|0,0:0|0:0,0:0:0:0:
127,190,101462,2,0,P|116:216|123:245,1,42.5,2|0,3:2|0:0,0:0:0:0:
84,285,101629,2,0,P|110:296|139:289,1,42.5,12|0,0:0|0:0,0:0:0:0:
183,328,101795,2,0,P|194:302|187:273,1,42.5,2|0,3:2|0:0,0:0:0:0:
73,143,101962,5,4,3:2:0:0:
72,114,102045,1,0,3:2:0:0:
88,90,102128,1,0,3:2:0:0:
113,79,102211,1,0,3:2:0:0:
138,83,102296,1,12,3:2:0:0:
166,84,102379,1,0,3:2:0:0:
191,73,102462,1,0,3:2:0:0:
206,48,102547,1,0,3:2:0:0:
206,20,102630,5,12,3:2:0:0:
372,120,102796,2,0,L|377:152,4,21.25,2|0|2|0|8,3:2|0:0|3:2|0:0|0:0,0:0:0:0:
361,55,103129,2,0,L|356:23,4,21.25,2|0|2|0|0,3:2|0:0|3:2|0:0|3:0,0:0:0:0:
389,207,103629,5,4,0:0:0:0:
256,192,103712,12,0,105962,0:0:0:0:
