osu file format v14

[General]
AudioFilename: Nana.mp3
AudioLeadIn: 0
PreviewTime: 81525
Countdown: 0
SampleSet: Soft
StackLeniency: 0.7
Mode: 3
LetterboxInBreaks: 0
SpecialStyle: 0
WidescreenStoryboard: 0

[Editor]
DistanceSpacing: 1
BeatDivisor: 4
GridSize: 4
TimelineZoom: 1.4

[Metadata]
Title:Dokkin Summer Adventure
TitleUnicode:ドッキン☆サマーあばんちゅーる
Artist:L.E.D.-G + Qrispy Joybox + ARM feat. Nanahira
ArtistUnicode:L.E.D.-G + Qrispy Joybox + ARM feat. ななひら
Creator:Rinzler
Version:Normal Lv.5
Source:beatmania IIDX 22 PENDUAL
Tags:bemani beatstream confetto iosys loli dugem Lami Doyak koreapenguin Kencho Niva
BeatmapID:770842
BeatmapSetID:349561

[Difficulty]
HPDrainRate:7
CircleSize:4
OverallDifficulty:7
ApproachRate:5
SliderMultiplier:1.4
SliderTickRate:1

[Events]
//Background and Video events
0,0,"BG.jpg",0,0
//Break Periods
//Storyboard Layer 0 (Background)
//Storyboard Layer 1 (Fail)
//Storyboard Layer 2 (Pass)
//Storyboard Layer 3 (Foreground)
//Storyboard Sound Samples

[TimingPoints]
1026,333.333333333333,4,2,1,30,1,0
45692,-100,4,2,1,10,0,0
47692,-100,4,2,1,25,0,0
82359,-100,4,2,1,30,0,1
101025,-100,4,2,1,30,0,0

[HitObjects]
448,192,1026,5,0,0:0:0:0:
320,192,1359,1,0,0:0:0:0:
192,192,1692,1,0,0:0:0:0:
64,192,1859,128,0,2025:0:0:0:0:
448,192,2025,128,0,2359:0:0:0:0:
64,192,2359,1,0,0:0:0:30:Cymbal.wav
320,192,2359,1,4,0:0:0:0:
192,192,2692,1,0,0:0:0:0:
64,192,2859,1,0,0:0:0:0:
448,192,3192,1,0,0:0:0:0:
64,192,3359,1,0,0:0:0:0:
192,192,3525,1,0,0:0:0:0:
320,192,3692,1,0,0:0:0:0:
448,192,4025,1,0,0:0:0:0:
320,192,4192,1,0,0:0:0:0:
64,192,4525,1,0,0:0:0:30:Snare.wav
192,192,4692,1,0,0:0:0:30:Snare.wav
320,192,4859,1,0,0:0:0:30:Snare.wav
448,192,5025,1,4,0:0:0:0:
64,192,5025,1,0,0:0:0:30:Cymbal.wav
320,192,5359,1,0,0:0:0:0:
192,192,5525,1,0,0:0:0:0:
64,192,5859,1,0,0:0:0:0:
448,192,6025,1,0,0:0:0:0:
320,192,6192,1,0,0:0:0:0:
192,192,6359,1,0,0:0:0:0:
64,192,6525,1,0,0:0:0:0:
448,192,6692,1,0,0:0:0:0:
320,192,6859,1,0,0:0:0:0:
64,192,7192,1,0,0:0:0:30:Snare.wav
192,192,7359,1,0,0:0:0:30:Snare.wav
320,192,7525,1,0,0:0:0:30:Snare.wav
448,192,7692,1,4,0:0:0:0:
64,192,7692,128,0,8359:0:0:0:30:Cymbal.wav
320,192,8025,1,0,0:0:0:0:
192,192,8359,128,0,9025:0:0:0:0:
448,192,8692,1,0,0:0:0:0:
320,192,9025,128,0,9692:0:0:0:0:
64,192,9359,1,0,0:0:0:0:
448,192,9692,128,0,10359:0:0:0:0:
64,192,9859,1,0,0:0:0:30:Snare.wav
320,192,10025,1,0,0:0:0:30:Snare.wav
192,192,10192,1,0,0:0:0:30:Snare.wav
320,192,10359,1,4,0:0:0:0:
64,192,10359,1,0,0:0:0:30:Cymbal.wav
192,192,11025,1,4,0:0:0:0:
448,192,11025,1,0,0:0:0:30:Cymbal.wav
320,192,11692,1,4,0:0:0:0:
448,192,11692,1,0,0:0:0:30:Cymbal.wav
192,192,12025,1,4,0:0:0:0:
64,192,12025,1,0,0:0:0:30:Cymbal.wav
320,192,12359,1,0,0:0:0:30:Cymbal.wav
448,192,12359,1,4,0:0:0:0:
192,192,12692,1,0,0:0:0:30:Cymbal.wav
64,192,12692,1,4,0:0:0:0:
448,192,13025,1,0,0:0:0:30:Cymbal.wav
64,192,13025,1,4,0:0:0:0:
192,192,13359,1,8,0:0:0:0:
320,192,13359,1,4,0:0:0:0:
64,192,13692,1,4,0:0:0:0:
320,192,14025,1,4,0:0:0:0:
448,192,14025,1,8,0:0:0:0:
192,192,14359,1,4,0:0:0:0:
64,192,14692,1,8,0:0:0:0:
448,192,14692,1,4,0:0:0:0:
320,192,15025,1,4,0:0:0:0:
64,192,15359,1,8,0:0:0:0:
448,192,15359,1,4,0:0:0:0:
192,192,15692,1,4,0:0:0:0:
320,192,16025,1,8,0:0:0:0:
448,192,16025,1,4,0:0:0:0:
192,192,16359,1,4,0:0:0:0:
64,192,16692,1,8,0:0:0:0:
448,192,16692,1,4,0:0:0:0:
320,192,17025,1,4,0:0:0:0:
64,192,17359,1,4,0:0:0:0:
192,192,17359,1,8,0:0:0:0:
320,192,17692,1,4,0:0:0:0:
448,192,17859,1,4,0:0:0:0:
64,192,18025,1,4,0:0:0:0:
192,192,18192,1,4,0:0:0:0:
320,192,18359,1,0,0:0:0:30:Cymbal.wav
448,192,18359,1,4,0:0:0:0:
192,192,18525,1,0,0:0:0:0:
64,192,18692,1,4,0:0:0:0:
448,192,18859,1,4,0:0:0:0:
320,192,18859,1,0,0:0:0:30:Cymbal.wav
64,192,19192,1,0,0:0:0:0:
448,192,19359,128,0,19637:0:0:0:0:
192,192,19692,1,4,0:0:0:0:
64,192,19692,1,0,0:0:0:30:Cymbal.wav
448,192,19859,1,0,0:0:0:0:
320,192,20025,1,4,0:0:0:0:
192,192,20192,1,4,0:0:0:0:
64,192,20192,1,0,0:0:0:30:Cymbal.wav
448,192,20525,1,0,0:0:0:0:
320,192,20692,1,4,0:0:0:0:
192,192,20859,128,4,21192:0:0:0:0:
64,192,21192,1,4,0:0:0:0:
448,192,21359,1,4,0:0:0:0:
192,192,21525,128,4,21859:0:0:0:0:
64,192,21859,1,4,0:0:0:0:
320,192,22025,1,4,0:0:0:0:
448,192,22192,1,4,0:0:0:0:
320,192,22525,1,0,0:0:0:30:Snare.wav
192,192,22525,1,0,0:0:0:0:
64,192,22775,1,0,0:0:0:30:Snare.wav
448,192,22775,1,0,0:0:0:0:
192,192,23025,1,0,0:0:0:30:Snare.wav
320,192,23025,128,0,23359:0:0:0:0:
64,192,23692,1,4,0:0:0:0:
448,192,23692,1,0,0:0:0:30:Cymbal.wav
192,192,24025,1,8,0:0:0:0:
320,192,24025,1,4,0:0:0:0:
64,192,24359,1,4,0:0:0:0:
448,192,24692,1,4,0:0:0:0:
192,192,24692,1,8,0:0:0:0:
320,192,25025,1,4,0:0:0:0:
192,192,25359,1,8,0:0:0:0:
64,192,25359,1,4,0:0:0:0:
448,192,25692,1,4,0:0:0:0:
64,192,26025,1,8,0:0:0:0:
320,192,26025,1,4,0:0:0:0:
192,192,26359,1,4,0:0:0:0:
320,192,26692,1,8,0:0:0:0:
448,192,26692,1,4,0:0:0:0:
64,192,27025,1,4,0:0:0:0:
448,192,27359,1,4,0:0:0:0:
192,192,27359,1,8,0:0:0:0:
320,192,27692,1,4,0:0:0:0:
192,192,28025,1,8,0:0:0:0:
64,192,28025,1,4,0:0:0:0:
448,192,28359,1,4,0:0:0:0:
320,192,28692,1,8,0:0:0:0:
64,192,28692,1,4,0:0:0:0:
192,192,28859,1,4,0:0:0:0:
448,192,28859,1,0,0:0:0:30:Cymbal.wav
320,192,29025,1,4,0:0:0:0:
64,192,29359,1,8,0:0:0:0:
448,192,29359,1,4,0:0:0:0:
192,192,29692,1,4,0:0:0:0:
320,192,30025,1,4,0:0:0:0:
448,192,30025,1,8,0:0:0:0:
192,192,30359,1,4,0:0:0:0:
64,192,30692,1,8,0:0:0:0:
320,192,30692,1,4,0:0:0:0:
448,192,31025,1,4,0:0:0:0:
64,192,31359,1,4,0:0:0:0:
320,192,31359,1,8,0:0:0:0:
448,192,31692,1,0,0:0:0:30:Snare.wav
192,192,31692,1,8,0:0:0:0:
320,192,31859,1,0,0:0:0:30:Snare.wav
64,192,31859,1,8,0:0:0:0:
192,192,32192,1,8,0:0:0:0:
64,192,32192,1,0,0:0:0:30:Snare.wav
320,192,32359,1,8,0:0:0:0:
448,192,32359,1,0,0:0:0:30:Snare.wav
64,192,32692,1,0,0:0:0:30:Snare.wav
320,192,32692,1,8,0:0:0:0:
448,192,32859,1,8,0:0:0:0:
192,192,32859,1,0,0:0:0:30:Snare.wav
448,192,33192,1,8,0:0:0:0:
320,192,33192,1,0,0:0:0:30:Snare.wav
192,192,33359,1,0,0:0:0:30:Snare.wav
64,192,33359,1,8,0:0:0:0:
320,192,33692,1,4,0:0:0:0:
448,192,33692,128,0,34025:0:0:0:0:
64,192,34025,128,4,34359:0:0:0:0:
192,192,34359,1,4,0:0:0:0:
448,192,34359,1,0,0:0:0:30:Cymbal.wav
192,192,34692,1,4,0:0:0:0:
64,192,34692,1,8,0:0:0:0:
320,192,35025,1,4,0:0:0:0:
448,192,35359,1,4,0:0:0:0:
64,192,35359,1,8,0:0:0:0:
192,192,35692,1,4,0:0:0:0:
448,192,36025,1,4,0:0:0:0:
320,192,36025,1,8,0:0:0:0:
192,192,36359,1,4,0:0:0:0:
64,192,36692,1,4,0:0:0:0:
320,192,36692,1,8,0:0:0:0:
448,192,37025,1,4,0:0:0:0:
192,192,37359,1,8,0:0:0:0:
320,192,37359,1,4,0:0:0:0:
64,192,37692,1,4,0:0:0:0:
192,192,38025,1,4,0:0:0:0:
448,192,38025,1,8,0:0:0:0:
320,192,38359,1,4,0:0:0:0:
64,192,38692,1,8,0:0:0:0:
448,192,38692,1,4,0:0:0:0:
192,192,39025,1,4,0:0:0:0:
320,192,39359,1,4,0:0:0:0:
448,192,39359,1,8,0:0:0:0:
192,192,39525,1,4,0:0:0:0:
448,192,39692,1,0,0:0:0:30:Cymbal.wav
64,192,39692,1,4,0:0:0:0:
192,192,40025,1,8,0:0:0:0:
320,192,40025,1,4,0:0:0:0:
448,192,40359,1,4,0:0:0:0:
64,192,40692,1,4,0:0:0:0:
320,192,40692,1,8,0:0:0:0:
192,192,41025,1,0,0:0:0:30:Cymbal.wav
448,192,41025,1,4,0:0:0:0:
320,192,41359,1,4,0:0:0:0:
448,192,41359,1,8,0:0:0:0:
192,192,41525,1,4,0:0:0:0:
64,192,41525,1,0,0:0:0:30:Cymbal.wav
448,192,41692,1,4,0:0:0:0:
192,192,42025,1,4,0:0:0:0:
320,192,42025,1,8,0:0:0:0:
448,192,42359,1,4,0:0:0:0:
64,192,42359,1,0,0:0:0:30:Cymbal.wav
320,192,42692,1,4,0:0:0:0:
192,192,43025,1,4,0:0:0:0:
64,192,43025,1,0,0:0:0:30:Cymbal.wav
64,192,43359,1,4,0:0:0:0:
448,192,43525,1,8,0:0:0:0:
320,192,43525,1,0,0:0:0:30:Snare.wav
192,192,43859,1,0,0:0:0:30:Snare.wav
320,192,43859,1,8,0:0:0:0:
64,192,44192,1,0,0:0:0:30:Snare.wav
192,192,44192,1,8,0:0:0:0:
320,192,44359,1,8,0:0:0:0:
448,192,44359,1,0,0:0:0:30:Snare.wav
192,192,44692,1,4,0:0:0:0:
64,192,45025,128,0,45275:0:0:0:0:
448,192,45275,1,0,0:0:0:0:
448,192,45692,128,4,47692:0:0:0:0:
64,192,47692,1,4,0:0:0:0:
320,192,47692,1,0,0:0:0:30:Cymbal.wav
448,192,48359,1,4,0:0:0:0:
192,192,48359,1,0,0:0:0:30:Cymbal.wav
320,192,49025,1,0,0:0:0:30:Cymbal.wav
64,192,49025,1,4,0:0:0:0:
192,192,49359,1,0,0:0:0:30:Cymbal.wav
448,192,49359,1,4,0:0:0:0:
448,192,49692,1,4,0:0:0:0:
320,192,49692,1,0,0:0:0:0:
192,192,50025,1,4,0:0:0:0:
64,192,50025,1,0,0:0:0:0:
448,192,50359,1,4,0:0:0:0:
64,192,50359,128,0,51025:0:0:0:0:
192,192,50692,1,0,0:0:0:0:
448,192,51025,128,0,51692:0:0:0:0:
320,192,51025,1,0,0:0:0:0:
192,192,51359,1,0,0:0:0:0:
64,192,51692,128,4,52359:0:0:0:0:
320,192,51692,1,0,0:0:0:30:Snare.wav
192,192,52025,1,0,0:0:0:0:
448,192,52359,128,0,52692:0:0:0:0:
320,192,52359,1,0,0:0:0:0:
64,192,52692,1,0,0:0:0:0:
192,192,53025,1,0,0:0:0:30:Snare.wav
448,192,53025,1,4,0:0:0:0:
320,192,53359,1,4,0:0:0:0:
192,192,53692,1,4,0:0:0:0:
64,192,53692,1,0,0:0:0:30:Snare.wav
448,192,54025,1,4,0:0:0:0:
64,192,54359,1,0,0:0:0:30:Snare.wav
192,192,54692,1,0,0:0:0:30:Snare.wav
320,192,55025,128,0,55359:0:0:0:0:
64,192,55359,128,0,55692:0:0:0:0:
448,192,55692,128,4,56359:0:0:0:0:
192,192,55692,1,0,0:0:0:0:
320,192,56025,1,4,0:0:0:0:
64,192,56359,128,4,57025:0:0:0:0:
192,192,56359,1,0,0:0:0:0:
448,192,56692,1,4,0:0:0:0:
192,192,57025,128,4,57359:0:0:0:0:
320,192,57025,1,0,0:0:0:0:
448,192,57359,1,4,0:0:0:0:
320,192,57692,128,4,58025:0:0:0:0:
64,192,57692,1,0,0:0:0:0:
448,192,58025,1,4,0:0:0:0:
64,192,58025,128,0,58359:0:0:0:0:
192,192,58359,1,4,0:0:0:0:
448,192,58692,1,4,0:0:0:0:
320,192,59025,1,4,0:0:0:0:
64,192,59359,1,4,0:0:0:0:
192,192,59692,1,4,0:0:0:0:
448,192,60025,1,4,0:0:0:0:
320,192,60359,1,4,0:0:0:0:
192,192,60692,1,4,0:0:0:0:
64,192,61025,1,4,0:0:0:0:
448,192,61025,128,0,61692:0:0:0:0:
320,192,61359,1,4,0:0:0:0:
64,192,61692,128,4,62359:0:0:0:0:
192,192,61692,1,0,0:0:0:0:
320,192,62025,1,4,0:0:0:0:
448,192,62359,128,4,62692:0:0:0:0:
192,192,62359,1,0,0:0:0:0:
64,192,62692,1,4,0:0:0:0:
320,192,63025,128,4,63359:0:0:0:0:
448,192,63025,1,0,0:0:0:0:
192,192,63359,128,4,63692:0:0:0:0:
64,192,63359,1,0,0:0:0:0:
448,192,63692,1,4,0:0:0:0:
64,192,64025,1,4,0:0:0:0:
320,192,64359,1,4,0:0:0:0:
192,192,64692,1,4,0:0:0:0:
448,192,65025,1,4,0:0:0:0:
320,192,65359,1,0,0:0:0:0:
192,192,65692,1,4,0:0:0:0:
64,192,66025,1,0,0:0:0:0:
448,192,66359,1,4,0:0:0:0:
64,192,66692,1,4,0:0:0:0:
192,192,67025,1,4,0:0:0:0:
448,192,67359,1,4,0:0:0:0:
320,192,67692,1,4,0:0:0:0:
192,192,68025,1,4,0:0:0:0:
64,192,68359,1,4,0:0:0:0:
448,192,68692,128,0,69025:0:0:0:0:
64,192,69025,1,4,0:0:0:0:
320,192,69359,1,4,0:0:0:0:
192,192,69692,1,4,0:0:0:0:
448,192,70025,1,4,0:0:0:0:
64,192,70359,1,4,0:0:0:0:
192,192,70692,1,4,0:0:0:0:
448,192,71025,1,4,0:0:0:0:
320,192,71248,1,4,0:0:0:0:
192,192,71470,1,4,0:0:0:0:
64,192,71692,1,4,0:0:0:0:
448,192,72025,1,4,0:0:0:0:
320,192,72359,1,4,0:0:0:0:
192,192,72692,1,4,0:0:0:0:
448,192,73025,1,4,0:0:0:0:
320,192,73359,1,4,0:0:0:0:
192,192,73692,1,4,0:0:0:0:
64,192,74025,128,4,74359:0:0:0:0:
448,192,74359,1,4,0:0:0:0:
192,192,74692,1,4,0:0:0:0:
320,192,75025,1,4,0:0:0:0:
448,192,75359,1,4,0:0:0:0:
64,192,75692,1,4,0:0:0:0:
192,192,76025,1,0,0:0:0:0:
320,192,76359,1,0,0:0:0:0:
64,192,76581,1,0,0:0:0:0:
448,192,76803,1,0,0:0:0:0:
192,192,77025,1,4,0:0:0:0:
64,192,77025,1,0,0:0:0:0:
320,192,77192,1,0,0:0:0:0:
448,192,77359,1,0,0:0:0:0:
64,192,77525,1,0,0:0:0:0:
192,192,77692,1,0,0:0:0:0:
320,192,77859,1,0,0:0:0:0:
448,192,78025,1,0,0:0:0:0:
64,192,78192,1,0,0:0:0:0:
192,192,78359,1,4,0:0:0:0:
448,192,78359,1,0,0:0:0:0:
320,192,78525,1,0,0:0:0:0:
192,192,78692,1,0,0:0:0:0:
64,192,78859,1,0,0:0:0:0:
448,192,79025,1,0,0:0:0:0:
320,192,79192,1,0,0:0:0:0:
192,192,79359,1,0,0:0:0:0:
64,192,79525,1,0,0:0:0:0:
320,192,79692,1,4,0:0:0:0:
448,192,79692,1,0,0:0:0:0:
192,192,80025,1,4,0:0:0:0:
64,192,80025,1,0,0:0:0:0:
320,192,80359,1,4,0:0:0:0:
448,192,80359,1,0,0:0:0:0:
192,192,80692,1,4,0:0:0:0:
64,192,80692,1,0,0:0:0:0:
448,192,81025,128,4,81692:0:0:0:0:
320,192,81025,1,0,0:0:0:0:
64,192,81692,128,0,82025:0:0:0:0:
320,192,82025,1,0,0:0:0:0:
192,192,82192,1,0,0:0:0:0:
448,192,82359,1,4,0:0:0:0:
64,192,82359,1,0,0:0:0:0:
320,192,82525,1,0,0:0:0:30:Cymbal.wav
192,192,82692,1,4,0:0:0:0:
64,192,82692,1,8,0:0:0:0:
448,192,82859,1,4,0:0:0:0:
320,192,83192,1,4,0:0:0:0:
192,192,83359,1,4,0:0:0:0:
64,192,83359,1,8,0:0:0:0:
448,192,83525,1,0,0:0:0:0:
64,192,83692,1,4,0:0:0:0:
192,192,83859,1,0,0:0:0:0:
320,192,84025,1,4,0:0:0:0:
448,192,84025,1,8,0:0:0:0:
64,192,84192,1,4,0:0:0:0:
192,192,84525,1,4,0:0:0:0:
320,192,84692,1,8,0:0:0:0:
448,192,84692,1,4,0:0:0:0:
64,192,84859,1,0,0:0:0:0:
448,192,85025,1,4,0:0:0:0:
320,192,85192,1,0,0:0:0:0:
192,192,85359,1,4,0:0:0:0:
64,192,85359,1,8,0:0:0:0:
448,192,85525,1,4,0:0:0:0:
64,192,85859,1,4,0:0:0:0:
448,192,86025,1,8,0:0:0:0:
192,192,86025,1,4,0:0:0:0:
320,192,86192,1,0,0:0:0:0:
192,192,86359,1,4,0:0:0:0:
64,192,86525,1,0,0:0:0:0:
448,192,86692,1,4,0:0:0:0:
320,192,86692,1,8,0:0:0:0:
192,192,86859,1,4,0:0:0:0:
64,192,87192,1,4,0:0:0:0:
192,192,87359,1,8,0:0:0:0:
448,192,87359,1,4,0:0:0:0:
320,192,87525,1,0,0:0:0:0:
64,192,87692,1,4,0:0:0:0:
192,192,87692,1,0,0:0:0:30:Cymbal.wav
448,192,87859,1,0,0:0:0:0:
64,192,88025,1,4,0:0:0:0:
320,192,88025,1,0,0:0:0:0:
192,192,88192,1,0,0:0:0:30:Cymbal.wav
448,192,88192,1,4,0:0:0:0:
320,192,88525,1,4,0:0:0:0:
192,192,88692,1,8,0:0:0:0:
64,192,88692,1,4,0:0:0:0:
320,192,88859,1,0,0:0:0:0:
448,192,89025,1,4,0:0:0:0:
64,192,89025,1,0,0:0:0:30:Cymbal.wav
192,192,89192,1,0,0:0:0:0:
320,192,89359,1,4,0:0:0:0:
448,192,89359,1,8,0:0:0:0:
192,192,89525,1,0,0:0:0:30:Cymbal.wav
64,192,89525,1,4,0:0:0:0:
320,192,89859,1,4,0:0:0:0:
192,192,90025,1,8,0:0:0:0:
64,192,90025,1,4,0:0:0:0:
448,192,90192,1,4,0:0:0:0:
320,192,90359,1,0,0:0:0:30:Cymbal.wav
64,192,90359,1,4,0:0:0:0:
192,192,90525,1,0,0:0:0:0:
320,192,90692,1,8,0:0:0:0:
448,192,90692,1,4,0:0:0:0:
64,192,90859,1,4,0:0:0:0:
192,192,91025,1,0,0:0:0:0:
448,192,91192,1,4,0:0:0:0:
320,192,91359,1,4,0:0:0:0:
64,192,91359,1,8,0:0:0:0:
192,192,91525,1,0,0:0:0:0:
64,192,91692,1,4,0:0:0:0:
448,192,91692,1,0,0:0:0:30:Cymbal.wav
320,192,91859,1,0,0:0:0:0:
192,192,92025,1,8,0:0:0:0:
64,192,92025,1,4,0:0:0:0:
448,192,92192,1,4,0:0:0:0:
192,192,92359,128,0,93025:0:0:0:0:
320,192,92692,128,0,93025:0:0:0:0:
64,192,93025,1,0,0:0:0:30:Cymbal.wav
448,192,93025,1,4,0:0:0:0:
320,192,93192,1,0,0:0:0:0:
192,192,93359,1,8,0:0:0:0:
64,192,93359,1,4,0:0:0:0:
448,192,93525,1,4,0:0:0:0:
64,192,93859,1,4,0:0:0:0:
192,192,94025,1,8,0:0:0:0:
448,192,94025,1,4,0:0:0:0:
320,192,94192,1,0,0:0:0:0:
192,192,94359,1,4,0:0:0:0:
64,192,94525,1,0,0:0:0:0:
448,192,94692,1,4,0:0:0:0:
320,192,94692,1,8,0:0:0:0:
192,192,94859,1,4,0:0:0:0:
64,192,95192,1,4,0:0:0:0:
448,192,95359,1,8,0:0:0:0:
320,192,95359,1,4,0:0:0:0:
192,192,95525,1,0,0:0:0:0:
64,192,95692,1,4,0:0:0:0:
448,192,95859,1,0,0:0:0:0:
320,192,96025,1,4,0:0:0:0:
64,192,96025,1,8,0:0:0:0:
192,192,96192,1,4,0:0:0:0:
320,192,96525,1,4,0:0:0:0:
64,192,96692,1,8,0:0:0:0:
448,192,96692,1,4,0:0:0:0:
192,192,96859,1,0,0:0:0:0:
320,192,97025,1,4,0:0:0:0:
448,192,97192,1,0,0:0:0:0:
192,192,97359,1,4,0:0:0:0:
64,192,97359,1,8,0:0:0:0:
320,192,97525,1,4,0:0:0:0:
448,192,97859,1,4,0:0:0:0:
64,192,98025,1,8,0:0:0:0:
192,192,98025,1,4,0:0:0:0:
320,192,98192,1,0,0:0:0:0:
192,192,98359,1,4,0:0:0:0:
64,192,98359,1,0,0:0:0:30:Cymbal.wav
448,192,98525,1,0,0:0:0:0:
320,192,98692,1,4,0:0:0:0:
192,192,98859,1,0,0:0:0:30:Cymbal.wav
448,192,98859,1,4,0:0:0:0:
64,192,99025,1,0,0:0:0:0:
448,192,99192,1,4,0:0:0:0:
320,192,99359,1,8,0:0:0:0:
192,192,99525,1,4,0:0:0:0:
64,192,99692,1,4,0:0:0:0:
448,192,99692,1,0,0:0:0:30:Cymbal.wav
320,192,99859,1,0,0:0:0:0:
192,192,100025,1,8,0:0:0:0:
64,192,100192,1,0,0:0:0:30:Cymbal.wav
448,192,100192,1,4,0:0:0:0:
320,192,100359,128,0,101025:0:0:0:0:
192,192,100692,128,0,101025:0:0:0:0:
64,192,101025,1,4,0:0:0:0:
448,192,101025,128,0,101692:0:0:0:0:
448,192,103192,1,0,0:0:0:30:Snare.wav
320,192,103359,1,0,0:0:0:30:Snare.wav
192,192,103525,1,0,0:0:0:30:Snare.wav
448,192,103692,1,0,0:0:0:30:Snare.wav
64,192,103692,128,0,104359:0:0:0:0:
64,192,105025,128,0,106359:0:0:0:0:
192,192,105859,1,0,0:0:0:30:Snare.wav
320,192,106025,1,0,0:0:0:30:Snare.wav
448,192,106192,1,0,0:0:0:30:Snare.wav
320,192,106359,1,0,0:0:0:30:Snare.wav
192,192,106359,1,4,0:0:0:0:
448,192,106692,1,8,0:0:0:0:
64,192,106692,1,4,0:0:0:0:
192,192,107025,1,4,0:0:0:0:
448,192,107359,1,4,0:0:0:0:
320,192,107359,1,8,0:0:0:0:
192,192,107692,1,4,0:0:0:0:
448,192,108025,1,4,0:0:0:0:
64,192,108025,1,8,0:0:0:0:
320,192,108359,1,4,0:0:0:0:
192,192,108692,1,4,0:0:0:0:
448,192,108692,1,8,0:0:0:0:
64,192,109025,1,4,0:0:0:0:
448,192,109359,1,8,0:0:0:0:
320,192,109359,1,4,0:0:0:0:
192,192,109692,1,4,0:0:0:0:
448,192,110025,1,8,0:0:0:0:
64,192,110025,1,4,0:0:0:0:
320,192,110359,1,4,0:0:0:0:
64,192,110692,1,4,0:0:0:0:
192,192,110692,1,8,0:0:0:0:
320,192,111025,1,4,0:0:0:0:
448,192,111192,1,4,0:0:0:0:
64,192,111359,1,4,0:0:0:0:
192,192,111525,1,4,0:0:0:0:
448,192,111692,1,4,0:0:0:0:
320,192,111692,1,0,0:0:0:30:Cymbal.wav
192,192,111859,1,0,0:0:0:0:
64,192,112025,1,4,0:0:0:0:
448,192,112192,1,4,0:0:0:0:
320,192,112192,1,0,0:0:0:30:Cymbal.wav
64,192,112525,1,0,0:0:0:0:
448,192,112692,128,0,112970:0:0:0:0:
192,192,113025,1,4,0:0:0:0:
64,192,113025,1,0,0:0:0:30:Cymbal.wav
448,192,113192,1,0,0:0:0:0:
320,192,113359,1,4,0:0:0:0:
64,192,113525,1,0,0:0:0:30:Cymbal.wav
192,192,113525,1,4,0:0:0:0:
448,192,113859,1,0,0:0:0:0:
320,192,114025,1,4,0:0:0:0:
192,192,114192,128,4,114525:0:0:0:0:
64,192,114525,1,4,0:0:0:0:
448,192,114692,1,4,0:0:0:0:
192,192,114859,128,4,115192:0:0:0:0:
64,192,115192,1,4,0:0:0:0:
320,192,115359,1,4,0:0:0:0:
448,192,115525,1,4,0:0:0:0:
192,192,115859,1,0,0:0:0:30:Snare.wav
320,192,115859,1,0,0:0:0:0:
64,192,116109,1,0,0:0:0:30:Snare.wav
448,192,116109,1,0,0:0:0:0:
320,192,116359,128,0,116692:0:0:0:30:Snare.wav
192,192,116359,1,0,0:0:0:0:
64,192,117025,1,4,0:0:0:0:
448,192,117025,1,0,0:0:0:0:
192,192,117525,1,4,0:0:0:0:
64,192,117525,1,0,0:0:0:0:
192,192,118025,1,4,0:0:0:0:
320,192,118025,128,0,118442:0:0:0:0:
64,192,118692,128,4,120359:0:0:0:0:
448,192,118692,128,0,120359:0:0:0:0:
