osu file format v14

[General]
AudioFilename: audio.mp3
AudioLeadIn: 0
PreviewTime: 81692
Countdown: 1
SampleSet: None
StackLeniency: 0.7
Mode: 1
LetterboxInBreaks: 0
WidescreenStoryboard: 1

[Editor]
DistanceSpacing: 1.6
BeatDivisor: 6
GridSize: 4
TimelineZoom: 1.7

[Metadata]
Title:Dokkin Summer Adventure
TitleUnicode:ドッキン☆サマーあばんちゅーる
Artist:L.E.D.-G + Qrispy Joybox + ARM feat. Nanahira
ArtistUnicode:L.E.D.-G + Qrispy Joybox + ARM feat. Nanahira
Creator:404 AccNotFound
Version:Inner Oni
Source:beatmania IIDX 22 PENDUAL
Tags:
BeatmapID:1241419
BeatmapSetID:583393

[Difficulty]
HPDrainRate:5
CircleSize:5
OverallDifficulty:6
ApproachRate:5
SliderMultiplier:1.9
SliderTickRate:1

[Events]
//Background and Video events
0,0,"C5bqAalUwAU65l9.jpg",0,0
//Break Periods
//Storyboard Layer 0 (Background)
//Storyboard Layer 1 (Fail)
//Storyboard Layer 2 (Pass)
//Storyboard Layer 3 (Foreground)
//Storyboard Sound Samples

[TimingPoints]
1026,333.333333333333,4,1,0,100,1,0
2359,-66.6666666666667,4,1,0,100,0,0
2692,-100,4,1,0,100,0,0
4525,-66.6666666666667,4,1,0,100,0,0
5359,-100,4,1,0,100,0,0
7192,-66.6666666666667,4,1,0,100,0,0
8025,-100,4,1,0,100,0,0
9859,-66.6666666666667,4,1,0,100,0,0
10692,-100,4,1,0,100,0,0
11025,-66.6666666666667,4,1,0,100,0,0
11359,-100,4,1,0,100,0,0
13025,-100,4,1,0,100,0,0
23525,-100,4,1,0,100,0,0
34359,-100,4,1,0,100,0,0
45025,-100,4,1,0,100,0,0
45525,-133.333333333333,4,1,0,100,0,0
47692,-125,4,1,0,100,0,0
48359,-117.647058823529,4,1,0,100,0,0
49025,-111.111111111111,4,1,0,100,0,0
49692,-105.263157894737,4,1,0,100,0,0
50359,-100,4,1,0,100,0,0
55359,-66.6666666666667,4,1,0,100,0,0
55692,-100,4,1,0,100,0,0
58359,-83.3333333333333,4,1,0,100,0,0
59025,-100,4,1,0,100,0,0
60692,-83.3333333333333,4,1,0,100,0,0
61025,-133.333333333333,4,1,0,100,0,0
63692,-100,4,1,0,100,0,0
64359,-80,4,1,0,100,0,0
64692,-66.6666666666667,4,1,0,100,0,0
65025,-100,4,1,0,100,0,0
65692,-133.333333333333,4,1,0,100,0,0
66025,-66.6666666666667,4,1,0,100,0,0
66359,-100,4,1,0,100,0,0
67692,-66.6666666666667,4,1,0,100,0,0
68692,-100,4,1,0,100,0,0
71025,-66.6666666666667,4,1,0,100,0,0
71692,-100,4,1,0,100,0,0
77025,-142.857142857143,4,1,0,100,0,0
78359,-125,4,1,0,100,0,0
79692,-111.111111111111,4,1,0,100,0,0
82359,-100,4,1,0,100,0,1
92359,-133.333333333333,4,1,0,100,0,0
93025,-100,4,1,0,100,0,1
101025,-100,4,1,0,100,0,0
106359,-100,4,1,0,100,0,0
118692,-66.6666666666667,4,1,0,100,0,0

[HitObjects]
180,208,2359,5,4,0:1:0:0:
184,200,2692,1,2,0:1:0:0:
120,100,2942,1,2,0:1:0:0:
184,200,3025,1,0,0:1:0:0:
184,200,3192,1,2,0:1:0:0:
184,200,3525,1,2,0:1:0:0:
184,200,3692,1,0,0:1:0:0:
184,200,3859,1,0,0:1:0:0:
184,200,4025,1,2,0:1:0:0:
184,200,4192,1,2,0:1:0:0:
184,200,4525,1,6,0:1:0:0:
184,200,4692,1,6,0:1:0:0:
184,200,4859,1,6,0:1:0:0:
184,200,5025,1,4,0:1:0:0:
184,200,5359,1,2,0:1:0:0:
184,200,5609,1,2,0:1:0:0:
184,200,5692,1,0,0:1:0:0:
184,200,5859,1,2,0:1:0:0:
184,200,6192,1,2,0:1:0:0:
184,200,6359,1,0,0:1:0:0:
184,200,6525,1,2,0:1:0:0:
184,200,6692,1,2,0:1:0:0:
184,200,6859,1,2,0:1:0:0:
184,200,7192,1,4,0:1:0:0:
184,200,7358,1,4,0:1:0:0:
184,200,7525,1,4,0:1:0:0:
184,200,7692,1,6,0:1:0:0:
184,200,8025,1,2,0:1:0:0:
184,200,8275,1,2,0:1:0:0:
184,200,8359,1,0,0:1:0:0:
184,200,8525,1,2,0:1:0:0:
68,72,8692,1,0,0:0:0:0:
184,200,8859,1,2,0:1:0:0:
184,200,9025,1,0,0:1:0:0:
184,200,9192,1,0,0:1:0:0:
184,200,9359,1,0,0:1:0:0:
184,200,9525,1,2,0:1:0:0:
120,96,9692,1,0,0:0:0:0:
184,200,9859,1,6,0:1:0:0:
216,92,10025,1,6,0:0:0:0:
216,92,10192,1,6,0:0:0:0:
216,92,10359,1,4,0:0:0:0:
184,200,10692,5,2,0:1:0:0:
184,200,11025,1,4,0:1:0:0:
184,200,11192,1,4,0:1:0:0:
184,200,11359,1,2,0:1:0:0:
184,200,11692,1,2,0:1:0:0:
144,88,11775,1,2,0:0:0:0:
184,200,11859,1,2,0:1:0:0:
144,88,11942,1,0,0:0:0:0:
144,88,12025,1,2,0:0:0:0:
144,88,12109,1,2,0:0:0:0:
144,88,12192,1,0,0:0:0:0:
144,88,12275,1,0,0:0:0:0:
184,200,12358,1,2,0:1:0:0:
160,96,12442,1,2,0:0:0:0:
184,200,12525,1,2,0:1:0:0:
200,96,12609,1,0,0:0:0:0:
184,200,12691,1,2,0:1:0:0:
264,176,12775,1,0,0:0:0:0:
184,200,12858,1,0,0:1:0:0:
268,192,12942,1,2,0:0:0:0:
256,216,13025,5,0,0:0:0:0:
220,144,13192,1,2,0:0:0:0:
220,144,13359,1,0,0:0:0:0:
220,144,13525,1,2,0:0:0:0:
220,144,13609,1,8,0:0:0:0:
220,144,13692,1,0,0:0:0:0:
220,144,13859,1,2,0:0:0:0:
220,144,14025,1,2,0:0:0:0:
220,144,14192,1,0,0:0:0:0:
144,120,14248,1,0,0:0:0:0:
140,116,14525,1,0,0:0:0:0:
52,148,14692,1,2,0:0:0:0:
156,76,14859,1,0,0:0:0:0:
160,96,15025,1,0,0:0:0:0:
160,96,15192,1,2,0:0:0:0:
156,88,15359,1,2,0:0:0:0:
156,88,15525,1,2,0:0:0:0:
160,124,15859,1,0,0:0:0:0:
160,124,15942,1,2,0:0:0:0:
160,124,16025,1,0,0:0:0:0:
160,124,16109,1,2,0:0:0:0:
160,124,16192,1,0,0:0:0:0:
160,124,16359,1,2,0:0:0:0:
160,124,16414,1,2,0:0:0:0:
160,124,16609,1,0,0:0:0:0:
160,124,16650,1,2,0:0:0:0:
160,124,16859,1,2,0:0:0:0:
160,120,17025,1,0,0:0:0:0:
160,120,17081,1,2,0:0:0:0:
160,120,17275,1,2,0:0:0:0:
160,120,17525,1,0,0:0:0:0:
168,96,17692,1,2,0:0:0:0:
168,96,17859,1,2,0:0:0:0:
168,96,18025,1,2,0:0:0:0:
168,96,18192,1,2,0:0:0:0:
224,184,18359,1,4,0:0:0:0:
224,184,18525,1,4,0:0:0:0:
224,184,18692,1,4,0:0:0:0:
224,184,18859,1,6,0:0:0:0:
136,104,19192,1,0,0:0:0:0:
140,112,19275,1,0,0:0:0:0:
140,112,19359,1,2,0:0:0:0:
64,160,19692,1,6,0:0:0:0:
64,160,19859,1,6,0:0:0:0:
64,160,20025,1,6,0:0:0:0:
108,156,20192,1,4,0:0:0:0:
216,168,20525,1,2,0:0:0:0:
220,100,20581,1,0,0:0:0:0:
220,100,20637,1,0,0:0:0:0:
188,176,20692,1,2,0:0:0:0:
392,148,20859,5,0,0:0:0:0:
300,168,21192,1,0,0:0:0:0:
300,168,21359,1,2,0:0:0:0:
300,168,21525,1,0,0:0:0:0:
300,168,21859,1,0,0:0:0:0:
300,168,22025,1,2,0:0:0:0:
300,168,22192,1,0,0:0:0:0:
200,156,22525,1,2,0:0:0:0:
200,156,22775,1,2,0:0:0:0:
200,156,23025,1,2,0:0:0:0:
288,88,23414,1,2,0:0:0:0:
288,88,23470,1,2,0:0:0:0:
120,100,23525,1,0,0:0:0:0:
92,224,23859,1,0,0:0:0:0:
92,224,24025,1,2,0:0:0:0:
92,224,24192,1,0,0:0:0:0:
92,224,24359,1,0,0:0:0:0:
92,224,24526,1,2,0:0:0:0:
92,224,24859,1,2,0:0:0:0:
92,224,25192,1,0,0:0:0:0:
92,224,25359,1,2,0:0:0:0:
92,224,25525,1,0,0:0:0:0:
92,224,25692,1,2,0:0:0:0:
92,224,25859,1,2,0:0:0:0:
208,88,26025,1,0,0:0:0:0:
92,224,26192,1,2,0:0:0:0:
92,224,26525,1,0,0:0:0:0:
92,224,26692,1,0,0:0:0:0:
92,224,26859,1,2,0:0:0:0:
92,224,27025,1,2,0:0:0:0:
92,224,27192,1,0,0:0:0:0:
208,76,27359,1,2,0:0:0:0:
92,224,27525,1,0,0:0:0:0:
92,224,27859,1,0,0:0:0:0:
92,224,28025,1,0,0:0:0:0:
92,224,28192,1,2,0:0:0:0:
92,224,28359,1,2,0:0:0:0:
92,224,28525,1,0,0:0:0:0:
92,224,28692,1,2,0:0:0:0:
92,224,28859,5,0,0:0:0:0:
92,224,29192,1,0,0:0:0:0:
92,224,29359,1,2,0:0:0:0:
92,224,29525,1,0,0:0:0:0:
92,224,29692,1,0,0:0:0:0:
92,224,29859,1,2,0:0:0:0:
92,224,30192,1,2,0:0:0:0:
92,224,30525,1,0,0:0:0:0:
92,224,30692,1,2,0:0:0:0:
92,224,30859,1,0,0:0:0:0:
92,224,31025,1,0,0:0:0:0:
216,96,31359,1,2,0:0:0:0:
92,224,31692,1,4,0:0:0:0:
92,224,31859,1,4,0:0:0:0:
92,224,32192,1,6,0:0:0:0:
92,224,32359,1,6,0:0:0:0:
92,224,32692,1,4,0:0:0:0:
92,224,32859,1,4,0:0:0:0:
92,224,33192,1,6,0:0:0:0:
92,224,33359,1,6,0:0:0:0:
92,224,33692,1,6,0:0:0:0:
92,224,34025,1,0,0:0:0:0:
136,124,34109,1,0,0:0:0:0:
136,124,34192,1,2,0:0:0:0:
136,124,34275,1,2,0:0:0:0:
92,224,34359,5,0,0:0:0:0:
276,120,34525,1,2,0:0:0:0:
276,120,34692,1,0,0:0:0:0:
276,120,34859,1,2,0:0:0:0:
276,120,35025,1,0,0:0:0:0:
276,120,35192,1,2,0:0:0:0:
276,120,35359,1,0,0:0:0:0:
276,120,35526,1,2,0:0:0:0:
276,120,35858,1,2,0:0:0:0:
276,120,36025,1,0,0:0:0:0:
276,120,36192,1,2,0:0:0:0:
276,120,36358,1,0,0:0:0:0:
276,120,36525,1,0,0:0:0:0:
276,120,36692,1,2,0:0:0:0:
92,224,37025,1,0,0:0:0:0:
276,120,37191,1,2,0:0:0:0:
276,120,37358,1,0,0:0:0:0:
276,120,37525,1,2,0:0:0:0:
276,120,37691,1,0,0:0:0:0:
276,120,37858,1,2,0:0:0:0:
276,120,38025,1,0,0:0:0:0:
276,120,38192,1,2,0:0:0:0:
92,224,38359,1,0,0:0:0:0:
276,120,38525,1,0,0:0:0:0:
276,120,38692,1,2,0:0:0:0:
276,120,38859,1,0,0:0:0:0:
276,120,39025,1,0,0:0:0:0:
276,120,39192,1,2,0:0:0:0:
276,120,39359,1,2,0:0:0:0:
176,96,39442,1,2,0:0:0:0:
276,120,39526,1,0,0:0:0:0:
92,224,39692,1,2,0:0:0:0:
176,96,39775,1,2,0:0:0:0:
176,96,39859,1,0,0:0:0:0:
152,56,39942,1,2,0:0:0:0:
48,96,40025,1,0,0:0:0:0:
48,96,40192,1,2,0:0:0:0:
276,120,40358,1,0,0:0:0:0:
276,120,40525,1,2,0:0:0:0:
276,120,40692,1,0,0:0:0:0:
276,120,40859,1,2,0:0:0:0:
92,224,41025,1,0,0:0:0:0:
276,120,41191,1,2,0:0:0:0:
276,120,41359,1,2,0:0:0:0:
276,120,41525,1,0,0:0:0:0:
276,120,41691,1,0,0:0:0:0:
276,120,41858,1,2,0:0:0:0:
276,120,42025,1,2,0:0:0:0:
276,120,42192,1,0,0:0:0:0:
92,224,42359,1,0,0:0:0:0:
276,120,42692,1,2,0:0:0:0:
276,120,43025,1,0,0:0:0:0:
276,120,43192,1,2,0:0:0:0:
276,120,43359,1,2,0:0:0:0:
276,120,43526,1,0,0:0:0:0:
276,120,43858,1,4,0:0:0:0:
276,120,44025,1,6,0:0:0:0:
276,120,44192,1,6,0:0:0:0:
276,120,44358,1,4,0:0:0:0:
276,120,44525,1,6,0:0:0:0:
276,120,44692,1,4,0:0:0:0:
276,120,44859,1,6,0:0:0:0:
160,96,45025,5,0,0:0:0:0:
160,96,45109,1,0,0:0:0:0:
160,96,45192,1,0,0:0:0:0:
160,96,45275,1,2,0:0:0:0:
128,200,45525,5,0,0:0:0:0:
128,200,45609,1,0,0:0:0:0:
128,200,45692,1,2,0:0:0:0:
128,200,45775,1,0,0:0:0:0:
52,124,46275,1,2,0:0:0:0:
52,124,46359,1,2,0:0:0:0:
52,124,46442,1,0,0:0:0:0:
128,136,46525,1,0,0:0:0:0:
52,124,46609,1,2,0:0:0:0:
156,52,46775,1,2,0:0:0:0:
152,72,46942,1,2,0:0:0:0:
152,72,47025,1,0,0:0:0:0:
92,112,47359,1,2,0:0:0:0:
92,112,47525,1,2,0:0:0:0:
232,176,47692,1,0,0:0:0:0:
232,176,47803,1,0,0:0:0:0:
232,176,47914,1,0,0:0:0:0:
232,176,48025,1,2,0:0:0:0:
232,176,48137,1,2,0:0:0:0:
232,176,48248,1,2,0:0:0:0:
232,176,48359,1,0,0:0:0:0:
232,176,48470,1,0,0:0:0:0:
232,176,48581,1,0,0:0:0:0:
232,176,48692,1,2,0:0:0:0:
232,176,48804,1,2,0:0:0:0:
232,176,48915,1,2,0:0:0:0:
232,176,49025,1,0,0:0:0:0:
232,176,49136,1,0,0:0:0:0:
232,176,49247,1,2,0:0:0:0:
232,176,49358,1,2,0:0:0:0:
232,176,49470,1,0,0:0:0:0:
232,176,49581,1,2,0:0:0:0:
232,176,49692,1,0,0:0:0:0:
232,176,49803,1,2,0:0:0:0:
232,176,49914,1,2,0:0:0:0:
232,176,50025,1,2,0:0:0:0:
232,176,50137,1,0,0:0:0:0:
232,176,50248,1,2,0:0:0:0:
236,76,50359,5,0,0:0:0:0:
40,128,50581,1,0,0:0:0:0:
140,104,50692,1,2,0:0:0:0:
156,84,50914,1,2,0:0:0:0:
156,84,51025,1,0,0:0:0:0:
156,84,51137,1,0,0:0:0:0:
156,84,51248,1,2,0:0:0:0:
156,84,51359,1,0,0:0:0:0:
296,180,51581,1,0,0:0:0:0:
280,168,51692,1,2,0:0:0:0:
248,152,51914,1,0,0:0:0:0:
248,152,52025,1,0,0:0:0:0:
248,152,52248,1,0,0:0:0:0:
248,152,52359,1,2,0:0:0:0:
264,120,52692,1,2,0:0:0:0:
264,120,52803,1,0,0:0:0:0:
264,120,52914,1,0,0:0:0:0:
260,124,53025,1,0,0:0:0:0:
256,128,53248,1,0,0:0:0:0:
256,132,53359,1,2,0:0:0:0:
256,132,53581,1,0,0:0:0:0:
256,132,53692,1,2,0:0:0:0:
256,132,53914,1,0,0:0:0:0:
256,132,54025,1,2,0:0:0:0:
256,128,54248,1,2,0:0:0:0:
256,132,54359,1,0,0:0:0:0:
256,132,54470,1,0,0:0:0:0:
256,132,54581,1,0,0:0:0:0:
256,132,54692,1,2,0:0:0:0:
256,132,54803,1,2,0:0:0:0:
256,132,54914,1,2,0:0:0:0:
256,132,55025,1,0,0:0:0:0:
256,132,55081,1,0,0:0:0:0:
240,124,55137,1,0,0:0:0:0:
240,128,55192,1,0,0:0:0:0:
240,128,55248,1,0,0:0:0:0:
240,128,55303,1,0,0:0:0:0:
240,128,55359,1,2,0:0:0:0:
240,120,55692,5,0,0:0:0:0:
240,120,55748,1,0,0:0:0:0:
240,120,55803,1,2,0:0:0:0:
192,108,55914,1,0,0:0:0:0:
200,116,56025,1,2,0:0:0:0:
200,116,56081,1,2,0:0:0:0:
200,116,56137,1,0,0:0:0:0:
200,116,56248,1,2,0:0:0:0:
152,152,56359,1,0,0:0:0:0:
244,160,56414,1,0,0:0:0:0:
152,152,56470,1,2,0:0:0:0:
244,160,56581,1,0,0:0:0:0:
244,160,56692,1,2,0:0:0:0:
244,160,56748,1,2,0:0:0:0:
244,160,56803,1,0,0:0:0:0:
244,160,56914,1,2,0:0:0:0:
124,100,57025,1,0,0:0:0:0:
128,104,57081,1,0,0:0:0:0:
128,104,57137,1,2,0:0:0:0:
128,104,57248,1,0,0:0:0:0:
128,104,57359,1,2,0:0:0:0:
128,104,57414,1,0,0:0:0:0:
100,140,57470,1,0,0:0:0:0:
100,140,57581,1,2,0:0:0:0:
100,140,57692,1,2,0:0:0:0:
100,140,57748,1,0,0:0:0:0:
100,140,57803,1,0,0:0:0:0:
100,140,57914,1,2,0:0:0:0:
100,140,58025,1,2,0:0:0:0:
100,140,58081,1,0,0:0:0:0:
100,140,58137,1,0,0:0:0:0:
100,140,58248,1,2,0:0:0:0:
220,160,58359,1,0,0:0:0:0:
120,112,58414,1,0,0:0:0:0:
220,160,58470,1,0,0:0:0:0:
132,100,58525,1,0,0:0:0:0:
220,160,58581,1,0,0:0:0:0:
132,100,58637,1,0,0:0:0:0:
220,160,58692,1,2,0:0:0:0:
220,160,58803,1,2,0:0:0:0:
220,160,58914,1,2,0:0:0:0:
368,144,59025,1,0,0:0:0:0:
300,160,59081,1,0,0:0:0:0:
272,164,59137,1,0,0:0:0:0:
272,164,59192,1,0,0:0:0:0:
264,164,59248,1,0,0:0:0:0:
256,164,59303,1,0,0:0:0:0:
256,164,59359,1,2,0:0:0:0:
116,72,59470,1,2,0:0:0:0:
116,72,59581,1,2,0:0:0:0:
152,124,59692,1,0,0:0:0:0:
156,120,59748,1,0,0:0:0:0:
156,120,59803,1,2,0:0:0:0:
156,120,59914,1,2,0:0:0:0:
156,120,60025,1,0,0:0:0:0:
156,120,60081,1,0,0:0:0:0:
156,120,60137,1,2,0:0:0:0:
156,116,60248,1,2,0:0:0:0:
160,108,60359,1,0,0:0:0:0:
332,72,60387,1,0,0:0:0:0:
160,108,60470,1,0,0:0:0:0:
332,72,60498,1,0,0:0:0:0:
160,108,60581,1,0,0:0:0:0:
332,72,60609,1,0,0:0:0:0:
284,164,60692,1,2,0:0:0:0:
284,168,60734,1,2,0:0:0:0:
284,168,60775,1,2,0:0:0:0:
284,168,60817,1,0,0:0:0:0:
248,72,60914,1,2,0:0:0:0:
104,192,61025,5,0,0:0:0:0:
104,192,61081,1,2,0:0:0:0:
104,192,61137,1,2,0:0:0:0:
104,192,61248,1,0,0:0:0:0:
104,192,61359,1,2,0:0:0:0:
104,192,61414,1,2,0:0:0:0:
104,192,61470,1,0,0:0:0:0:
104,192,61581,1,2,0:0:0:0:
88,144,61692,1,0,0:0:0:0:
88,144,61748,1,2,0:0:0:0:
88,144,61803,1,2,0:0:0:0:
80,148,61859,1,0,0:0:0:0:
80,148,61914,1,0,0:0:0:0:
80,148,61970,1,0,0:0:0:0:
80,148,62025,1,2,0:0:0:0:
88,108,62137,1,0,0:0:0:0:
164,92,62248,1,2,0:0:0:0:
104,176,62359,1,0,0:0:0:0:
104,176,62470,1,2,0:0:0:0:
104,176,62581,1,0,0:0:0:0:
200,168,62692,1,0,0:0:0:0:
200,168,62748,1,2,0:0:0:0:
200,168,62803,1,2,0:0:0:0:
200,168,62914,1,0,0:0:0:0:
200,168,63025,1,2,0:0:0:0:
200,168,63081,1,2,0:0:0:0:
200,168,63137,1,2,0:0:0:0:
200,168,63248,1,0,0:0:0:0:
200,168,63359,1,2,0:0:0:0:
200,168,63414,1,2,0:0:0:0:
200,168,63470,1,0,0:0:0:0:
200,168,63581,1,0,0:0:0:0:
136,144,63692,1,0,0:0:0:0:
136,144,63748,1,0,0:0:0:0:
136,144,63803,1,0,0:0:0:0:
144,60,63914,1,2,0:0:0:0:
144,60,64025,1,0,0:0:0:0:
144,60,64081,1,0,0:0:0:0:
144,60,64137,1,0,0:0:0:0:
144,60,64248,1,2,0:0:0:0:
372,160,64359,1,0,0:0:0:0:
372,160,64387,1,0,0:0:0:0:
372,160,64470,1,0,0:0:0:0:
372,160,64498,1,0,0:0:0:0:
372,160,64581,1,0,0:0:0:0:
372,160,64609,1,0,0:0:0:0:
372,160,64692,1,2,0:0:0:0:
372,160,64720,1,2,0:0:0:0:
372,160,64803,1,2,0:0:0:0:
372,160,64831,1,2,0:0:0:0:
372,160,64914,1,2,0:0:0:0:
372,160,64942,1,2,0:0:0:0:
24,156,65025,1,0,0:0:0:0:
188,136,65137,1,0,0:0:0:0:
188,136,65248,1,2,0:0:0:0:
188,136,65359,1,0,0:0:0:0:
188,136,65414,1,0,0:0:0:0:
188,136,65470,1,2,0:0:0:0:
188,136,65581,1,2,0:0:0:0:
188,136,65637,1,2,0:0:0:0:
188,136,65692,1,0,0:0:0:0:
416,140,66025,1,6,0:0:0:0:
300,144,66359,5,4,0:0:0:0:
208,160,66414,1,0,0:0:0:0:
208,164,66470,1,0,0:0:0:0:
168,96,66525,1,0,0:0:0:0:
168,96,66581,1,0,0:0:0:0:
168,96,66692,1,2,0:0:0:0:
168,96,66748,1,0,0:0:0:0:
168,96,66803,1,0,0:0:0:0:
168,96,66859,1,0,0:0:0:0:
168,96,66914,1,0,0:0:0:0:
168,96,67025,1,2,0:0:0:0:
168,92,67081,1,0,0:0:0:0:
164,88,67137,1,0,0:0:0:0:
164,88,67192,1,0,0:0:0:0:
220,96,67248,1,2,0:0:0:0:
164,88,67303,1,0,0:0:0:0:
160,56,67359,1,0,0:0:0:0:
164,60,67581,1,2,0:0:0:0:
176,168,67692,1,2,0:0:0:0:
176,168,67748,1,0,0:0:0:0:
176,168,67803,1,0,0:0:0:0:
176,168,67859,1,2,0:0:0:0:
176,168,67914,1,0,0:0:0:0:
176,168,67970,1,2,0:0:0:0:
176,168,68025,1,2,0:0:0:0:
176,168,68081,1,0,0:0:0:0:
176,168,68137,1,2,0:0:0:0:
176,168,68192,1,2,0:0:0:0:
176,168,68248,1,0,0:0:0:0:
176,168,68303,1,0,0:0:0:0:
176,168,68359,1,2,0:0:0:0:
176,168,68414,1,0,0:0:0:0:
176,168,68470,1,0,0:0:0:0:
176,168,68525,1,2,0:0:0:0:
144,112,68581,1,0,0:0:0:0:
144,112,68637,1,0,0:0:0:0:
144,112,68692,1,2,0:0:0:0:
256,128,69025,5,0,0:0:0:0:
168,184,69081,1,0,0:0:0:0:
168,184,69137,1,0,0:0:0:0:
168,184,69192,1,2,0:0:0:0:
168,184,69359,1,0,0:0:0:0:
168,184,69581,1,2,0:0:0:0:
356,184,69692,1,0,0:0:0:0:
336,184,69748,1,2,0:0:0:0:
336,184,69803,1,0,0:0:0:0:
336,184,69914,1,2,0:0:0:0:
336,184,70025,1,0,0:0:0:0:
336,184,70081,1,0,0:0:0:0:
336,184,70137,1,2,0:0:0:0:
336,184,70248,1,0,0:0:0:0:
140,156,70359,1,2,0:0:0:0:
140,156,70414,1,2,0:0:0:0:
140,156,70470,1,0,0:0:0:0:
140,156,70581,1,0,0:0:0:0:
140,156,70692,1,0,0:0:0:0:
140,156,70748,1,0,0:0:0:0:
140,156,70803,1,2,0:0:0:0:
140,156,70914,1,0,0:0:0:0:
240,160,71025,1,6,0:0:0:0:
192,96,71192,1,0,0:0:0:0:
240,160,71248,1,6,0:0:0:0:
192,96,71414,1,0,0:0:0:0:
240,160,71470,1,6,0:0:0:0:
192,96,71692,5,0,0:0:0:0:
88,120,71748,1,2,0:0:0:0:
88,120,71803,1,2,0:0:0:0:
88,120,71859,1,0,0:0:0:0:
88,120,71970,1,0,0:0:0:0:
88,120,72025,1,2,0:0:0:0:
88,120,72248,1,0,0:0:0:0:
88,120,72359,1,2,0:0:0:0:
248,96,72414,1,2,0:0:0:0:
248,96,72470,1,0,0:0:0:0:
248,96,72525,1,2,0:0:0:0:
248,96,72637,1,0,0:0:0:0:
248,96,72692,1,2,0:0:0:0:
248,96,72803,1,0,0:0:0:0:
248,96,72914,1,0,0:0:0:0:
248,96,72970,1,2,0:0:0:0:
248,96,73081,1,2,0:0:0:0:
248,96,73137,1,0,0:0:0:0:
248,96,73192,1,0,0:0:0:0:
248,96,73303,1,2,0:0:0:0:
128,120,73359,1,0,0:0:0:0:
192,184,73581,1,0,0:0:0:0:
192,184,73692,1,2,0:0:0:0:
188,180,73914,1,0,0:0:0:0:
188,176,74025,1,2,0:0:0:0:
188,176,74137,1,2,0:0:0:0:
188,176,74248,1,2,0:0:0:0:
188,176,74359,1,4,0:0:0:0:
192,176,74581,1,6,0:0:0:0:
132,100,74692,1,0,0:0:0:0:
132,100,74803,1,0,0:0:0:0:
132,100,74914,1,0,0:0:0:0:
284,132,75025,1,4,0:0:0:0:
284,132,75248,1,6,0:0:0:0:
216,148,75359,1,2,0:0:0:0:
216,148,75470,1,2,0:0:0:0:
216,148,75581,1,2,0:0:0:0:
172,100,75692,1,0,0:0:0:0:
172,100,75914,1,0,0:0:0:0:
36,112,76025,1,2,0:0:0:0:
224,112,76081,1,2,0:0:0:0:
220,112,76137,1,2,0:0:0:0:
144,188,76192,1,0,0:0:0:0:
68,124,76248,1,0,0:0:0:0:
144,188,76303,1,0,0:0:0:0:
344,108,76359,1,6,0:0:0:0:
344,108,76581,1,6,0:0:0:0:
344,108,76803,1,6,0:0:0:0:
120,100,77025,5,0,0:0:0:0:
156,128,77192,1,2,0:0:0:0:
156,128,77275,1,0,0:0:0:0:
156,128,77359,1,2,0:0:0:0:
156,128,77525,1,2,0:0:0:0:
156,128,77692,1,2,0:0:0:0:
112,104,77859,1,0,0:0:0:0:
112,104,78025,1,0,0:0:0:0:
112,104,78192,1,2,0:0:0:0:
112,104,78359,1,0,0:0:0:0:
112,104,78525,1,0,0:0:0:0:
112,104,78609,1,0,0:0:0:0:
112,104,78692,1,2,0:0:0:0:
112,104,78859,1,2,0:0:0:0:
112,104,79025,1,0,0:0:0:0:
112,104,79192,1,2,0:0:0:0:
188,80,79359,1,2,0:0:0:0:
188,80,79525,1,0,0:0:0:0:
188,80,79692,1,4,0:0:0:0:
188,80,80025,1,6,0:0:0:0:
188,80,80359,1,6,0:0:0:0:
188,80,80692,1,4,0:0:0:0:
188,80,81025,1,6,0:0:0:0:
220,180,82359,5,0,0:0:0:0:
156,128,82525,1,2,0:0:0:0:
156,128,82692,1,2,0:0:0:0:
156,128,82859,1,0,0:0:0:0:
156,128,82942,1,2,0:0:0:0:
156,128,83109,1,2,0:0:0:0:
156,128,83192,1,0,0:0:0:0:
156,128,83359,1,2,0:0:0:0:
156,128,83525,1,0,0:0:0:0:
156,128,83692,1,0,0:0:0:0:
232,76,83775,1,2,0:0:0:0:
232,88,83859,1,0,0:0:0:0:
232,92,84025,1,2,0:0:0:0:
232,92,84192,1,0,0:0:0:0:
168,144,84275,1,0,0:0:0:0:
232,92,84525,1,0,0:0:0:0:
232,92,84692,1,2,0:0:0:0:
232,92,84859,1,2,0:0:0:0:
232,92,85025,1,0,0:0:0:0:
168,144,85192,1,0,0:0:0:0:
168,144,85359,1,2,0:0:0:0:
168,144,85525,1,0,0:0:0:0:
168,144,85609,1,2,0:0:0:0:
168,144,85775,1,2,0:0:0:0:
168,144,85859,1,0,0:0:0:0:
324,20,85942,1,0,0:0:0:0:
168,144,86025,1,2,0:0:0:0:
168,144,86192,1,2,0:0:0:0:
168,144,86359,1,0,0:0:0:0:
48,104,86442,1,2,0:0:0:0:
48,104,86525,1,0,0:0:0:0:
48,104,86692,1,2,0:0:0:0:
48,104,86859,1,0,0:0:0:0:
48,104,86942,1,2,0:0:0:0:
48,104,87025,1,0,0:0:0:0:
48,104,87109,1,2,0:0:0:0:
48,104,87192,1,0,0:0:0:0:
224,96,87275,1,0,0:0:0:0:
48,104,87359,1,2,0:0:0:0:
48,104,87525,1,2,0:0:0:0:
144,108,87692,1,0,0:0:0:0:
144,108,87775,1,0,0:0:0:0:
144,108,87859,1,0,0:0:0:0:
144,108,88025,1,2,0:0:0:0:
144,108,88192,1,4,0:0:0:0:
144,108,88525,1,0,0:0:0:0:
144,108,88692,1,2,0:0:0:0:
144,108,89025,1,2,0:0:0:0:
144,108,89109,1,2,0:0:0:0:
144,108,89192,1,0,0:0:0:0:
144,108,89359,1,2,0:0:0:0:
144,108,89525,1,4,0:0:0:0:
64,180,89859,1,0,0:0:0:0:
80,188,90025,1,2,0:0:0:0:
84,188,90192,1,0,0:0:0:0:
88,116,90359,1,2,0:0:0:0:
228,96,90442,1,2,0:0:0:0:
228,96,90525,1,0,0:0:0:0:
228,96,90609,1,0,0:0:0:0:
88,116,90692,1,2,0:0:0:0:
228,96,90775,1,2,0:0:0:0:
228,96,90858,1,0,0:0:0:0:
228,96,90942,1,0,0:0:0:0:
88,116,91025,1,2,0:0:0:0:
228,96,91108,1,2,0:0:0:0:
228,96,91191,1,0,0:0:0:0:
228,96,91275,1,0,0:0:0:0:
88,116,91359,1,2,0:0:0:0:
228,96,91442,1,2,0:0:0:0:
228,96,91525,1,0,0:0:0:0:
228,96,91609,1,0,0:0:0:0:
152,168,91692,1,2,0:0:0:0:
152,168,91859,1,0,0:0:0:0:
152,168,91942,1,0,0:0:0:0:
152,168,92025,1,2,0:0:0:0:
152,168,92192,1,0,0:0:0:0:
120,112,92359,1,6,0:0:0:0:
120,112,92525,1,6,0:0:0:0:
120,112,92692,1,6,0:0:0:0:
344,108,93025,5,0,0:0:0:0:
224,84,93192,1,2,0:0:0:0:
112,196,93275,1,0,0:0:0:0:
112,196,93359,1,2,0:0:0:0:
196,132,93525,1,0,0:0:0:0:
192,140,93859,1,0,0:0:0:0:
192,136,94025,1,2,0:0:0:0:
192,136,94192,1,2,0:0:0:0:
140,104,94359,1,0,0:0:0:0:
140,104,94442,1,0,0:0:0:0:
140,104,94525,1,0,0:0:0:0:
140,104,94692,1,2,0:0:0:0:
140,104,94859,1,0,0:0:0:0:
140,104,94942,1,0,0:0:0:0:
140,104,95192,1,0,0:0:0:0:
212,116,95359,1,2,0:0:0:0:
212,116,95525,1,2,0:0:0:0:
212,116,95692,1,0,0:0:0:0:
208,80,95775,1,2,0:0:0:0:
208,80,95859,1,0,0:0:0:0:
188,60,96025,1,0,0:0:0:0:
100,96,96192,1,2,0:0:0:0:
316,48,96525,1,2,0:0:0:0:
316,48,96692,1,0,0:0:0:0:
316,48,96859,1,2,0:0:0:0:
104,88,96942,1,2,0:0:0:0:
140,140,97025,1,0,0:0:0:0:
140,140,97109,1,2,0:0:0:0:
140,140,97192,1,0,0:0:0:0:
140,140,97359,1,2,0:0:0:0:
268,112,97525,1,0,0:0:0:0:
268,112,97609,1,0,0:0:0:0:
268,112,97692,1,2,0:0:0:0:
268,112,97775,1,2,0:0:0:0:
268,112,97859,1,0,0:0:0:0:
268,112,97942,1,0,0:0:0:0:
264,112,98025,1,2,0:0:0:0:
84,104,98192,1,2,0:0:0:0:
148,96,98359,5,0,0:0:0:0:
32,208,98442,1,0,0:0:0:0:
32,208,98525,1,0,0:0:0:0:
224,148,98609,1,0,0:0:0:0:
32,208,98692,1,2,0:0:0:0:
12,180,98859,1,0,0:0:0:0:
12,180,98942,1,0,0:0:0:0:
224,148,99025,1,0,0:0:0:0:
224,148,99109,1,0,0:0:0:0:
12,180,99192,1,2,0:0:0:0:
12,180,99359,1,0,0:0:0:0:
104,176,99442,1,0,0:0:0:0:
16,184,99525,1,0,0:0:0:0:
104,176,99609,1,0,0:0:0:0:
104,176,99692,1,2,0:0:0:0:
128,120,99775,1,2,0:0:0:0:
128,120,99859,1,2,0:0:0:0:
260,192,99942,1,2,0:0:0:0:
128,120,100025,1,0,0:0:0:0:
124,112,100192,1,2,0:0:0:0:
8,108,100275,1,2,0:0:0:0:
368,80,100359,1,0,0:0:0:0:
364,88,100414,1,0,0:0:0:0:
356,96,100470,1,0,0:0:0:0:
192,76,100525,1,0,0:0:0:0:
192,76,100581,1,0,0:0:0:0:
156,172,100637,1,0,0:0:0:0:
256,88,100692,1,2,0:0:0:0:
256,92,100748,1,2,0:0:0:0:
256,92,100803,1,2,0:0:0:0:
256,92,100859,1,2,0:0:0:0:
256,92,100914,1,2,0:0:0:0:
256,92,100970,1,2,0:0:0:0:
256,92,101025,1,0,0:0:0:0:
88,132,103192,1,6,0:0:0:0:
88,132,103358,1,6,0:0:0:0:
88,132,103525,1,6,0:0:0:0:
88,132,103692,1,6,0:0:0:0:
200,148,105025,1,2,0:0:0:0:
200,148,105109,1,0,0:0:0:0:
200,148,105192,1,0,0:0:0:0:
200,148,105275,1,0,0:0:0:0:
200,148,105359,1,0,0:0:0:0:
200,148,105442,1,0,0:0:0:0:
200,148,105525,1,0,0:0:0:0:
200,148,105609,1,0,0:0:0:0:
200,148,105692,1,0,0:0:0:0:
200,148,105775,1,0,0:0:0:0:
200,148,105859,1,0,0:0:0:0:
200,148,105942,1,0,0:0:0:0:
200,148,106025,1,0,0:0:0:0:
200,148,106109,1,2,0:0:0:0:
200,148,106192,1,2,0:0:0:0:
200,148,106275,1,2,0:0:0:0:
200,148,106359,5,0,0:0:0:0:
124,124,106525,1,2,0:0:0:0:
124,124,106692,1,0,0:0:0:0:
124,124,106859,1,2,0:0:0:0:
156,120,106942,1,0,0:0:0:0:
184,56,107192,1,0,0:0:0:0:
192,104,107359,1,2,0:0:0:0:
212,112,107525,1,0,0:0:0:0:
208,116,107609,1,0,0:0:0:0:
208,116,107775,1,0,0:0:0:0:
208,116,107859,1,2,0:0:0:0:
168,80,108025,1,2,0:0:0:0:
168,80,108192,1,0,0:0:0:0:
100,128,108359,1,0,0:0:0:0:
100,128,108525,1,2,0:0:0:0:
100,128,108692,1,2,0:0:0:0:
100,128,108859,1,2,0:0:0:0:
160,124,109192,1,0,0:0:0:0:
160,124,109275,1,2,0:0:0:0:
160,124,109358,1,0,0:0:0:0:
160,124,109442,1,2,0:0:0:0:
160,124,109525,1,0,0:0:0:0:
160,124,109692,1,0,0:0:0:0:
160,124,109747,1,2,0:0:0:0:
160,124,109942,1,2,0:0:0:0:
160,124,109983,1,0,0:0:0:0:
160,124,110192,1,2,0:0:0:0:
160,120,110358,1,0,0:0:0:0:
160,120,110414,1,2,0:0:0:0:
160,120,110608,1,2,0:0:0:0:
160,120,110858,1,0,0:0:0:0:
168,96,111025,1,2,0:0:0:0:
168,96,111192,1,2,0:0:0:0:
168,96,111358,1,2,0:0:0:0:
168,96,111525,1,2,0:0:0:0:
224,184,111692,1,4,0:0:0:0:
224,184,111858,1,4,0:0:0:0:
224,184,112025,1,4,0:0:0:0:
224,184,112192,1,6,0:0:0:0:
136,104,112525,1,0,0:0:0:0:
140,112,112608,1,0,0:0:0:0:
140,112,112692,1,2,0:0:0:0:
64,160,113025,1,6,0:0:0:0:
64,160,113192,1,6,0:0:0:0:
64,160,113358,1,6,0:0:0:0:
108,156,113525,1,4,0:0:0:0:
216,168,113858,1,2,0:0:0:0:
220,100,113914,1,0,0:0:0:0:
220,100,113970,1,0,0:0:0:0:
188,176,114025,1,2,0:0:0:0:
392,148,114192,5,0,0:0:0:0:
300,168,114525,1,0,0:0:0:0:
300,168,114692,1,2,0:0:0:0:
300,168,114858,1,0,0:0:0:0:
300,168,115192,1,0,0:0:0:0:
300,168,115358,1,2,0:0:0:0:
300,168,115525,1,0,0:0:0:0:
104,120,115859,1,6,0:0:0:0:
112,116,116109,1,6,0:0:0:0:
112,116,116359,1,6,0:0:0:0:
188,116,116525,1,0,0:0:0:0:
188,116,116692,1,2,0:0:0:0:
152,164,117025,1,4,0:0:0:0:
152,164,117525,1,6,0:0:0:0:
152,164,118025,1,4,0:0:0:0:
160,144,118692,1,6,0:0:0:0:
