osu file format v14

[General]
AudioFilename: audio.mp3
AudioLeadIn: 0
PreviewTime: 81606
Countdown: 0
SampleSet: Normal
StackLeniency: 0.7
Mode: 1
LetterboxInBreaks: 0
WidescreenStoryboard: 0

[Editor]
Bookmarks: 16609,17275,17359,23359,34359,45025,55359,71359,106775
DistanceSpacing: 1.6
BeatDivisor: 4
GridSize: 16
TimelineZoom: 1.5

[Metadata]
Title:Dokkin * Summer Adventure
TitleUnicode:ドッキン☆サマーあばんちゅーる
Artist:L.E.D.-G + Qrispy Joybox + ARM feat. Nanahira
ArtistUnicode:L.E.D.-G + Qrispy Joybox + ARM feat. ななひら
Creator:Volta
Version:Muzukashii
Source:beatmania IIDX 22 PENDUAL
Tags:bemani beatstream confetto iosys loli flat ドタバタ☆夏休み DOTABATA☆NATSUYASUMI KONAMI
BeatmapID:1775541
BeatmapSetID:849104

[Difficulty]
HPDrainRate:5
CircleSize:4.2
OverallDifficulty:5
ApproachRate:9.4
SliderMultiplier:1.4
SliderTickRate:1

[Events]
//Background and Video events
0,0,"Dokkin BG.jpg",0,50
//Break Periods
2,45722,47149
//Storyboard Layer 0 (Background)
//Storyboard Layer 1 (Fail)
//Storyboard Layer 2 (Pass)
//Storyboard Layer 3 (Foreground)
//Storyboard Sound Samples

[TimingPoints]
1023,333.333333333333,4,1,0,30,1,0
2356,-100,4,1,0,80,0,0
82356,-100,4,1,0,90,0,1
101022,-100,4,1,0,80,0,0

[Colours]
Combo1 : 0,255,0
Combo2 : 255,0,0
Combo3 : 0,0,255
Combo4 : 255,128,0

[HitObjects]
260,224,1023,5,8,0:0:0:0:
260,224,1356,1,8,0:0:0:0:
260,224,1689,1,8,0:0:0:0:
192,168,1856,1,0,0:0:0:0:
300,160,2022,1,8,0:0:0:0:
304,172,2356,1,4,0:0:0:0:
152,112,2689,1,8,0:0:0:0:
204,160,3189,1,0,0:0:0:0:
152,112,3356,1,8,0:0:0:0:
252,192,3689,1,0,0:0:0:0:
272,196,4022,1,8,0:0:0:0:
272,192,4189,1,0,0:0:0:0:
260,176,4522,1,8,0:0:0:0:
260,176,4689,1,8,0:0:0:0:
260,176,4856,1,8,0:0:0:0:
264,176,5022,1,4,0:0:0:0:
144,184,5356,1,8,0:0:0:0:
204,232,5856,1,0,0:0:0:0:
176,148,6022,1,8,0:0:0:0:
204,232,6356,1,0,0:0:0:0:
252,160,6689,1,8,0:0:0:0:
252,160,6856,1,0,0:0:0:0:
192,148,7189,1,8,0:0:0:0:
180,144,7356,1,8,0:0:0:0:
192,148,7522,1,8,0:0:0:0:
240,152,7689,1,4,0:0:0:0:
128,188,8022,1,8,0:0:0:0:
84,192,8522,1,0,0:0:0:0:
104,192,8689,1,8,0:0:0:0:
92,188,9022,1,0,0:0:0:0:
104,192,9356,1,8,0:0:0:0:
165,147,9522,1,0,0:0:0:0:
92,188,9856,1,8,0:0:0:0:
104,192,10022,1,8,0:0:0:0:
104,192,10189,1,8,0:0:0:0:
296,184,10356,1,4,0:0:0:0:
288,184,11022,1,4,0:0:0:0:
288,184,11689,1,4,0:0:0:0:
288,184,12022,1,4,0:0:0:0:
288,184,12356,1,4,0:0:0:0:
288,184,12689,1,4,0:0:0:0:
268,200,13022,5,12,0:0:0:0:
232,160,13356,1,0,0:0:0:0:
248,124,13522,1,8,0:0:0:0:
304,120,13856,1,0,0:0:0:0:
308,132,14022,1,8,0:0:0:0:
220,168,14189,1,8,0:0:0:0:
220,168,14522,1,0,0:0:0:0:
280,160,14689,1,8,0:0:0:0:
248,140,14856,1,0,0:0:0:0:
224,232,15022,1,8,0:0:0:0:
224,232,15106,1,8,0:0:0:0:
224,232,15189,1,8,0:0:0:0:
224,188,15356,1,0,0:0:0:0:
304,160,15522,1,8,0:0:0:0:
208,144,15856,1,8,0:0:0:0:
132,144,16022,1,8,0:0:0:0:
168,112,16106,1,8,0:0:0:0:
136,144,16189,1,8,0:0:0:0:
136,132,16356,1,8,0:0:0:0:
200,128,16606,1,8,0:0:0:0:
116,212,16856,1,0,0:0:0:0:
168,172,17022,1,8,0:0:0:0:
240,156,17272,1,0,0:0:0:0:
272,140,17522,1,8,0:0:0:0:
272,144,17689,1,0,0:0:0:0:
132,168,17856,1,0,0:0:0:0:
292,160,18022,1,8,0:0:0:0:
184,156,18356,1,8,0:0:0:0:
248,108,18522,1,8,0:0:0:0:
248,108,18689,1,8,0:0:0:0:
232,160,18856,1,0,0:0:0:0:
184,176,19356,1,8,0:0:0:0:
192,168,19689,1,8,0:0:0:0:
232,160,19856,1,8,0:0:0:0:
252,116,20022,1,8,0:0:0:0:
252,116,20189,1,8,0:0:0:0:
216,184,20522,1,8,0:0:0:0:
176,116,20689,1,8,0:0:0:0:
156,160,20856,1,0,0:0:0:0:
120,176,21189,1,0,0:0:0:0:
124,180,21356,1,8,0:0:0:0:
165,149,21522,1,0,0:0:0:0:
124,160,21856,1,8,0:0:0:0:
56,176,22022,1,0,0:0:0:0:
144,72,22189,1,8,0:0:0:0:
280,172,22522,1,12,0:0:0:0:
280,172,22772,1,12,0:0:0:0:
212,188,23022,1,12,0:0:0:0:
216,196,23689,5,4,0:0:0:0:
224,196,24022,1,8,0:0:0:0:
216,196,24189,1,0,0:0:0:0:
216,196,24356,1,0,0:0:0:0:
188,120,24522,1,8,0:0:0:0:
56,236,24856,1,8,0:0:0:0:
136,228,25189,1,0,0:0:0:0:
140,232,25356,1,8,0:0:0:0:
112,220,25522,1,0,0:0:0:0:
112,220,25689,1,0,0:0:0:0:
140,212,25856,1,8,0:0:0:0:
128,184,26189,1,8,0:0:0:0:
220,216,26522,1,0,0:0:0:0:
164,176,26689,1,8,0:0:0:0:
180,164,26856,1,8,0:0:0:0:
216,128,27022,1,0,0:0:0:0:
208,144,27522,1,8,0:0:0:0:
180,208,27856,1,8,0:0:0:0:
176,216,28022,1,0,0:0:0:0:
176,216,28189,1,0,0:0:0:0:
232,184,28356,1,8,0:0:0:0:
216,228,28856,1,8,0:0:0:0:
216,196,29022,1,4,0:0:0:0:
224,196,29355,1,8,0:0:0:0:
216,196,29522,1,0,0:0:0:0:
216,196,29689,1,0,0:0:0:0:
188,120,29855,1,8,0:0:0:0:
56,236,30189,1,8,0:0:0:0:
136,228,30522,1,0,0:0:0:0:
140,232,30689,1,8,0:0:0:0:
112,220,30855,1,0,0:0:0:0:
112,220,31022,1,8,0:0:0:0:
140,212,31356,1,0,0:0:0:0:
232,136,31689,1,12,0:0:0:0:
232,136,31856,1,12,0:0:0:0:
232,136,32189,1,12,0:0:0:0:
232,136,32356,1,12,0:0:0:0:
224,140,32689,1,4,0:0:0:0:
224,140,32856,1,4,0:0:0:0:
216,144,33189,1,4,0:0:0:0:
216,144,33356,1,4,0:0:0:0:
216,152,33689,1,12,0:0:0:0:
188,176,34356,5,8,0:0:0:0:
144,148,34689,1,8,0:0:0:0:
152,144,34856,1,8,0:0:0:0:
152,144,35022,1,0,0:0:0:0:
180,164,35356,1,8,0:0:0:0:
184,160,35522,1,0,0:0:0:0:
196,160,35689,1,8,0:0:0:0:
224,224,36022,1,0,0:0:0:0:
224,224,36189,1,0,0:0:0:0:
216,200,36356,1,8,0:0:0:0:
228,204,36522,1,0,0:0:0:0:
216,200,36689,1,8,0:0:0:0:
220,204,37022,1,0,0:0:0:0:
220,204,37356,1,8,0:0:0:0:
120,156,37522,1,0,0:0:0:0:
248,168,37689,1,8,0:0:0:0:
200,120,38022,1,0,0:0:0:0:
200,120,38356,1,8,0:0:0:0:
128,172,38522,1,0,0:0:0:0:
172,144,38856,1,8,0:0:0:0:
60,148,39189,1,0,0:0:0:0:
184,124,39356,1,8,0:0:0:0:
192,136,39689,1,0,0:0:0:0:
224,160,40022,1,8,0:0:0:0:
48,168,40189,1,0,0:0:0:0:
48,168,40356,1,0,0:0:0:0:
220,136,40689,1,8,0:0:0:0:
296,116,40856,1,0,0:0:0:0:
252,176,41022,1,8,0:0:0:0:
128,116,41356,1,0,0:0:0:0:
120,144,41522,1,0,0:0:0:0:
176,132,41689,1,8,0:0:0:0:
104,156,42189,1,0,0:0:0:0:
252,176,42356,1,8,0:0:0:0:
124,140,42689,1,0,0:0:0:0:
172,164,43022,1,8,0:0:0:0:
236,128,43189,1,8,0:0:0:0:
184,140,43356,1,0,0:0:0:0:
252,176,43522,1,8,0:0:0:0:
256,184,43856,1,8,0:0:0:0:
256,184,44022,1,8,0:0:0:0:
260,188,44189,1,0,0:0:0:0:
232,156,44356,1,8,0:0:0:0:
236,156,44522,1,0,0:0:0:0:
225,110,44689,1,0,0:0:0:0:
148,176,44856,1,8,0:0:0:0:
256,192,45022,12,0,45522,0:0:0:0:
224,248,47689,5,2,0:0:0:0:
224,248,48356,1,2,0:0:0:0:
224,248,49022,1,2,0:0:0:0:
224,248,49689,1,2,0:0:0:0:
224,248,50356,1,4,0:0:0:0:
208,176,51689,1,4,0:0:0:0:
208,176,53022,1,0,0:0:0:0:
320,152,53356,1,8,0:0:0:0:
228,188,53578,1,0,0:0:0:0:
228,188,53689,1,0,0:0:0:0:
224,120,54022,1,8,0:0:0:0:
204,144,54245,1,0,0:0:0:0:
72,152,54356,1,8,0:0:0:0:
116,192,54578,1,0,0:0:0:0:
116,192,54689,1,0,0:0:0:0:
216,136,55022,1,8,0:0:0:0:
216,136,55106,1,8,0:0:0:0:
224,140,55189,1,8,0:0:0:0:
224,140,55356,1,0,0:0:0:0:
252,212,55689,5,8,0:0:0:0:
175,94,55911,1,0,0:0:0:0:
76,156,56022,1,8,0:0:0:0:
88,160,56356,1,0,0:0:0:0:
281,123,56578,1,0,0:0:0:0:
88,160,56689,1,0,0:0:0:0:
88,156,57022,1,8,0:0:0:0:
144,120,57356,1,8,0:0:0:0:
92,132,57467,1,8,0:0:0:0:
188,100,57578,1,8,0:0:0:0:
144,120,57689,1,0,0:0:0:0:
248,120,58356,1,2,0:0:0:0:
88,96,58467,1,2,0:0:0:0:
176,176,58578,1,2,0:0:0:0:
220,172,58689,1,8,0:0:0:0:
220,172,59022,1,2,0:0:0:0:
264,216,59106,1,2,0:0:0:0:
264,220,59189,1,2,0:0:0:0:
148,148,59356,1,0,0:0:0:0:
216,92,59689,1,8,0:0:0:0:
152,84,59911,1,0,0:0:0:0:
184,64,60022,1,8,0:0:0:0:
159,123,60245,1,0,0:0:0:0:
212,72,60356,1,0,0:0:0:0:
144,184,60689,1,2,0:0:0:0:
208,176,61022,1,8,0:0:0:0:
144,176,61245,1,0,0:0:0:0:
72,160,61356,1,8,0:0:0:0:
112,180,61689,1,0,0:0:0:0:
144,128,61911,1,0,0:0:0:0:
112,180,62022,1,0,0:0:0:0:
128,152,62356,1,8,0:0:0:0:
180,132,62689,1,8,0:0:0:0:
200,152,62800,1,8,0:0:0:0:
196,120,62911,1,8,0:0:0:0:
200,152,63022,1,0,0:0:0:0:
176,128,63689,1,8,0:0:0:0:
184,200,63911,1,0,0:0:0:0:
328,196,64022,1,8,0:0:0:0:
304,184,64245,1,0,0:0:0:0:
300,200,64356,1,0,0:0:0:0:
304,184,64578,1,0,0:0:0:0:
304,184,64689,1,0,0:0:0:0:
164,152,65022,1,8,0:0:0:0:
188,104,65245,1,0,0:0:0:0:
381,150,65356,5,8,0:0:0:0:
124,168,65578,1,8,0:0:0:0:
232,144,65689,1,8,0:0:0:0:
200,156,66356,5,0,0:0:0:0:
232,92,66689,1,8,0:0:0:0:
136,108,66911,1,0,0:0:0:0:
156,104,67022,1,0,0:0:0:0:
280,92,67356,1,8,0:0:0:0:
140,128,67578,1,0,0:0:0:0:
116,144,67689,1,8,0:0:0:0:
155,102,67911,1,0,0:0:0:0:
136,128,68022,1,8,0:0:0:0:
136,184,68356,1,10,0:0:0:0:
216,176,69022,1,8,0:0:0:0:
184,160,69356,1,0,0:0:0:0:
184,160,69578,1,0,0:0:0:0:
172,140,69689,1,8,0:0:0:0:
172,140,70022,1,8,0:0:0:0:
248,160,70245,1,8,0:0:0:0:
160,120,70356,1,0,0:0:0:0:
230,138,70578,1,0,0:0:0:0:
176,160,70689,1,8,0:0:0:0:
176,160,71022,1,2,0:0:0:0:
100,212,71245,1,2,0:0:0:0:
8,196,71467,1,2,0:0:0:0:
176,180,71689,1,0,0:0:0:0:
104,160,72022,1,8,0:0:0:0:
104,160,72245,1,0,0:0:0:0:
104,160,72356,1,0,0:0:0:0:
224,136,72689,1,8,0:0:0:0:
112,168,72911,1,0,0:0:0:0:
156,128,73022,1,0,0:0:0:0:
56,144,73245,1,8,0:0:0:0:
40,156,73356,1,8,0:0:0:0:
56,144,73578,1,0,0:0:0:0:
132,160,73689,1,10,0:0:0:0:
220,176,74356,1,0,0:0:0:0:
332,256,74578,1,8,0:0:0:0:
212,180,74689,1,8,0:0:0:0:
107,124,74911,1,0,0:0:0:0:
220,176,75022,1,0,0:0:0:0:
168,184,75245,1,0,0:0:0:0:
168,184,75356,1,8,0:0:0:0:
184,216,75689,1,0,0:0:0:0:
172,216,76022,1,0,0:0:0:0:
152,188,76106,1,0,0:0:0:0:
152,192,76189,1,0,0:0:0:0:
200,188,76356,1,10,0:0:0:0:
176,184,76578,1,2,0:0:0:0:
176,184,76800,1,2,0:0:0:0:
172,180,77022,1,0,0:0:0:0:
156,176,78356,1,0,0:0:0:0:
156,176,79689,1,0,0:0:0:0:
156,176,80022,1,0,0:0:0:0:
156,176,80356,1,0,0:0:0:0:
156,176,80689,1,0,0:0:0:0:
156,176,81022,1,0,0:0:0:0:
204,160,82356,5,4,0:0:0:0:
224,148,82689,1,8,0:0:0:0:
172,112,82856,1,0,0:0:0:0:
176,128,83189,1,0,0:0:0:0:
208,112,83356,1,8,0:0:0:0:
208,112,83522,1,0,0:0:0:0:
168,160,83689,1,0,0:0:0:0:
246,143,84022,1,8,0:0:0:0:
272,164,84189,1,0,0:0:0:0:
176,120,84356,1,0,0:0:0:0:
112,148,84439,1,0,0:0:0:0:
272,164,84522,1,0,0:0:0:0:
248,104,84689,1,8,0:0:0:0:
156,96,84856,1,8,0:0:0:0:
204,188,85022,1,0,0:0:0:0:
268,176,85522,1,0,0:0:0:0:
268,176,85856,1,0,0:0:0:0:
176,116,86022,1,8,0:0:0:0:
248,88,86189,1,0,0:0:0:0:
248,92,86356,1,8,0:0:0:0:
188,116,86689,1,8,0:0:0:0:
172,140,86856,1,0,0:0:0:0:
188,120,87022,1,8,0:0:0:0:
171,164,87356,1,8,0:0:0:0:
254,200,87439,1,8,0:0:0:0:
171,164,87522,1,8,0:0:0:0:
172,140,87689,1,4,0:0:0:0:
112,112,88022,1,8,0:0:0:0:
176,136,88189,1,4,0:0:0:0:
176,136,88522,1,0,0:0:0:0:
188,128,88689,1,8,0:0:0:0:
272,176,88772,1,8,0:0:0:0:
192,132,88856,1,8,0:0:0:0:
192,132,89022,1,12,0:0:0:0:
320,183,89356,1,8,0:0:0:0:
240,136,89522,1,4,0:0:0:0:
192,160,90022,1,8,0:0:0:0:
121,117,90189,1,8,0:0:0:0:
164,144,90356,1,0,0:0:0:0:
148,192,90522,1,8,0:0:0:0:
214,100,90856,1,8,0:0:0:0:
214,100,91022,1,0,0:0:0:0:
272,96,91189,1,0,0:0:0:0:
160,216,91356,1,8,0:0:0:0:
324,112,91689,1,8,0:0:0:0:
196,120,92022,1,8,0:0:0:0:
208,100,92189,1,0,0:0:0:0:
246,139,92356,1,8,0:0:0:0:
212,160,92522,1,8,0:0:0:0:
212,160,92689,1,0,0:0:0:0:
176,144,92772,1,0,0:0:0:0:
176,144,92856,1,0,0:0:0:0:
200,96,93022,1,4,0:0:0:0:
224,148,93356,5,8,0:0:0:0:
172,112,93523,1,0,0:0:0:0:
176,128,93856,1,0,0:0:0:0:
208,112,94023,1,8,0:0:0:0:
208,112,94189,1,0,0:0:0:0:
168,160,94356,1,0,0:0:0:0:
168,109,94689,1,8,0:0:0:0:
272,164,94856,1,0,0:0:0:0:
176,120,95023,1,0,0:0:0:0:
112,148,95106,1,0,0:0:0:0:
272,164,95189,1,0,0:0:0:0:
248,104,95356,1,8,0:0:0:0:
156,96,95523,1,8,0:0:0:0:
204,188,95689,1,0,0:0:0:0:
268,176,96189,1,0,0:0:0:0:
268,176,96523,1,0,0:0:0:0:
176,116,96689,1,8,0:0:0:0:
248,88,96856,1,0,0:0:0:0:
248,92,97023,1,8,0:0:0:0:
188,116,97355,1,8,0:0:0:0:
172,140,97522,1,0,0:0:0:0:
188,120,97688,1,8,0:0:0:0:
180,128,98022,1,8,0:0:0:0:
152,136,98188,1,8,0:0:0:0:
172,140,98355,1,4,0:0:0:0:
172,232,98522,1,8,0:0:0:0:
172,232,98606,1,8,0:0:0:0:
316,192,98689,1,8,0:0:0:0:
144,172,98856,1,4,0:0:0:0:
268,176,99189,1,0,0:0:0:0:
268,168,99356,1,8,0:0:0:0:
276,168,99689,1,4,0:0:0:0:
220,144,100022,1,8,0:0:0:0:
220,144,100189,1,0,0:0:0:0:
44,148,100356,1,0,0:0:0:0:
44,148,100439,1,0,0:0:0:0:
44,148,100522,1,0,0:0:0:0:
140,104,100689,1,8,0:0:0:0:
140,104,100772,1,8,0:0:0:0:
140,104,100856,1,8,0:0:0:0:
200,184,101022,1,4,0:0:0:0:
240,208,103189,5,8,0:0:0:0:
224,192,103356,1,8,0:0:0:0:
224,192,103522,1,8,0:0:0:0:
224,192,103689,1,4,0:0:0:0:
176,164,105022,1,8,0:0:0:0:
216,144,105106,1,8,0:0:0:0:
279,195,105189,1,8,0:0:0:0:
216,144,105356,1,0,0:0:0:0:
216,144,105439,1,0,0:0:0:0:
259,162,105522,1,0,0:0:0:0:
204,200,105689,1,0,0:0:0:0:
216,144,105856,1,8,0:0:0:0:
204,200,106022,1,8,0:0:0:0:
204,200,106189,1,8,0:0:0:0:
248,148,106356,5,4,0:0:0:0:
232,160,106689,1,8,0:0:0:0:
248,124,106855,1,0,0:0:0:0:
304,120,107189,1,0,0:0:0:0:
308,132,107355,1,8,0:0:0:0:
220,168,107522,1,0,0:0:0:0:
220,168,107855,1,0,0:0:0:0:
280,160,108022,1,8,0:0:0:0:
248,140,108189,1,0,0:0:0:0:
224,232,108355,1,8,0:0:0:0:
224,232,108439,1,8,0:0:0:0:
224,232,108522,1,8,0:0:0:0:
224,188,108689,1,0,0:0:0:0:
304,160,108855,1,8,0:0:0:0:
208,144,109189,1,8,0:0:0:0:
132,144,109355,1,8,0:0:0:0:
168,112,109439,1,8,0:0:0:0:
136,144,109522,1,8,0:0:0:0:
136,132,109689,1,8,0:0:0:0:
200,128,109939,1,8,0:0:0:0:
116,212,110189,1,0,0:0:0:0:
168,172,110355,1,8,0:0:0:0:
240,156,110606,1,0,0:0:0:0:
272,140,110855,1,8,0:0:0:0:
272,144,111022,1,0,0:0:0:0:
264,144,111189,1,8,0:0:0:0:
292,160,111355,1,8,0:0:0:0:
184,156,111689,1,8,0:0:0:0:
248,108,111855,1,8,0:0:0:0:
248,108,112022,1,8,0:0:0:0:
232,160,112189,1,0,0:0:0:0:
184,176,112689,1,8,0:0:0:0:
192,168,113022,1,8,0:0:0:0:
232,160,113189,1,8,0:0:0:0:
252,116,113355,1,8,0:0:0:0:
252,116,113522,1,8,0:0:0:0:
216,184,113855,1,8,0:0:0:0:
176,116,114022,1,8,0:0:0:0:
156,160,114189,1,0,0:0:0:0:
120,176,114522,1,0,0:0:0:0:
124,180,114689,1,8,0:0:0:0:
124,164,114855,1,0,0:0:0:0:
124,160,115189,1,8,0:0:0:0:
56,176,115355,1,0,0:0:0:0:
144,72,115522,1,8,0:0:0:0:
185,148,115856,1,12,0:0:0:0:
185,148,116106,1,12,0:0:0:0:
185,148,116356,1,12,0:0:0:0:
185,148,117022,1,4,0:0:0:0:
185,148,117522,1,4,0:0:0:0:
185,148,118022,1,4,0:0:0:0:
185,148,118689,1,12,0:0:0:0:
256,192,118856,12,8,120356,0:0:0:0:
