osu file format v14

[General]
AudioFilename: audio.mp3
AudioLeadIn: 0
PreviewTime: 251968
Countdown: 0
SampleSet: Normal
StackLeniency: 0.5
Mode: 0
LetterboxInBreaks: 1
WidescreenStoryboard: 0

[Editor]
Bookmarks: 34032,45104,67430,89755,112081,134406,137197,151503,156732,179058,201383,223709,246034,268360,290685,313011,335337
DistanceSpacing: 1.3
BeatDivisor: 4
GridSize: 4
TimelineZoom: 3.499999

[Metadata]
Title:THE SHINING POLARIS -kors k mix-
TitleUnicode:THE SHINING POLARIS -kors k mix-
Artist:L.E.D. feat. Sana
ArtistUnicode:L.E.D. feat. Sana
Creator:_Nico_
Version:Radio Love
Source:Dance Dance Revolution SuperNOVA
Tags:DDR techno trance electronica hardcore marathon collaboration pkgh
BeatmapID:1558536
BeatmapSetID:738498

[Difficulty]
HPDrainRate:5
CircleSize:3.7
OverallDifficulty:8.2
ApproachRate:9.6
SliderMultiplier:1.7
SliderTickRate:1

[Events]
//Background and Video events
0,0,"phantastic-anime-1366x768.jpg",0,0
//Break Periods
2,127546,132506
//Storyboard Layer 0 (Background)
//Storyboard Layer 1 (Fail)
//Storyboard Layer 2 (Pass)
//Storyboard Layer 3 (Foreground)
//Storyboard Sound Samples

[TimingPoints]
457,348.837209302326,4,1,0,60,1,0
21387,-66.6666666666667,4,1,0,60,0,1
22782,-100,4,1,0,60,0,0
89759,-66.6666666666667,4,1,0,60,0,1
90108,-100,4,1,0,60,0,1
90980,-100,4,1,0,60,0,1
110689,-66.6666666666667,4,1,0,60,0,1
112084,-100,4,1,0,60,0,0
134410,-700,4,1,0,60,0,1
138770,-200,4,1,0,60,0,0
143131,-700,4,1,0,60,0,1
145573,-133.333333333333,4,1,0,60,0,0
145747,-700,4,1,0,60,0,1
146096,-100,4,1,0,60,0,0
146968,-700,4,1,0,60,0,1
148363,-200,4,1,0,60,0,0
153945,-700,4,1,0,60,0,1
156387,-200,4,1,0,60,0,0
156736,-100,4,1,0,60,0,0
160922,-66.6666666666667,4,1,0,60,0,1
162317,-100,4,1,0,60,0,1
179061,-100,4,1,0,60,0,1
221968,-66.6666666666667,4,1,0,60,0,1
223712,-100,4,1,0,60,0,0
234875,-100,4,1,0,60,0,0
246038,-100,4,1,0,60,0,0
262782,-100,4,1,0,60,0,0
266968,-66.6666666666667,4,1,0,60,0,0
268363,-100,4,1,0,60,0,0
269759,-100,4,1,0,60,0,0
279526,-100,4,1,0,60,0,0
289294,-50,4,1,0,60,0,0
290689,-100,4,1,0,60,0,1
335340,-100,4,1,0,60,0,0

[HitObjects]
256,40,457,6,2,B|232:84|232:84|292:124|256:216,1,170
356,300,1329,1,2,0:0:0:0:
440,332,1503,1,2,0:0:0:0:
424,244,1677,1,2,0:0:0:0:
340,216,1852,2,2,P|400:160|488:184,1,170
156,300,2724,1,2,0:0:0:0:
72,332,2898,1,2,0:0:0:0:
88,244,3073,1,2,0:0:0:0:
172,216,3247,2,2,P|112:160|24:184,1,170
256,324,4119,5,2,0:0:0:0:
319,260,4294,1,2,0:0:0:0:
255,196,4468,1,2,0:0:0:0:
255,105,4643,2,2,P|192:128|176:252,1,170
256,324,5515,1,2,0:0:0:0:
256,234,5689,1,2,0:0:0:0:
256,234,5776,1,2,0:0:0:0:
256,234,5863,1,2,0:0:0:0:
256,144,6038,1,2,0:0:0:0:
92,72,6387,1,2,0:0:0:0:
360,72,6910,5,2,0:0:0:0:
444,104,7084,2,2,P|404:152|348:164,1,85
382,290,7433,2,2,P|328:227|379:161,1,170
152,72,8305,1,2,0:0:0:0:
68,104,8480,2,2,P|108:152|164:164,1,85
129,290,8829,2,2,P|183:227|132:161,1,170
368,292,9701,5,2,0:0:0:0:
408,212,9875,1,2,0:0:0:0:
340,156,10050,1,2,0:0:0:0:
408,212,10224,2,2,P|432:144|360:68,1,170
256,316,11096,1,2,0:0:0:0:
188,256,11270,1,2,0:0:0:0:
188,256,11358,1,2,0:0:0:0:
188,256,11445,1,2,0:0:0:0:
256,196,11619,1,2,0:0:0:0:
384,72,11968,1,2,0:0:0:0:
113,72,12491,5,2,0:0:0:0:
113,72,12666,2,2,L|114:173,1,85
172,270,13015,2,2,P|94:242|113:161,1,170
399,72,13887,1,2,0:0:0:0:
399,72,14061,2,2,L|398:173,1,85
339,270,14410,2,2,P|417:242|398:161,1,170
148,268,15282,5,2,0:0:0:0:
88,200,15457,1,2,0:0:0:0:
176,180,15631,1,2,0:0:0:0:
148,268,15805,2,2,P|200:272|264:164,1,170
424,72,16677,1,2,0:0:0:0:
424,161,16852,1,2,0:0:0:0:
424,161,16939,1,2,0:0:0:0:
424,161,17026,1,2,0:0:0:0:
424,250,17201,1,2,0:0:0:0:
256,184,17550,1,2,0:0:0:0:
108,68,18073,5,2,0:0:0:0:
64,148,18247,2,2,P|120:160|168:128,1,85
228,111,18596,2,2,P|224:197|148:236,1,170
404,316,19468,1,2,0:0:0:0:
448,236,19643,2,2,P|392:224|344:256,1,85
280,272,19991,2,2,P|287:186|364:148,1,170
108,64,20863,5,2,0:0:0:0:
44,127,21038,1,2,0:0:0:0:
107,190,21212,1,2,0:0:0:0:
212,68,21387,6,2,L|216:128,1,42.5000016212464
220,68,21503,2,2,L|224:112,1,42.5000016212464
228,68,21620,2,2,L|232:124,1,42.5000016212464
232,68,21735,6,2,L|236:8,1,42.5000016212464
240,68,21851,2,2,L|244:24,1,42.5000016212464
248,68,21968,2,2,L|252:12,1,42.5000016212464
252,68,22085,6,2,L|256:128,1,42.5000016212464
260,68,22201,2,2,L|264:112,1,42.5000016212464
268,68,22318,2,2,L|272:124,1,42.5000016212464
272,68,22433,6,2,L|276:8,1,42.5000016212464
280,68,22549,2,2,L|284:24,1,42.5000016212464
288,68,22666,2,2,L|292:12,1,42.5000016212464
308,88,22782,5,2,0:0:0:0:
284,64,22869,1,2,0:0:0:0:
252,56,22957,1,2,0:0:0:0:
220,60,23044,1,2,0:0:0:0:
192,80,23131,1,2,0:0:0:0:
172,108,23218,1,2,0:0:0:0:
160,140,23305,1,2,0:0:0:0:
156,172,23393,1,2,0:0:0:0:
164,204,23480,2,2,L|125:246,3,42.5
232,280,23829,6,2,L|208:336,1,42.5
336,288,24003,2,2,L|356:336,1,42.5
356,204,24177,5,2,0:0:0:0:
336,176,24265,1,2,0:0:0:0:
324,144,24352,1,2,0:0:0:0:
332,112,24439,1,2,0:0:0:0:
360,96,24526,1,2,0:0:0:0:
392,100,24613,1,2,0:0:0:0:
416,124,24701,1,2,0:0:0:0:
428,156,24788,1,2,0:0:0:0:
424,188,24875,1,2,0:0:0:0:
408,216,24962,1,2,0:0:0:0:
380,236,25050,1,2,0:0:0:0:
348,248,25137,1,2,0:0:0:0:
328,276,25224,1,2,0:0:0:0:
320,308,25311,1,2,0:0:0:0:
328,340,25398,1,2,0:0:0:0:
352,364,25486,1,2,0:0:0:0:
384,360,25573,6,2,L|442:303,1,42.5
440,148,25747,2,2,L|407:179,1,42.5
263,142,25922,5,2,0:0:0:0:
244,128,26009,1,2,0:0:0:0:
224,120,26096,1,2,0:0:0:0:
204,116,26183,1,2,0:0:0:0:
184,112,26270,6,2,L|132:124,1,42.5
32,88,26445,2,2,L|75:77,1,42.5
140,208,26619,5,2,0:0:0:0:
161,226,26707,1,2,0:0:0:0:
185,239,26794,1,2,0:0:0:0:
210,248,26881,1,2,0:0:0:0:
236,252,26968,6,2,L|224:188,1,42.5
280,40,27143,2,2,L|304:100,1,42.5
220,144,27317,5,2,0:0:0:0:
188,152,27404,1,2,0:0:0:0:
168,180,27491,2,0,L|136:132,1,42.5
136,256,27666,2,0,L|164:304,1,42.5
48,204,27840,6,0,L|20:152,1,42.5
200,172,28015,2,0,L|236:200,3,42.5
128,84,28363,5,2,0:0:0:0:
116,52,28451,1,2,0:0:0:0:
84,48,28538,1,2,0:0:0:0:
52,60,28625,1,2,0:0:0:0:
28,84,28712,1,2,0:0:0:0:
20,116,28800,1,2,0:0:0:0:
32,148,28887,1,2,0:0:0:0:
60,168,28974,1,2,0:0:0:0:
92,172,29061,1,2,0:0:0:0:
124,164,29148,1,2,0:0:0:0:
156,160,29236,1,2,0:0:0:0:
188,168,29323,1,2,0:0:0:0:
212,192,29410,1,2,0:0:0:0:
216,224,29497,1,2,0:0:0:0:
208,256,29584,1,2,0:0:0:0:
188,284,29672,1,2,0:0:0:0:
156,292,29759,5,2,0:0:0:0:
164,260,29846,1,2,0:0:0:0:
192,240,29933,1,2,0:0:0:0:
224,232,30020,1,2,0:0:0:0:
256,240,30108,1,2,0:0:0:0:
288,256,30195,1,2,0:0:0:0:
320,260,30282,1,2,0:0:0:0:
348,240,30369,1,2,0:0:0:0:
364,212,30457,6,2,L|364:168,3,42.5
288,88,30805,2,2,L|272:48,3,42.5
332,220,31154,5,2,0:0:0:0:
332,252,31241,1,2,0:0:0:0:
332,288,31329,1,2,0:0:0:0:
332,320,31416,1,2,0:0:0:0:
332,352,31503,5,2,0:0:0:0:
304,348,31590,1,2,0:0:0:0:
276,340,31677,1,2,0:0:0:0:
248,332,31765,1,2,0:0:0:0:
220,324,31852,6,2,L|160:300,1,42.5
128,200,32026,2,2,L|176:220,1,42.5
168,112,32201,6,2,L|120:88,1,42.5
20,264,32375,2,2,L|60:284,1,42.5
8,160,32550,5,2,0:0:0:0:
28,132,32637,1,2,0:0:0:0:
60,124,32724,1,2,0:0:0:0:
92,136,32811,1,2,0:0:0:0:
96,168,32898,1,2,0:0:0:0:
100,200,32986,1,2,0:0:0:0:
120,224,33073,1,2,0:0:0:0:
148,240,33160,1,2,0:0:0:0:
180,236,33247,5,2,0:0:0:0:
196,220,33334,1,2,0:0:0:0:
204,196,33422,1,2,0:0:0:0:
212,172,33509,1,2,0:0:0:0:
228,152,33596,2,2,L|256:100,3,42.5
392,228,33945,5,2,0:0:0:0:
388,260,34032,1,2,0:0:0:0:
368,288,34119,1,2,0:0:0:0:
332,288,34207,1,2,0:0:0:0:
304,268,34294,1,2,0:0:0:0:
288,236,34381,1,2,0:0:0:0:
264,212,34468,1,2,0:0:0:0:
232,208,34555,1,2,0:0:0:0:
200,216,34643,1,2,0:0:0:0:
176,240,34730,1,2,0:0:0:0:
164,272,34817,1,2,0:0:0:0:
172,304,34904,1,2,0:0:0:0:
196,328,34991,1,2,0:0:0:0:
232,328,35079,1,2,0:0:0:0:
260,312,35166,1,2,0:0:0:0:
284,288,35253,1,2,0:0:0:0:
296,256,35340,5,2,0:0:0:0:
304,224,35427,1,2,0:0:0:0:
332,208,35515,1,2,0:0:0:0:
364,212,35602,1,2,0:0:0:0:
388,236,35689,1,2,0:0:0:0:
396,268,35776,1,2,0:0:0:0:
392,300,35863,1,2,0:0:0:0:
372,328,35951,1,2,0:0:0:0:
340,336,36038,5,2,0:0:0:0:
352,304,36125,1,2,0:0:0:0:
364,272,36212,1,2,0:0:0:0:
376,240,36300,1,2,0:0:0:0:
388,208,36387,1,2,0:0:0:0:
400,176,36474,1,2,0:0:0:0:
412,144,36561,1,2,0:0:0:0:
424,112,36648,1,2,0:0:0:0:
436,80,36736,5,2,0:0:0:0:
432,48,36823,1,2,0:0:0:0:
404,32,36910,1,2,0:0:0:0:
372,40,36997,1,2,0:0:0:0:
348,64,37084,1,2,0:0:0:0:
328,92,37172,1,2,0:0:0:0:
324,124,37259,1,2,0:0:0:0:
336,156,37346,1,2,0:0:0:0:
344,188,37433,1,2,0:0:0:0:
336,220,37520,1,2,0:0:0:0:
320,252,37608,1,2,0:0:0:0:
296,276,37695,1,2,0:0:0:0:
264,284,37782,1,2,0:0:0:0:
232,276,37869,1,2,0:0:0:0:
208,252,37957,1,2,0:0:0:0:
200,220,38044,1,2,0:0:0:0:
204,188,38131,5,2,0:0:0:0:
204,156,38218,1,2,0:0:0:0:
180,132,38305,1,2,0:0:0:0:
148,120,38393,1,2,0:0:0:0:
116,128,38480,1,2,0:0:0:0:
92,152,38567,1,2,0:0:0:0:
84,184,38654,1,2,0:0:0:0:
96,216,38741,1,2,0:0:0:0:
120,236,38829,6,2,L|116:280,3,42.5
200,160,39177,2,2,L|200:112,3,42.5
300,196,39526,5,2,0:0:0:0:
300,228,39613,1,2,0:0:0:0:
292,260,39701,1,2,0:0:0:0:
264,276,39788,1,2,0:0:0:0:
244,304,39875,1,2,0:0:0:0:
244,336,39962,1,2,0:0:0:0:
272,356,40050,1,2,0:0:0:0:
304,348,40137,1,2,0:0:0:0:
324,320,40224,1,2,0:0:0:0:
324,288,40311,1,2,0:0:0:0:
312,256,40398,1,2,0:0:0:0:
316,220,40486,1,2,0:0:0:0:
328,188,40573,1,2,0:0:0:0:
352,164,40660,1,2,0:0:0:0:
384,152,40747,1,2,0:0:0:0:
416,152,40834,1,2,0:0:0:0:
444,168,40922,5,2,0:0:0:0:
412,176,41009,1,2,0:0:0:0:
380,180,41096,1,2,0:0:0:0:
348,180,41183,1,2,0:0:0:0:
316,180,41270,5,2,0:0:0:0:
332,212,41358,1,2,0:0:0:0:
356,222,41445,1,2,0:0:0:0:
383,224,41532,1,2,0:0:0:0:
409,218,41619,5,2,0:0:0:0:
427,210,41707,1,2,0:0:0:0:
439,198,41794,1,2,0:0:0:0:
448,180,41881,1,2,0:0:0:0:
448,160,41968,5,2,0:0:0:0:
440,140,42055,1,2,0:0:0:0:
424,128,42143,1,2,0:0:0:0:
404,124,42230,1,2,0:0:0:0:
380,128,42317,2,2,L|348:72,3,42.5
341,245,42666,5,2,0:0:0:0:
312,255,42753,1,2,0:0:0:0:
280,254,42840,1,2,0:0:0:0:
260,235,42927,1,2,0:0:0:0:
256,203,43015,5,2,0:0:0:0:
264,159,43102,1,2,0:0:0:0:
256,115,43189,1,2,0:0:0:0:
224,91,43276,1,2,0:0:0:0:
184,91,43363,1,2,0:0:0:0:
159,118,43451,1,2,0:0:0:0:
156,159,43538,1,2,0:0:0:0:
180,195,43625,1,2,0:0:0:0:
216,227,43712,6,2,P|276:195|328:111,1,127.5
248,84,44061,1,2,0:0:0:0:
204,184,44236,2,2,L|204:296,1,85
76,116,44584,1,2,0:0:0:0:
232,204,44759,6,2,L|168:212,1,42.5
44,200,44933,2,2,L|108:192,1,42.5
52,288,45108,5,2,0:0:0:0:
68,308,45195,1,2,0:0:0:0:
92,320,45282,1,2,0:0:0:0:
116,328,45369,1,2,0:0:0:0:
140,332,45457,1,2,0:0:0:0:
164,328,45544,1,2,0:0:0:0:
184,316,45631,1,2,0:0:0:0:
200,300,45718,1,2,0:0:0:0:
208,276,45805,1,2,0:0:0:0:
204,252,45893,1,2,0:0:0:0:
192,232,45980,1,2,0:0:0:0:
168,224,46067,1,2,0:0:0:0:
144,212,46154,1,2,0:0:0:0:
124,196,46241,1,2,0:0:0:0:
108,176,46329,1,2,0:0:0:0:
104,152,46416,1,2,0:0:0:0:
116,128,46503,5,2,0:0:0:0:
140,120,46590,1,2,0:0:0:0:
160,132,46677,1,2,0:0:0:0:
152,156,46765,1,2,0:0:0:0:
140,176,46852,1,2,0:0:0:0:
120,188,46939,1,2,0:0:0:0:
108,208,47026,1,2,0:0:0:0:
108,232,47113,1,2,0:0:0:0:
120,256,47201,1,2,0:0:0:0:
140,272,47288,5,2,0:0:0:0:
164,280,47375,1,2,0:0:0:0:
188,284,47462,1,2,0:0:0:0:
212,284,47550,1,2,0:0:0:0:
236,280,47637,1,2,0:0:0:0:
260,268,47724,1,2,0:0:0:0:
272,248,47811,1,2,0:0:0:0:
280,224,47898,1,2,0:0:0:0:
300,204,47986,1,2,0:0:0:0:
320,188,48073,1,2,0:0:0:0:
344,184,48160,1,2,0:0:0:0:
368,184,48247,1,2,0:0:0:0:
392,196,48334,1,2,0:0:0:0:
400,220,48422,1,2,0:0:0:0:
404,244,48509,1,2,0:0:0:0:
404,268,48596,6,2,L|344:284,1,42.5
204,228,48770,2,2,L|247:216,1,42.5
232,336,48945,6,2,L|189:348,1,42.5
276,112,49119,2,2,L|319:100,1,42.5
97,148,49294,5,2,0:0:0:0:
84,116,49381,1,2,0:0:0:0:
88,84,49468,1,2,0:0:0:0:
112,64,49555,1,2,0:0:0:0:
144,56,49643,1,2,0:0:0:0:
176,64,49730,1,2,0:0:0:0:
208,72,49817,1,2,0:0:0:0:
240,72,49904,1,2,0:0:0:0:
272,60,49991,1,2,0:0:0:0:
300,44,50079,1,2,0:0:0:0:
332,40,50166,1,2,0:0:0:0:
364,48,50253,1,2,0:0:0:0:
392,64,50340,1,2,0:0:0:0:
412,92,50427,1,2,0:0:0:0:
420,124,50515,1,2,0:0:0:0:
416,156,50602,1,2,0:0:0:0:
396,184,50689,5,2,0:0:0:0:
364,192,50776,1,2,0:0:0:0:
332,196,50863,1,2,0:0:0:0:
296,196,50951,1,2,0:0:0:0:
264,192,51038,1,2,0:0:0:0:
232,196,51125,1,2,0:0:0:0:
204,212,51212,1,2,0:0:0:0:
176,232,51300,1,2,0:0:0:0:
164,264,51387,5,2,0:0:0:0:
164,296,51474,1,2,0:0:0:0:
192,316,51561,1,2,0:0:0:0:
224,308,51648,1,2,0:0:0:0:
244,280,51736,1,2,0:0:0:0:
276,268,51823,1,2,0:0:0:0:
308,272,51910,1,2,0:0:0:0:
332,296,51997,1,2,0:0:0:0:
332,328,52084,5,2,0:0:0:0:
448,196,52259,1,2,0:0:0:0:
364,160,52433,2,2,P|368:96|384:64,1,85
460,112,52782,1,2,0:0:0:0:
379,74,52957,5,2,0:0:0:0:
348,88,53044,1,2,0:0:0:0:
328,116,53131,1,2,0:0:0:0:
328,148,53218,1,2,0:0:0:0:
348,176,53305,1,2,0:0:0:0:
380,188,53393,1,2,0:0:0:0:
412,180,53480,2,2,L|392:228,1,42.5
232,264,53654,2,2,L|249:222,1,42.5
184,92,53829,2,2,L|167:134,1,42.5
24,208,54003,2,2,L|41:166,1,42.5
32,284,54177,5,2,0:0:0:0:
48,316,54265,1,2,0:0:0:0:
72,340,54352,1,2,0:0:0:0:
104,348,54439,1,2,0:0:0:0:
136,348,54526,1,2,0:0:0:0:
164,328,54613,1,2,0:0:0:0:
184,300,54701,1,2,0:0:0:0:
192,268,54788,1,2,0:0:0:0:
200,236,54875,5,2,0:0:0:0:
168,252,54962,1,2,0:0:0:0:
168,288,55050,1,2,0:0:0:0:
180,320,55137,1,2,0:0:0:0:
204,344,55224,1,2,0:0:0:0:
236,352,55311,1,2,0:0:0:0:
268,348,55398,1,2,0:0:0:0:
296,324,55486,1,2,0:0:0:0:
304,292,55573,5,2,0:0:0:0:
272,292,55660,1,2,0:0:0:0:
244,272,55747,1,2,0:0:0:0:
228,232,55834,1,2,0:0:0:0:
240,200,55922,1,2,0:0:0:0:
264,176,56009,1,2,0:0:0:0:
296,168,56096,1,2,0:0:0:0:
328,172,56183,1,2,0:0:0:0:
356,192,56270,5,2,0:0:0:0:
380,168,56358,1,2,0:0:0:0:
412,160,56445,1,2,0:0:0:0:
444,168,56532,1,2,0:0:0:0:
472,184,56619,1,2,0:0:0:0:
492,212,56707,1,2,0:0:0:0:
500,244,56794,1,2,0:0:0:0:
492,276,56881,1,2,0:0:0:0:
472,304,56968,6,2,L|468:372,3,42.5
376,248,57317,2,2,L|376:192,3,42.5
208,172,57666,2,2,L|208:120,3,42.5
264,260,58015,2,2,L|264:312,3,42.5
332,148,58363,5,2,0:0:0:0:
332,112,58451,1,2,0:0:0:0:
316,84,58538,1,2,0:0:0:0:
288,64,58625,1,2,0:0:0:0:
256,56,58712,1,2,0:0:0:0:
224,60,58800,1,2,0:0:0:0:
196,80,58887,1,2,0:0:0:0:
180,108,58974,1,2,0:0:0:0:
172,140,59061,1,2,0:0:0:0:
176,172,59148,1,2,0:0:0:0:
184,204,59236,1,2,0:0:0:0:
204,232,59323,1,2,0:0:0:0:
220,260,59410,1,2,0:0:0:0:
228,292,59497,1,2,0:0:0:0:
228,324,59584,1,2,0:0:0:0:
208,352,59672,1,2,0:0:0:0:
180,372,59759,5,2,0:0:0:0:
172,340,59846,1,2,0:0:0:0:
184,308,59933,1,2,0:0:0:0:
208,284,60020,1,2,0:0:0:0:
220,260,60108,1,2,0:0:0:0:
228,228,60195,1,2,0:0:0:0:
228,196,60282,1,2,0:0:0:0:
216,164,60369,1,2,0:0:0:0:
196,136,60457,1,2,0:0:0:0:
164,120,60544,1,2,0:0:0:0:
132,116,60631,1,2,0:0:0:0:
100,120,60718,1,2,0:0:0:0:
68,132,60805,1,2,0:0:0:0:
44,156,60893,1,2,0:0:0:0:
32,188,60980,1,2,0:0:0:0:
32,220,61067,1,2,0:0:0:0:
44,252,61154,5,2,0:0:0:0:
72,232,61241,1,2,0:0:0:0:
84,200,61329,1,2,0:0:0:0:
84,168,61416,1,2,0:0:0:0:
68,132,61503,1,2,0:0:0:0:
44,108,61590,1,2,0:0:0:0:
28,76,61677,1,2,0:0:0:0:
40,44,61765,1,2,0:0:0:0:
68,28,61852,2,0,P|88:20|124:20,3,42.5
172,80,62201,5,2,0:0:0:0:
168,112,62288,1,2,0:0:0:0:
152,140,62375,1,2,0:0:0:0:
128,164,62462,1,2,0:0:0:0:
100,184,62550,2,2,L|92:240,1,42.5
196,312,62724,5,2,0:0:0:0:
196,312,62811,1,2,0:0:0:0:
196,312,62898,2,2,L|228:276,1,42.5
316,148,63073,2,2,L|276:184,1,42.5
320,288,63247,5,2,0:0:0:0:
332,256,63334,1,2,0:0:0:0:
360,236,63422,1,2,0:0:0:0:
392,236,63509,1,2,0:0:0:0:
416,256,63596,1,2,0:0:0:0:
428,288,63683,1,2,0:0:0:0:
432,320,63770,1,2,0:0:0:0:
412,348,63858,1,2,0:0:0:0:
380,360,63945,1,2,0:0:0:0:
348,348,64032,1,2,0:0:0:0:
328,320,64119,1,2,0:0:0:0:
340,288,64207,1,2,0:0:0:0:
364,264,64294,2,2,L|368:208,1,42.5
280,128,64468,1,2,0:0:0:0:
272,124,64555,1,2,0:0:0:0:
264,120,64643,6,2,L|236:76,1,42.5
104,116,64817,2,2,L|144:160,1,42.5
288,224,64991,6,2,L|320:176,3,42.5
336,120,65340,1,2,0:0:0:0:
359,120,65427,1,2,0:0:0:0:
383,133,65515,1,2,0:0:0:0:
402,152,65602,1,2,0:0:0:0:
400,180,65689,2,2,L|376:220,1,42.5
264,256,65863,2,2,L|236:296,1,42.5
413,260,66038,5,2,0:0:0:0:
429,276,66125,1,2,0:0:0:0:
440,292,66212,2,2,L|472:328,1,42.5
381,339,66387,5,2,0:0:0:0:
348,332,66474,1,2,0:0:0:0:
316,340,66561,1,2,0:0:0:0:
284,352,66648,1,2,0:0:0:0:
248,348,66736,6,2,L|252:284,1,42.5
152,96,66910,2,2,L|136:176,1,42.5
324,220,67084,6,2,L|336:148,1,42.5
100,252,67259,2,2,L|96:312,1,42.5
291,159,67433,5,2,0:0:0:0:
267,139,67520,1,2,0:0:0:0:
235,131,67608,1,2,0:0:0:0:
207,147,67695,1,2,0:0:0:0:
195,179,67782,1,2,0:0:0:0:
203,211,67869,1,2,0:0:0:0:
224,236,67957,6,2,P|244:248|272:248,1,42.5
272,336,68131,2,2,P|300:332|332:316,1,42.5
416,200,68305,2,2,L|428:136,1,42.5
416,216,68480,2,2,L|432:160,1,42.5
300,176,68654,2,2,P|264:172|240:176,1,42.5
135,271,68828,5,2,0:0:0:0:
103,283,68916,1,2,0:0:0:0:
99,315,69003,1,2,0:0:0:0:
111,347,69090,1,2,0:0:0:0:
135,371,69177,1,2,0:0:0:0:
167,379,69265,1,2,0:0:0:0:
199,367,69352,1,2,0:0:0:0:
219,339,69439,1,2,0:0:0:0:
223,307,69526,1,2,0:0:0:0:
215,275,69613,1,2,0:0:0:0:
211,243,69701,1,2,0:0:0:0:
219,211,69788,1,2,0:0:0:0:
243,187,69875,1,2,0:0:0:0:
275,183,69962,1,2,0:0:0:0:
307,191,70049,1,2,0:0:0:0:
335,211,70137,1,2,0:0:0:0:
343,243,70224,5,2,0:0:0:0:
311,235,70311,1,2,0:0:0:0:
291,207,70398,1,2,0:0:0:0:
283,175,70485,1,2,0:0:0:0:
291,143,70573,1,2,0:0:0:0:
307,111,70660,1,2,0:0:0:0:
311,79,70747,1,2,0:0:0:0:
291,51,70834,1,2,0:0:0:0:
260,40,70922,6,2,L|244:88,1,42.5
144,184,71096,2,2,L|164:132,1,42.5
143,63,71270,5,2,0:0:0:0:
175,63,71358,1,2,0:0:0:0:
207,67,71445,1,2,0:0:0:0:
239,67,71532,1,2,0:0:0:0:
271,67,71619,1,2,0:0:0:0:
303,67,71706,1,2,0:0:0:0:
339,67,71794,1,2,0:0:0:0:
371,67,71881,1,2,0:0:0:0:
403,67,71968,5,2,0:0:0:0:
399,95,72055,1,2,0:0:0:0:
391,123,72142,1,2,0:0:0:0:
383,151,72230,1,2,0:0:0:0:
375,179,72317,1,2,0:0:0:0:
367,207,72404,1,2,0:0:0:0:
359,235,72491,1,2,0:0:0:0:
351,263,72578,1,2,0:0:0:0:
344,296,72666,6,2,L|336:352,3,42.5
272,208,73015,2,2,L|256:168,3,42.5
219,303,73363,5,2,0:0:0:0:
251,299,73451,1,2,0:0:0:0:
275,279,73538,1,2,0:0:0:0:
291,251,73625,1,2,0:0:0:0:
287,219,73712,5,2,0:0:0:0:
271,203,73799,1,2,0:0:0:0:
247,195,73887,1,2,0:0:0:0:
223,187,73974,1,2,0:0:0:0:
203,171,74061,2,2,L|151:143,3,42.5
279,7,74410,5,2,0:0:0:0:
311,11,74497,1,2,0:0:0:0:
339,31,74584,1,2,0:0:0:0:
339,67,74672,1,2,0:0:0:0:
319,95,74759,1,2,0:0:0:0:
287,111,74846,1,2,0:0:0:0:
263,135,74933,1,2,0:0:0:0:
259,167,75020,1,2,0:0:0:0:
267,199,75108,1,2,0:0:0:0:
291,223,75195,1,2,0:0:0:0:
323,235,75282,1,2,0:0:0:0:
355,227,75369,1,2,0:0:0:0:
379,203,75456,1,2,0:0:0:0:
379,167,75544,1,2,0:0:0:0:
363,139,75631,1,2,0:0:0:0:
339,115,75718,1,2,0:0:0:0:
307,103,75805,5,2,0:0:0:0:
275,95,75892,1,2,0:0:0:0:
259,67,75980,1,2,0:0:0:0:
263,35,76067,1,2,0:0:0:0:
287,11,76154,1,2,0:0:0:0:
319,3,76241,1,2,0:0:0:0:
351,7,76328,1,2,0:0:0:0:
379,27,76416,1,2,0:0:0:0:
392,60,76503,2,2,L|400:124,3,42.5
332,216,76852,2,2,L|312:168,3,42.5
140,160,77201,2,2,L|116:216,3,42.5
115,51,77550,5,2,0:0:0:0:
143,71,77637,1,2,0:0:0:0:
175,75,77724,1,2,0:0:0:0:
207,63,77811,1,2,0:0:0:0:
228,40,77898,6,2,P|188:64|216:140,1,127.5
304,104,78247,2,2,L|352:60,1,42.5
320,224,78422,2,2,L|284:264,1,42.5
239,195,78596,5,2,0:0:0:0:
207,195,78683,1,2,0:0:0:0:
183,219,78770,1,2,0:0:0:0:
171,251,78858,1,2,0:0:0:0:
179,283,78945,1,2,0:0:0:0:
203,307,79032,1,2,0:0:0:0:
235,315,79119,1,2,0:0:0:0:
267,303,79206,1,2,0:0:0:0:
287,275,79294,5,2,0:0:0:0:
271,260,79381,1,2,0:0:0:0:
255,245,79468,1,2,0:0:0:0:
239,230,79555,1,2,0:0:0:0:
215,207,79642,5,2,0:0:0:0:
199,175,79730,1,2,0:0:0:0:
203,143,79817,1,2,0:0:0:0:
219,115,79904,1,2,0:0:0:0:
247,99,79991,5,2,0:0:0:0:
279,99,80078,1,2,0:0:0:0:
311,107,80166,1,2,0:0:0:0:
327,135,80253,1,2,0:0:0:0:
355,155,80340,1,2,0:0:0:0:
387,155,80427,1,2,0:0:0:0:
407,127,80515,1,2,0:0:0:0:
399,95,80602,1,2,0:0:0:0:
371,75,80689,1,2,0:0:0:0:
339,75,80776,1,2,0:0:0:0:
307,87,80863,1,2,0:0:0:0:
271,83,80951,1,2,0:0:0:0:
244,64,81038,2,2,L|256:12,3,42.5
204,184,81387,2,2,L|192:232,3,42.5
216,112,81736,5,2,0:0:0:0:
200,84,81823,1,2,0:0:0:0:
168,68,81910,1,2,0:0:0:0:
136,72,81997,1,2,0:0:0:0:
108,92,82084,1,2,0:0:0:0:
100,124,82172,1,2,0:0:0:0:
112,156,82259,1,2,0:0:0:0:
136,180,82346,1,2,0:0:0:0:
168,172,82433,1,2,0:0:0:0:
196,152,82520,1,2,0:0:0:0:
216,112,82608,1,2,0:0:0:0:
200,84,82695,1,2,0:0:0:0:
172,64,82782,5,2,0:0:0:0:
207,64,82869,1,2,0:0:0:0:
238,68,82956,1,2,0:0:0:0:
265,83,83044,1,2,0:0:0:0:
285,107,83131,1,2,0:0:0:0:
295,136,83218,1,2,0:0:0:0:
294,168,83305,1,2,0:0:0:0:
275,188,83392,1,2,0:0:0:0:
243,192,83480,1,2,0:0:0:0:
199,184,83567,5,2,0:0:0:0:
155,192,83654,1,2,0:0:0:0:
131,224,83741,1,2,0:0:0:0:
131,264,83828,1,2,0:0:0:0:
158,289,83916,1,2,0:0:0:0:
199,292,84003,1,2,0:0:0:0:
235,268,84090,1,2,0:0:0:0:
267,232,84177,6,2,P|235:172|151:120,1,127.5
124,200,84526,1,2,0:0:0:0:
268,248,84701,2,2,L|380:248,1,85
167,323,85049,1,2,0:0:0:0:
280,152,85224,6,2,L|288:216,1,42.5
251,355,85398,2,2,L|243:291,1,42.5
339,347,85573,5,2,0:0:0:0:
359,331,85660,1,2,0:0:0:0:
371,307,85747,1,2,0:0:0:0:
379,283,85834,1,2,0:0:0:0:
383,259,85922,1,2,0:0:0:0:
379,235,86009,1,2,0:0:0:0:
367,215,86096,1,2,0:0:0:0:
351,199,86183,1,2,0:0:0:0:
327,191,86270,5,2,0:0:0:0:
303,195,86358,1,2,0:0:0:0:
280,208,86445,2,2,L|232:180,1,42.5
312,320,86619,6,2,L|360:344,1,42.5
224,332,86794,2,2,L|248:372,1,42.5
179,283,86968,5,2,0:0:0:0:
171,259,87055,1,2,0:0:0:0:
183,239,87142,1,2,0:0:0:0:
207,247,87230,1,2,0:0:0:0:
227,259,87317,1,2,0:0:0:0:
239,279,87404,1,2,0:0:0:0:
259,291,87491,1,2,0:0:0:0:
283,291,87578,1,2,0:0:0:0:
307,279,87666,1,2,0:0:0:0:
323,259,87753,5,2,0:0:0:0:
331,235,87840,1,2,0:0:0:0:
335,211,87927,1,2,0:0:0:0:
335,187,88015,1,2,0:0:0:0:
331,163,88102,1,2,0:0:0:0:
319,139,88189,1,2,0:0:0:0:
299,127,88276,1,2,0:0:0:0:
275,119,88363,1,2,0:0:0:0:
255,99,88451,1,2,0:0:0:0:
239,79,88538,1,2,0:0:0:0:
235,55,88625,1,2,0:0:0:0:
235,31,88712,1,2,0:0:0:0:
247,7,88799,1,2,0:0:0:0:
271,0,88887,1,2,0:0:0:0:
295,0,88974,1,2,0:0:0:0:
319,0,89061,6,2,L|335:55,1,42.5
444,112,89235,2,2,L|432:69,1,42.5
360,188,89410,2,2,L|372:231,1,42.5
464,312,89584,6,2,L|452:269,1,42.5
328,320,89759,5,2,0:0:0:0:
296,333,89846,1,2,0:0:0:0:
264,329,89933,1,2,0:0:0:0:
244,305,90020,1,2,0:0:0:0:
241,270,90108,2,2,P|237:334|221:366,1,85
148,256,90457,5,2,0:0:0:0:
172,260,90544,1,2,0:0:0:0:
196,256,90631,1,2,0:0:0:0:
216,248,90719,1,2,0:0:0:0:
232,236,90806,1,2,0:0:0:0:
248,220,90893,1,2,0:0:0:0:
260,200,90980,6,2,L|280:152,1,42.5
385,118,91155,2,2,L|368:160,1,42.5
312,88,91329,6,2,L|329:46,1,42.5
437,6,91503,2,2,L|420:48,1,42.5
284,100,91677,6,2,L|320:40,1,42.5
412,176,91852,2,2,L|376:232,1,42.5
192,148,92026,6,2,L|252:128,1,42.5
384,284,92201,2,2,L|328:272,1,42.5
272,188,92375,6,2,L|276:136,1,42.5
472,128,92549,1,2,0:0:0:0:
324,64,92724,1,2,0:0:0:0:
288,148,92898,2,2,P|224:144|192:128,1,85
240,52,93247,1,2,0:0:0:0:
125,20,93422,5,2,0:0:0:0:
139,51,93509,1,2,0:0:0:0:
167,71,93596,1,2,0:0:0:0:
199,71,93683,1,2,0:0:0:0:
227,51,93770,1,2,0:0:0:0:
239,19,93858,1,2,0:0:0:0:
231,0,93945,6,2,L|279:7,1,42.5
265,256,94119,2,2,L|223:239,1,42.5
347,71,94294,2,2,L|389:88,1,42.5
391,379,94468,2,2,L|349:362,1,42.5
132,284,94643,2,2,L|196:296,1,42.5
452,152,94817,2,2,L|376:144,1,42.5
112,72,94991,2,2,L|176:72,1,42.5
480,268,95166,2,2,L|416:280,1,42.5
56,176,95340,5,2,0:0:0:0:
84,156,95427,1,2,0:0:0:0:
116,144,95515,1,2,0:0:0:0:
148,148,95602,1,2,0:0:0:0:
180,160,95689,1,2,0:0:0:0:
200,188,95776,1,2,0:0:0:0:
208,220,95863,1,2,0:0:0:0:
212,256,95951,1,2,0:0:0:0:
200,288,96038,1,2,0:0:0:0:
176,312,96125,1,2,0:0:0:0:
148,328,96212,1,2,0:0:0:0:
116,336,96300,1,2,0:0:0:0:
84,332,96387,1,2,0:0:0:0:
56,316,96474,1,2,0:0:0:0:
40,288,96561,1,2,0:0:0:0:
40,256,96648,1,2,0:0:0:0:
44,224,96736,5,2,0:0:0:0:
72,244,96823,1,2,0:0:0:0:
84,276,96910,1,2,0:0:0:0:
80,308,96997,1,2,0:0:0:0:
92,340,97084,1,2,0:0:0:0:
112,368,97172,1,2,0:0:0:0:
144,368,97259,1,2,0:0:0:0:
176,356,97346,1,2,0:0:0:0:
200,332,97433,1,2,0:0:0:0:
204,300,97520,1,2,0:0:0:0:
196,268,97608,1,2,0:0:0:0:
172,244,97695,1,2,0:0:0:0:
144,224,97782,1,2,0:0:0:0:
120,200,97869,1,2,0:0:0:0:
104,172,97957,1,2,0:0:0:0:
104,140,98044,1,2,0:0:0:0:
112,108,98131,6,2,P|128:68|212:36,1,127.5
108,220,98480,1,2,0:0:0:0:
208,128,98654,1,2,0:0:0:0:
40,148,98829,5,2,0:0:0:0:
56,120,98916,1,2,0:0:0:0:
88,108,99003,1,2,0:0:0:0:
124,112,99090,1,2,0:0:0:0:
148,136,99177,1,2,0:0:0:0:
152,168,99265,1,2,0:0:0:0:
172,196,99352,1,2,0:0:0:0:
204,200,99439,1,2,0:0:0:0:
236,184,99526,5,2,0:0:0:0:
236,200,99613,1,2,0:0:0:0:
236,216,99701,1,2,0:0:0:0:
236,232,99788,1,2,0:0:0:0:
236,248,99875,1,2,0:0:0:0:
236,264,99962,1,2,0:0:0:0:
236,280,100050,1,2,0:0:0:0:
236,296,100137,1,2,0:0:0:0:
236,312,100224,5,2,0:0:0:0:
260,304,100311,1,2,0:0:0:0:
268,280,100398,1,2,0:0:0:0:
272,256,100486,1,2,0:0:0:0:
264,232,100573,1,2,0:0:0:0:
248,212,100660,1,2,0:0:0:0:
224,200,100747,1,2,0:0:0:0:
200,200,100834,1,2,0:0:0:0:
176,208,100922,1,2,0:0:0:0:
256,204,101096,5,2,0:0:0:0:
256,204,101183,1,2,0:0:0:0:
256,204,101270,1,2,0:0:0:0:
132,72,101445,1,2,0:0:0:0:
256,60,101619,6,2,L|232:104,1,42.5
32,232,101794,2,2,L|72:180,1,42.5
376,108,101968,2,2,L|352:156,1,42.5
120,352,102143,2,2,L|164:304,1,42.5
428,292,102317,5,2,0:0:0:0:
408,276,102404,1,2,0:0:0:0:
384,264,102491,1,2,0:0:0:0:
360,260,102579,1,2,0:0:0:0:
336,256,102666,1,2,0:0:0:0:
312,260,102753,1,2,0:0:0:0:
288,268,102840,1,2,0:0:0:0:
264,280,102927,1,2,0:0:0:0:
240,292,103015,1,2,0:0:0:0:
224,312,103102,1,2,0:0:0:0:
200,324,103189,1,2,0:0:0:0:
176,328,103276,1,2,0:0:0:0:
152,324,103363,1,2,0:0:0:0:
128,316,103451,1,2,0:0:0:0:
104,304,103538,1,2,0:0:0:0:
84,288,103625,1,2,0:0:0:0:
76,264,103712,6,2,P|64:200|96:136,1,127.5
152,212,104061,1,2,0:0:0:0:
260,120,104236,1,2,0:0:0:0:
336,260,104410,5,2,0:0:0:0:
320,220,104497,1,2,0:0:0:0:
280,212,104584,1,2,0:0:0:0:
240,220,104672,1,2,0:0:0:0:
204,244,104759,1,2,0:0:0:0:
192,284,104846,1,2,0:0:0:0:
196,328,104933,1,2,0:0:0:0:
228,356,105020,1,2,0:0:0:0:
272,364,105108,5,2,0:0:0:0:
260,320,105195,1,2,0:0:0:0:
228,288,105282,1,2,0:0:0:0:
188,264,105369,1,2,0:0:0:0:
140,260,105457,1,2,0:0:0:0:
92,260,105544,1,2,0:0:0:0:
52,240,105631,1,2,0:0:0:0:
32,200,105718,1,2,0:0:0:0:
40,152,105805,1,2,0:0:0:0:
72,116,105893,1,2,0:0:0:0:
120,112,105980,1,2,0:0:0:0:
164,128,106067,1,2,0:0:0:0:
184,168,106154,1,2,0:0:0:0:
188,216,106241,1,2,0:0:0:0:
188,264,106329,1,2,0:0:0:0:
220,300,106416,1,2,0:0:0:0:
264,320,106503,1,2,0:0:0:0:
344,248,106677,5,2,0:0:0:0:
344,248,106765,1,2,0:0:0:0:
344,248,106852,1,2,0:0:0:0:
168,300,107026,5,2,0:0:0:0:
168,300,107113,1,2,0:0:0:0:
168,300,107201,1,2,0:0:0:0:
136,112,107375,5,2,0:0:0:0:
136,112,107462,1,2,0:0:0:0:
136,112,107550,1,2,0:0:0:0:
400,168,107724,5,2,0:0:0:0:
400,168,107811,1,2,0:0:0:0:
400,168,107898,1,2,0:0:0:0:
320,304,108073,5,2,0:0:0:0:
320,304,108160,1,2,0:0:0:0:
320,304,108247,1,2,0:0:0:0:
156,280,108422,5,2,0:0:0:0:
156,280,108509,1,2,0:0:0:0:
156,280,108596,1,2,0:0:0:0:
300,304,108770,5,2,0:0:0:0:
300,304,108858,1,2,0:0:0:0:
300,304,108945,1,2,0:0:0:0:
352,136,109119,5,2,0:0:0:0:
352,136,109207,1,2,0:0:0:0:
352,136,109294,5,2,0:0:0:0:
348,95,109381,1,2,0:0:0:0:
330,59,109468,1,2,0:0:0:0:
301,31,109555,1,2,0:0:0:0:
264,15,109643,1,2,0:0:0:0:
224,12,109730,1,2,0:0:0:0:
185,23,109817,1,2,0:0:0:0:
153,47,109904,1,2,0:0:0:0:
124,88,109991,5,2,0:0:0:0:
168,82,110079,1,2,0:0:0:0:
213,88,110166,1,2,0:0:0:0:
254,105,110253,1,2,0:0:0:0:
291,131,110340,1,2,0:0:0:0:
320,165,110427,1,2,0:0:0:0:
339,206,110515,1,2,0:0:0:0:
349,249,110602,1,2,0:0:0:0:
344,292,110689,6,2,L|284:296,1,42.5000016212464
344,300,110805,2,2,L|300:304,1,42.5000016212464
344,308,110922,2,2,L|288:312,1,42.5000016212464
344,312,111037,6,2,L|404:316,1,42.5000016212464
344,320,111153,2,2,L|388:324,1,42.5000016212464
344,328,111270,2,2,L|400:332,1,42.5000016212464
344,332,111387,6,2,L|284:336,1,42.5000016212464
344,340,111503,2,2,L|300:344,1,42.5000016212464
344,348,111620,2,2,L|288:352,1,42.5000016212464
344,352,111735,6,2,L|404:356,1,42.5000016212464
344,360,111851,2,2,L|388:364,1,42.5000016212464
344,368,111968,2,2,L|400:372,1,42.5000016212464
256,192,112084,12,2,123073,0:0:0:0:
244,188,123247,5,2,0:0:0:0:
256,192,123596,12,2,127346,0:0:0:0:
92,96,133015,6,2,L|136:80,1,28.3333333333333
96,100,133131,2,2,L|140:84,1,28.3333333333333
100,104,133247,6,2,L|144:88,1,28.3333333333333
104,108,133363,2,2,L|144:96,1,28.3333333333333
108,116,133480,6,2,L|152:100,1,28.3333333333333
112,120,133596,2,2,L|156:104,1,28.3333333333333
116,124,133712,6,2,L|160:108,1,28.3333333333333
120,128,133828,2,2,L|160:116,1,28.3333333333333
124,132,133945,6,2,L|168:116,1,28.3333333333333
128,136,134061,2,2,L|172:120,1,28.3333333333333
132,140,134177,6,2,L|176:124,1,28.3333333333333
136,144,134293,2,2,L|176:132,1,28.3333333333333
136,152,134410,6,2,P|192:188|304:192,1,182.142857142857
320,88,137201,2,2,L|320:180,1,85
304,312,138770,2,2,L|200:304,1,85
136,264,139468,1,2,0:0:0:0:
348,332,139817,1,2,0:0:0:0:
332,216,139991,2,2,P|296:180|216:164,1,127.5
184,240,140689,1,2,0:0:0:0:
184,240,140863,1,2,0:0:0:0:
300,292,141038,5,2,0:0:0:0:
348,296,141212,2,2,P|348:248|324:196,1,85
168,216,141910,2,2,P|128:192|104:120,1,106.25
164,80,142433,1,2,0:0:0:0:
212,304,142608,2,2,P|276:304|320:276,1,106.25
248,208,143131,6,2,L|248:56,1,151.785714285714
176,72,145398,1,0,0:0:0:0:
188,160,145573,6,0,L|156:176,1,31.8750012159348
28,236,145747,1,2,0:0:0:0:
88,136,145922,1,2,0:0:0:0:
88,144,146096,6,0,P|88:196|156:248,1,127.5
208,260,146445,1,2,0:0:0:0:
259,262,146619,1,2,0:0:0:0:
311,240,146794,1,2,0:0:0:0:
352,207,146968,2,2,L|367:172,1,36.4285714285714
288,264,147666,2,2,L|288:232,1,30.3571428571429
328,136,148189,1,2,0:0:0:0:
200,132,148363,6,2,L|104:148,1,85
108,156,148800,1,2,0:0:0:0:
104,168,148887,1,2,0:0:0:0:
100,180,148974,1,2,0:0:0:0:
84,276,149236,1,2,0:0:0:0:
84,276,149584,1,2,0:0:0:0:
84,276,149933,1,2,0:0:0:0:
84,276,150282,1,2,0:0:0:0:
84,276,150631,5,2,0:0:0:0:
84,276,150980,1,2,0:0:0:0:
200,304,151154,2,2,P|264:280|304:232,1,127.5
312,172,151852,1,2,0:0:0:0:
380,332,152201,1,2,0:0:0:0:
256,340,152375,2,2,P|216:324|160:320,2,85
400,204,153422,5,2,0:0:0:0:
396,252,153596,2,2,P|364:276|328:280,1,63.75
256,328,153945,6,2,L|256:184,1,139.642857142857
256,172,156038,1,2,0:0:0:0:
156,88,156212,1,2,0:0:0:0:
76,252,156387,2,2,L|152:228,1,63.75
240,156,156736,6,2,P|192:140|128:188,1,127.5
120,196,157084,2,2,L|100:108,1,85
196,216,157433,1,2,0:0:0:0:
196,216,157520,1,2,0:0:0:0:
196,216,157608,2,2,L|216:304,1,85
144,336,157957,1,2,0:0:0:0:
292,328,158131,6,2,P|340:324|380:344,1,85
384,352,158393,1,2,0:0:0:0:
392,364,158480,1,2,0:0:0:0:
464,192,158654,2,2,L|440:280,1,85
332,124,159003,2,2,L|356:212,1,85
416,108,159352,1,2,0:0:0:0:
416,108,159439,1,2,0:0:0:0:
416,108,159526,6,2,P|368:44|312:44,1,127.5
304,56,159875,1,2,0:0:0:0:
232,228,160050,1,2,0:0:0:0:
402,220,160224,1,2,0:0:0:0:
402,220,160311,1,2,0:0:0:0:
402,220,160398,2,2,P|358:222|316:208,1,85
156,96,160747,1,2,0:0:0:0:
100,296,160922,6,2,B|120:264|152:252|152:252|136:200|216:128,1,191.250007295609
228,216,161270,2,2,P|180:208|124:144,1,127.500004863739
52,216,161619,1,2,0:0:0:0:
52,216,161707,1,2,0:0:0:0:
52,216,161794,1,2,0:0:0:0:
232,228,161968,1,2,0:0:0:0:
88,136,162143,1,2,0:0:0:0:
188,296,162317,6,2,P|236:308|312:240,1,127.5
312,244,162666,2,2,P|316:292|336:328,1,85
392,264,163015,1,2,0:0:0:0:
404,268,163102,1,2,0:0:0:0:
416,272,163189,1,2,0:0:0:0:
456,152,163363,1,2,0:0:0:0:
232,228,163538,1,2,0:0:0:0:
448,356,163712,5,2,0:0:0:0:
320,124,163887,1,2,0:0:0:0:
308,116,163974,1,2,0:0:0:0:
296,108,164061,2,2,L|200:96,1,85
320,212,164410,1,2,0:0:0:0:
320,212,164497,1,2,0:0:0:0:
320,212,164584,1,2,0:0:0:0:
160,272,164759,1,2,0:0:0:0:
400,168,164933,1,2,0:0:0:0:
232,228,165108,6,2,P|240:272|228:316,1,85
216,328,165369,1,2,0:0:0:0:
200,336,165457,1,2,0:0:0:0:
140,68,165631,1,2,0:0:0:0:
240,116,165805,1,2,0:0:0:0:
256,112,165893,1,2,0:0:0:0:
272,108,165980,1,2,0:0:0:0:
104,188,166154,1,2,0:0:0:0:
320,212,166329,1,2,0:0:0:0:
416,384,166503,6,2,L|388:240,1,127.5
396,236,166852,1,2,0:0:0:0:
396,236,167026,1,2,0:0:0:0:
236,228,167201,1,2,0:0:0:0:
236,228,167288,1,2,0:0:0:0:
236,228,167375,2,2,P|196:248|148:248,1,85
216,328,167724,1,2,0:0:0:0:
388,104,167898,5,2,0:0:0:0:
348,128,167986,1,2,0:0:0:0:
324,168,168073,1,2,0:0:0:0:
324,216,168160,1,2,0:0:0:0:
344,260,168247,5,2,0:0:0:0:
360,220,168334,1,2,0:0:0:0:
352,176,168422,1,2,0:0:0:0:
324,144,168509,1,2,0:0:0:0:
288,124,168596,1,2,0:0:0:0:
248,116,168683,1,2,0:0:0:0:
204,120,168770,1,2,0:0:0:0:
176,152,168858,1,2,0:0:0:0:
168,192,168945,5,2,0:0:0:0:
204,172,169032,1,2,0:0:0:0:
216,132,169119,1,2,0:0:0:0:
204,92,169207,1,2,0:0:0:0:
176,60,169294,1,2,0:0:0:0:
136,44,169381,1,2,0:0:0:0:
96,52,169468,1,2,0:0:0:0:
64,80,169555,1,2,0:0:0:0:
40,116,169643,5,2,0:0:0:0:
36,160,169730,1,2,0:0:0:0:
48,200,169817,1,2,0:0:0:0:
72,232,169904,1,2,0:0:0:0:
108,256,169991,1,2,0:0:0:0:
148,264,170079,1,2,0:0:0:0:
192,264,170166,1,2,0:0:0:0:
228,244,170253,1,2,0:0:0:0:
252,212,170340,5,2,0:0:0:0:
208,216,170427,1,2,0:0:0:0:
176,244,170515,1,2,0:0:0:0:
164,284,170602,1,2,0:0:0:0:
176,324,170689,1,2,0:0:0:0:
204,352,170776,1,2,0:0:0:0:
248,352,170863,1,2,0:0:0:0:
292,348,170951,1,2,0:0:0:0:
324,324,171038,6,2,L|332:260,1,42.5
260,76,171213,2,2,L|248:136,1,42.5
440,228,171387,2,2,L|464:172,1,42.5
104,172,171561,2,2,L|84:224,1,42.5
140,348,171736,6,2,L|180:300,1,42.5
320,204,171910,2,2,L|304:260,1,42.5
292,336,172084,5,2,0:0:0:0:
320,316,172172,1,2,0:0:0:0:
352,304,172259,1,2,0:0:0:0:
384,304,172346,1,2,0:0:0:0:
416,316,172433,5,2,0:0:0:0:
428,284,172520,1,2,0:0:0:0:
444,252,172608,1,2,0:0:0:0:
468,228,172695,1,2,0:0:0:0:
496,208,172782,5,2,0:0:0:0:
464,200,172869,1,2,0:0:0:0:
428,200,172957,1,2,0:0:0:0:
400,216,173044,1,2,0:0:0:0:
380,244,173131,5,2,0:0:0:0:
364,212,173218,1,2,0:0:0:0:
336,192,173305,1,2,0:0:0:0:
304,184,173393,1,2,0:0:0:0:
272,184,173480,5,2,0:0:0:0:
236,200,173567,1,2,0:0:0:0:
200,212,173654,1,2,0:0:0:0:
160,216,173741,1,2,0:0:0:0:
120,208,173829,1,2,0:0:0:0:
88,192,173916,1,2,0:0:0:0:
64,164,174003,1,2,0:0:0:0:
48,128,174090,1,2,0:0:0:0:
52,92,174177,1,2,0:0:0:0:
80,64,174265,1,2,0:0:0:0:
116,52,174352,1,2,0:0:0:0:
152,56,174439,1,2,0:0:0:0:
184,76,174526,1,2,0:0:0:0:
196,112,174613,1,2,0:0:0:0:
204,152,174701,1,2,0:0:0:0:
200,188,174788,1,2,0:0:0:0:
188,224,174875,5,2,0:0:0:0:
180,264,174962,1,2,0:0:0:0:
184,308,175050,1,2,0:0:0:0:
208,344,175137,1,2,0:0:0:0:
252,348,175224,1,2,0:0:0:0:
296,348,175311,1,2,0:0:0:0:
336,332,175398,1,2,0:0:0:0:
364,300,175486,1,2,0:0:0:0:
380,260,175573,1,2,0:0:0:0:
384,216,175660,1,2,0:0:0:0:
380,172,175747,1,2,0:0:0:0:
352,140,175834,1,2,0:0:0:0:
320,112,175922,1,2,0:0:0:0:
280,104,176009,1,2,0:0:0:0:
236,108,176096,1,2,0:0:0:0:
200,132,176183,1,2,0:0:0:0:
176,168,176270,5,2,0:0:0:0:
224,164,176358,1,2,0:0:0:0:
248,124,176445,1,2,0:0:0:0:
240,80,176532,1,2,0:0:0:0:
204,52,176619,1,2,0:0:0:0:
156,48,176707,1,2,0:0:0:0:
112,68,176794,1,2,0:0:0:0:
88,108,176881,1,2,0:0:0:0:
80,156,176968,1,2,0:0:0:0:
88,204,177055,1,2,0:0:0:0:
120,240,177143,1,2,0:0:0:0:
160,260,177230,1,2,0:0:0:0:
208,268,177317,1,2,0:0:0:0:
252,260,177404,1,2,0:0:0:0:
300,256,177491,1,2,0:0:0:0:
344,276,177579,1,2,0:0:0:0:
364,316,177666,6,2,P|384:320|404:320,15,31.875
480,332,178712,1,2,0:0:0:0:
240,156,178887,1,2,0:0:0:0:
80,128,179061,5,2,0:0:0:0:
120,152,179149,1,2,0:0:0:0:
144,192,179236,1,2,0:0:0:0:
144,240,179323,1,2,0:0:0:0:
124,284,179410,5,2,0:0:0:0:
108,244,179497,1,2,0:0:0:0:
116,200,179585,1,2,0:0:0:0:
144,168,179672,1,2,0:0:0:0:
180,148,179759,1,2,0:0:0:0:
220,140,179846,1,2,0:0:0:0:
264,144,179933,1,2,0:0:0:0:
292,176,180021,1,2,0:0:0:0:
300,216,180108,5,2,0:0:0:0:
264,196,180195,1,2,0:0:0:0:
252,156,180282,1,2,0:0:0:0:
264,116,180370,1,2,0:0:0:0:
292,84,180457,1,2,0:0:0:0:
332,68,180544,1,2,0:0:0:0:
372,76,180631,1,2,0:0:0:0:
404,104,180718,1,2,0:0:0:0:
416,144,180805,5,2,0:0:0:0:
376,132,180893,1,2,0:0:0:0:
344,104,180980,1,2,0:0:0:0:
328,64,181067,1,2,0:0:0:0:
296,36,181154,1,2,0:0:0:0:
256,28,181241,1,2,0:0:0:0:
212,28,181329,1,2,0:0:0:0:
172,40,181416,1,2,0:0:0:0:
144,72,181503,5,2,0:0:0:0:
104,60,181590,1,2,0:0:0:0:
60,60,181677,1,2,0:0:0:0:
20,76,181765,1,2,0:0:0:0:
4,116,181852,1,2,0:0:0:0:
12,156,181939,1,2,0:0:0:0:
28,196,182026,1,2,0:0:0:0:
64,216,182113,1,2,0:0:0:0:
108,220,182201,5,2,0:0:0:0:
84,184,182288,1,2,0:0:0:0:
44,176,182375,1,2,0:0:0:0:
8,196,182462,1,2,0:0:0:0:
0,240,182550,1,2,0:0:0:0:
16,280,182637,1,2,0:0:0:0:
48,308,182724,1,2,0:0:0:0:
88,316,182811,1,2,0:0:0:0:
128,308,182898,5,2,0:0:0:0:
164,288,182986,1,2,0:0:0:0:
184,252,183073,1,2,0:0:0:0:
200,212,183160,1,2,0:0:0:0:
228,180,183247,1,2,0:0:0:0:
268,164,183334,1,2,0:0:0:0:
312,156,183422,1,2,0:0:0:0:
352,168,183509,1,2,0:0:0:0:
380,200,183596,5,2,0:0:0:0:
336,204,183683,1,2,0:0:0:0:
296,188,183770,1,2,0:0:0:0:
268,156,183858,1,2,0:0:0:0:
256,116,183945,1,2,0:0:0:0:
252,72,184032,1,2,0:0:0:0:
224,40,184119,1,2,0:0:0:0:
180,40,184207,1,2,0:0:0:0:
144,60,184294,1,2,0:0:0:0:
128,100,184381,1,2,0:0:0:0:
132,144,184468,1,2,0:0:0:0:
152,180,184555,1,2,0:0:0:0:
188,200,184643,2,2,L|192:244,3,42.5
348,180,184991,5,2,0:0:0:0:
312,156,185079,1,2,0:0:0:0:
268,160,185166,1,2,0:0:0:0:
232,184,185253,1,2,0:0:0:0:
208,220,185340,1,2,0:0:0:0:
176,248,185427,1,2,0:0:0:0:
136,268,185515,1,2,0:0:0:0:
92,272,185602,1,2,0:0:0:0:
52,252,185689,5,2,0:0:0:0:
96,248,185776,1,2,0:0:0:0:
140,244,185863,1,2,0:0:0:0:
180,232,185951,1,2,0:0:0:0:
208,220,186038,1,2,0:0:0:0:
232,184,186125,1,2,0:0:0:0:
252,148,186212,1,2,0:0:0:0:
252,104,186300,1,2,0:0:0:0:
252,60,186387,5,2,0:0:0:0:
220,84,186474,1,2,0:0:0:0:
216,128,186561,1,2,0:0:0:0:
228,168,186648,1,2,0:0:0:0:
260,196,186736,1,2,0:0:0:0:
296,220,186823,1,2,0:0:0:0:
340,216,186910,1,2,0:0:0:0:
384,212,186997,1,2,0:0:0:0:
416,184,187084,5,2,0:0:0:0:
372,184,187172,1,2,0:0:0:0:
328,184,187259,1,2,0:0:0:0:
284,184,187346,1,2,0:0:0:0:
240,184,187433,5,2,0:0:0:0:
252,144,187520,1,2,0:0:0:0:
284,116,187608,1,2,0:0:0:0:
324,108,187695,1,2,0:0:0:0:
364,116,187782,5,2,0:0:0:0:
396,144,187869,1,2,0:0:0:0:
416,184,187957,1,2,0:0:0:0:
412,228,188044,1,2,0:0:0:0:
396,268,188131,1,2,0:0:0:0:
360,288,188218,1,2,0:0:0:0:
320,304,188305,1,2,0:0:0:0:
280,316,188393,1,2,0:0:0:0:
260,352,188480,5,2,0:0:0:0:
304,348,188567,1,2,0:0:0:0:
336,320,188654,1,2,0:0:0:0:
340,276,188741,1,2,0:0:0:0:
324,236,188829,1,2,0:0:0:0:
300,204,188916,1,2,0:0:0:0:
260,188,189003,1,2,0:0:0:0:
216,184,189090,1,2,0:0:0:0:
176,196,189177,5,2,0:0:0:0:
132,204,189265,1,2,0:0:0:0:
88,200,189352,1,2,0:0:0:0:
60,168,189439,1,2,0:0:0:0:
56,124,189526,6,2,L|68:68,1,42.5
184,260,189701,2,2,L|184:328,1,42.5
292,80,189875,6,2,L|312:32,1,42.5
360,256,190050,2,2,L|380:336,1,42.5
432,128,190224,5,2,0:0:0:0:
392,152,190312,1,2,0:0:0:0:
368,192,190399,1,2,0:0:0:0:
368,240,190486,1,2,0:0:0:0:
388,284,190573,5,2,0:0:0:0:
404,244,190660,1,2,0:0:0:0:
396,200,190748,1,2,0:0:0:0:
368,168,190835,1,2,0:0:0:0:
332,148,190922,1,2,0:0:0:0:
292,140,191009,1,2,0:0:0:0:
248,144,191096,1,2,0:0:0:0:
220,176,191184,1,2,0:0:0:0:
212,216,191271,5,2,0:0:0:0:
248,196,191358,1,2,0:0:0:0:
260,156,191445,1,2,0:0:0:0:
248,116,191533,1,2,0:0:0:0:
220,84,191620,1,2,0:0:0:0:
180,68,191707,1,2,0:0:0:0:
140,76,191794,1,2,0:0:0:0:
108,104,191881,1,2,0:0:0:0:
96,144,191968,5,2,0:0:0:0:
136,132,192056,1,2,0:0:0:0:
168,104,192143,1,2,0:0:0:0:
184,64,192230,1,2,0:0:0:0:
216,36,192317,1,2,0:0:0:0:
256,28,192404,1,2,0:0:0:0:
300,28,192492,1,2,0:0:0:0:
340,40,192579,1,2,0:0:0:0:
368,72,192666,5,2,0:0:0:0:
408,60,192753,1,2,0:0:0:0:
452,60,192840,1,2,0:0:0:0:
492,76,192928,1,2,0:0:0:0:
508,116,193015,1,2,0:0:0:0:
500,156,193102,1,2,0:0:0:0:
484,196,193189,1,2,0:0:0:0:
448,216,193276,1,2,0:0:0:0:
404,220,193364,5,2,0:0:0:0:
428,184,193451,1,2,0:0:0:0:
468,176,193538,1,2,0:0:0:0:
504,196,193625,1,2,0:0:0:0:
512,240,193713,1,2,0:0:0:0:
496,280,193800,1,2,0:0:0:0:
464,308,193887,1,2,0:0:0:0:
424,316,193974,1,2,0:0:0:0:
384,308,194061,5,2,0:0:0:0:
348,288,194149,1,2,0:0:0:0:
328,252,194236,1,2,0:0:0:0:
312,212,194323,1,2,0:0:0:0:
284,180,194410,1,2,0:0:0:0:
244,164,194497,1,2,0:0:0:0:
200,156,194585,1,2,0:0:0:0:
160,168,194672,1,2,0:0:0:0:
132,200,194759,5,2,0:0:0:0:
176,204,194846,1,2,0:0:0:0:
216,188,194933,1,2,0:0:0:0:
244,156,195021,1,2,0:0:0:0:
256,116,195108,1,2,0:0:0:0:
260,72,195195,1,2,0:0:0:0:
288,40,195282,1,2,0:0:0:0:
332,40,195370,1,2,0:0:0:0:
368,60,195457,1,2,0:0:0:0:
384,100,195544,1,2,0:0:0:0:
380,144,195631,1,2,0:0:0:0:
360,180,195718,1,2,0:0:0:0:
324,204,195805,2,2,L|320:248,3,42.5
164,180,196154,5,2,0:0:0:0:
200,156,196242,1,2,0:0:0:0:
244,160,196329,1,2,0:0:0:0:
280,184,196416,1,2,0:0:0:0:
304,220,196503,1,2,0:0:0:0:
336,248,196590,1,2,0:0:0:0:
376,268,196678,1,2,0:0:0:0:
420,272,196765,1,2,0:0:0:0:
460,252,196852,5,2,0:0:0:0:
416,248,196939,1,2,0:0:0:0:
372,244,197026,1,2,0:0:0:0:
332,232,197114,1,2,0:0:0:0:
296,208,197201,2,2,L|264:160,3,42.5
260,60,197550,5,2,0:0:0:0:
292,84,197637,1,2,0:0:0:0:
296,128,197724,1,2,0:0:0:0:
284,168,197811,1,2,0:0:0:0:
252,196,197899,1,2,0:0:0:0:
216,220,197986,1,2,0:0:0:0:
172,216,198073,1,2,0:0:0:0:
128,212,198160,1,2,0:0:0:0:
96,184,198247,5,2,0:0:0:0:
140,184,198335,1,2,0:0:0:0:
184,184,198422,1,2,0:0:0:0:
228,184,198509,1,2,0:0:0:0:
272,188,198596,2,2,L|288:144,3,42.5
148,116,198945,5,2,0:0:0:0:
116,144,199032,1,2,0:0:0:0:
96,184,199120,1,2,0:0:0:0:
100,228,199207,1,2,0:0:0:0:
120,264,199294,2,2,L|120:308,3,42.5
252,352,199643,5,2,0:0:0:0:
208,348,199730,1,2,0:0:0:0:
176,320,199817,1,2,0:0:0:0:
172,276,199904,1,2,0:0:0:0:
192,240,199991,2,2,L|204:196,23,28.3333333333333
212,172,201387,5,2,0:0:0:0:
252,156,201474,1,2,0:0:0:0:
296,164,201562,1,2,0:0:0:0:
328,192,201649,1,2,0:0:0:0:
332,236,201736,5,2,0:0:0:0:
292,244,201823,1,2,0:0:0:0:
248,240,201910,1,2,0:0:0:0:
220,208,201998,1,2,0:0:0:0:
212,168,202085,5,2,0:0:0:0:
248,188,202172,1,2,0:0:0:0:
260,228,202259,1,2,0:0:0:0:
248,268,202347,1,2,0:0:0:0:
220,300,202434,1,2,0:0:0:0:
180,316,202521,1,2,0:0:0:0:
140,308,202608,1,2,0:0:0:0:
108,280,202695,1,2,0:0:0:0:
96,240,202782,5,2,0:0:0:0:
136,252,202870,1,2,0:0:0:0:
168,280,202957,1,2,0:0:0:0:
184,320,203044,1,2,0:0:0:0:
216,348,203131,1,2,0:0:0:0:
256,356,203218,1,2,0:0:0:0:
300,356,203306,1,2,0:0:0:0:
340,344,203393,1,2,0:0:0:0:
368,312,203480,5,2,0:0:0:0:
408,324,203567,1,2,0:0:0:0:
452,324,203654,1,2,0:0:0:0:
492,308,203742,1,2,0:0:0:0:
508,268,203829,1,2,0:0:0:0:
500,228,203916,1,2,0:0:0:0:
484,188,204003,1,2,0:0:0:0:
448,168,204090,1,2,0:0:0:0:
404,164,204178,5,2,0:0:0:0:
428,200,204265,1,2,0:0:0:0:
468,208,204352,1,2,0:0:0:0:
504,188,204439,1,2,0:0:0:0:
512,144,204527,1,2,0:0:0:0:
496,104,204614,1,2,0:0:0:0:
464,76,204701,1,2,0:0:0:0:
424,68,204788,1,2,0:0:0:0:
384,76,204875,5,2,0:0:0:0:
348,96,204963,1,2,0:0:0:0:
328,132,205050,1,2,0:0:0:0:
312,172,205137,1,2,0:0:0:0:
284,204,205224,1,2,0:0:0:0:
244,220,205311,1,2,0:0:0:0:
200,228,205399,5,2,0:0:0:0:
200,184,205486,1,2,0:0:0:0:
204,140,205573,1,2,0:0:0:0:
208,96,205660,1,2,0:0:0:0:
212,52,205747,5,2,0:0:0:0:
180,80,205835,1,2,0:0:0:0:
172,120,205922,1,2,0:0:0:0:
188,160,206009,1,2,0:0:0:0:
228,172,206096,5,2,0:0:0:0:
232,216,206184,1,2,0:0:0:0:
240,256,206271,1,2,0:0:0:0:
244,296,206358,1,2,0:0:0:0:
252,336,206445,5,2,0:0:0:0:
232,300,206532,1,2,0:0:0:0:
200,272,206620,1,2,0:0:0:0:
160,264,206707,1,2,0:0:0:0:
116,268,206794,2,2,L|80:228,1,42.5
164,204,206968,5,2,0:0:0:0:
200,228,207056,1,2,0:0:0:0:
244,224,207143,1,2,0:0:0:0:
280,200,207230,1,2,0:0:0:0:
304,164,207317,1,2,0:0:0:0:
336,136,207404,1,2,0:0:0:0:
376,116,207492,1,2,0:0:0:0:
420,112,207579,1,2,0:0:0:0:
460,124,207666,2,2,L|456:168,1,42.5
356,308,207840,2,2,L|344:248,1,42.5
156,140,208015,5,2,0:0:0:0:
156,140,208102,1,2,0:0:0:0:
156,140,208189,2,2,L|152:184,1,42.5
260,324,208364,5,2,0:0:0:0:
292,300,208451,1,2,0:0:0:0:
296,256,208538,1,2,0:0:0:0:
284,216,208625,1,2,0:0:0:0:
252,188,208713,1,2,0:0:0:0:
216,164,208800,1,2,0:0:0:0:
172,168,208887,1,2,0:0:0:0:
128,172,208974,1,2,0:0:0:0:
96,200,209061,5,2,0:0:0:0:
140,200,209149,1,2,0:0:0:0:
184,200,209236,1,2,0:0:0:0:
228,200,209323,1,2,0:0:0:0:
272,200,209410,2,2,L|288:148,1,42.5
196,332,209584,2,2,L|176:372,1,42.5
148,268,209759,5,2,0:0:0:0:
116,240,209846,1,2,0:0:0:0:
96,200,209934,1,2,0:0:0:0:
100,156,210021,1,2,0:0:0:0:
120,120,210108,2,2,L|120:64,3,42.5
252,32,210457,5,2,0:0:0:0:
208,36,210544,1,2,0:0:0:0:
176,64,210631,1,2,0:0:0:0:
172,108,210718,1,2,0:0:0:0:
196,144,210805,2,2,L|196:192,3,42.5
336,188,211154,5,2,0:0:0:0:
380,180,211242,1,2,0:0:0:0:
424,184,211329,1,2,0:0:0:0:
452,216,211416,1,2,0:0:0:0:
456,260,211503,6,2,L|444:316,1,42.5
328,124,211678,2,2,L|328:56,1,42.5
220,304,211852,6,2,L|200:352,1,42.5
152,128,212027,2,2,L|132:48,1,42.5
80,256,212201,5,2,0:0:0:0:
120,232,212289,1,2,0:0:0:0:
144,192,212376,1,2,0:0:0:0:
144,144,212463,1,2,0:0:0:0:
124,100,212550,5,2,0:0:0:0:
108,140,212637,1,2,0:0:0:0:
116,184,212725,1,2,0:0:0:0:
144,216,212812,1,2,0:0:0:0:
180,236,212899,1,2,0:0:0:0:
220,244,212986,1,2,0:0:0:0:
264,240,213073,1,2,0:0:0:0:
292,208,213161,1,2,0:0:0:0:
300,168,213248,5,2,0:0:0:0:
264,188,213335,1,2,0:0:0:0:
252,228,213422,1,2,0:0:0:0:
264,268,213510,1,2,0:0:0:0:
292,300,213597,1,2,0:0:0:0:
332,316,213684,1,2,0:0:0:0:
372,308,213771,1,2,0:0:0:0:
404,280,213858,1,2,0:0:0:0:
416,240,213945,5,2,0:0:0:0:
376,252,214033,1,2,0:0:0:0:
344,280,214120,1,2,0:0:0:0:
328,320,214207,1,2,0:0:0:0:
296,348,214294,1,2,0:0:0:0:
256,356,214381,1,2,0:0:0:0:
212,356,214469,1,2,0:0:0:0:
172,344,214556,1,2,0:0:0:0:
144,312,214643,5,2,0:0:0:0:
104,324,214730,1,2,0:0:0:0:
60,324,214817,1,2,0:0:0:0:
20,308,214905,1,2,0:0:0:0:
4,268,214992,1,2,0:0:0:0:
12,228,215079,1,2,0:0:0:0:
28,188,215166,1,2,0:0:0:0:
64,168,215253,1,2,0:0:0:0:
108,164,215341,5,2,0:0:0:0:
84,200,215428,1,2,0:0:0:0:
44,208,215515,1,2,0:0:0:0:
8,188,215602,1,2,0:0:0:0:
0,144,215690,1,2,0:0:0:0:
16,104,215777,1,2,0:0:0:0:
48,76,215864,1,2,0:0:0:0:
88,68,215951,1,2,0:0:0:0:
128,76,216038,5,2,0:0:0:0:
132,120,216126,1,2,0:0:0:0:
132,164,216213,1,2,0:0:0:0:
136,208,216300,1,2,0:0:0:0:
140,252,216387,5,2,0:0:0:0:
112,220,216474,1,2,0:0:0:0:
124,180,216562,1,2,0:0:0:0:
160,156,216649,1,2,0:0:0:0:
184,192,216736,5,2,0:0:0:0:
228,196,216823,1,2,0:0:0:0:
268,180,216910,1,2,0:0:0:0:
296,148,216998,1,2,0:0:0:0:
308,108,217085,5,2,0:0:0:0:
312,64,217172,1,2,0:0:0:0:
340,32,217259,1,2,0:0:0:0:
384,32,217347,1,2,0:0:0:0:
420,52,217433,5,2,0:0:0:0:
436,92,217521,1,2,0:0:0:0:
432,136,217608,1,2,0:0:0:0:
412,172,217695,1,2,0:0:0:0:
380,200,217783,1,2,0:0:0:0:
340,208,217870,1,2,0:0:0:0:
300,196,217957,2,2,P|264:172|252:156,1,42.5
312,256,218131,5,2,0:0:0:0:
276,280,218219,1,2,0:0:0:0:
232,276,218306,1,2,0:0:0:0:
196,252,218393,1,2,0:0:0:0:
172,216,218480,1,2,0:0:0:0:
140,188,218567,1,2,0:0:0:0:
100,168,218655,1,2,0:0:0:0:
56,164,218742,1,2,0:0:0:0:
16,184,218829,5,2,0:0:0:0:
60,188,218916,1,2,0:0:0:0:
104,192,219003,1,2,0:0:0:0:
144,204,219091,1,2,0:0:0:0:
184,212,219177,6,2,L|192:152,1,42.5
288,264,219352,2,2,L|288:316,1,42.5
240,116,219527,5,2,0:0:0:0:
272,140,219614,1,2,0:0:0:0:
276,184,219701,1,2,0:0:0:0:
264,224,219788,1,2,0:0:0:0:
224,240,219876,5,2,0:0:0:0:
260,216,219963,1,2,0:0:0:0:
304,220,220050,1,2,0:0:0:0:
348,224,220137,1,2,0:0:0:0:
380,252,220224,5,2,0:0:0:0:
336,252,220312,1,2,0:0:0:0:
292,252,220399,1,2,0:0:0:0:
248,252,220486,1,2,0:0:0:0:
204,252,220573,5,2,0:0:0:0:
212,268,220660,1,2,0:0:0:0:
228,276,220748,1,2,0:0:0:0:
244,276,220835,1,2,0:0:0:0:
256,264,220922,5,2,0:0:0:0:
260,244,221009,1,2,0:0:0:0:
256,220,221097,1,2,0:0:0:0:
232,204,221184,1,2,0:0:0:0:
200,196,221271,1,2,0:0:0:0:
164,204,221358,1,2,0:0:0:0:
136,236,221445,1,2,0:0:0:0:
132,284,221533,1,2,0:0:0:0:
160,324,221620,5,2,0:0:0:0:
216,332,221707,1,2,0:0:0:0:
272,312,221794,1,2,0:0:0:0:
308,260,221881,1,2,0:0:0:0:
312,192,221968,6,2,L|312:140,5,42.5000016212464
232,128,222317,2,2,L|216:100,31,31.8750012159348
284,228,223712,5,2,0:0:0:0:
280,228,223800,1,0,0:0:0:0:
276,228,223887,1,0,0:0:0:0:
272,228,223974,1,0,0:0:0:0:
268,228,224061,1,0,0:0:0:0:
264,228,224148,1,0,0:0:0:0:
260,228,224236,1,0,0:0:0:0:
256,228,224323,1,0,0:0:0:0:
252,228,224410,2,0,L|240:176,3,42.5
184,280,224759,5,2,0:0:0:0:
180,280,224847,1,0,0:0:0:0:
176,280,224934,1,0,0:0:0:0:
172,280,225021,1,0,0:0:0:0:
168,280,225108,1,0,0:0:0:0:
164,280,225195,1,0,0:0:0:0:
160,280,225283,1,0,0:0:0:0:
156,280,225370,1,0,0:0:0:0:
152,280,225457,2,0,L|144:336,3,42.5
132,160,225805,5,0,0:0:0:0:
132,160,225893,1,0,0:0:0:0:
132,160,225980,2,0,L|104:104,1,42.5
204,96,226154,5,0,0:0:0:0:
204,96,226242,1,0,0:0:0:0:
204,96,226329,2,0,L|232:40,1,42.5
72,68,226503,5,0,0:0:0:0:
72,68,226591,1,0,0:0:0:0:
72,68,226678,2,0,L|44:12,1,42.5
44,184,226852,6,0,L|32:224,3,42.5
120,240,227201,2,0,L|116:304,3,42.5
212,284,227550,2,0,L|224:328,3,42.5
316,308,227898,5,0,0:0:0:0:
320,307,227985,1,0,0:0:0:0:
324,306,228072,1,0,0:0:0:0:
328,305,228159,1,0,0:0:0:0:
332,304,228246,1,0,0:0:0:0:
336,303,228334,1,0,0:0:0:0:
340,302,228421,1,0,0:0:0:0:
344,301,228508,1,0,0:0:0:0:
348,300,228596,1,0,0:0:0:0:
352,300,228683,1,0,0:0:0:0:
356,300,228770,1,0,0:0:0:0:
360,300,228858,1,0,0:0:0:0:
364,300,228945,2,0,L|396:252,3,42.5
480,200,229294,5,0,0:0:0:0:
479,195,229381,1,0,0:0:0:0:
478,191,229468,1,0,0:0:0:0:
477,187,229555,1,0,0:0:0:0:
476,183,229642,1,0,0:0:0:0:
475,179,229730,1,0,0:0:0:0:
474,175,229817,1,0,0:0:0:0:
473,171,229904,1,0,0:0:0:0:
472,168,229992,1,0,0:0:0:0:
472,164,230079,1,0,0:0:0:0:
472,160,230166,1,0,0:0:0:0:
472,156,230254,1,0,0:0:0:0:
472,152,230340,6,0,L|424:120,3,42.5
408,40,230689,2,0,L|456:64,3,42.5
292,104,231038,2,0,L|252:80,3,42.5
332,232,231387,2,0,L|380:268,3,42.5
220,240,231736,2,0,L|184:208,1,42.5
188,320,231910,2,0,L|232:356,1,42.5
116,268,232084,5,0,0:0:0:0:
116,264,232172,1,0,0:0:0:0:
116,260,232259,1,0,0:0:0:0:
116,256,232346,1,0,0:0:0:0:
116,252,232433,1,0,0:0:0:0:
116,248,232520,1,0,0:0:0:0:
116,244,232608,1,0,0:0:0:0:
116,240,232695,1,0,0:0:0:0:
116,236,232782,1,0,0:0:0:0:
116,232,232869,1,0,0:0:0:0:
116,228,232957,1,0,0:0:0:0:
116,224,233044,1,0,0:0:0:0:
116,220,233131,1,0,0:0:0:0:
116,216,233218,1,0,0:0:0:0:
116,212,233305,1,0,0:0:0:0:
116,208,233393,1,0,0:0:0:0:
116,204,233480,6,0,L|116:136,3,42.5
176,104,233829,2,0,L|176:44,3,42.5
280,172,234177,2,0,L|280:224,3,42.5
392,100,234526,2,0,L|392:52,3,42.5
380,196,234875,5,0,0:0:0:0:
380,200,234962,1,0,0:0:0:0:
380,204,235049,1,0,0:0:0:0:
380,208,235136,1,0,0:0:0:0:
380,213,235223,1,0,0:0:0:0:
380,217,235311,1,0,0:0:0:0:
380,221,235398,1,0,0:0:0:0:
380,225,235485,1,0,0:0:0:0:
380,230,235572,1,0,0:0:0:0:
380,234,235659,1,0,0:0:0:0:
380,238,235747,1,0,0:0:0:0:
380,242,235834,1,0,0:0:0:0:
380,247,235921,1,0,0:0:0:0:
380,251,236008,1,0,0:0:0:0:
380,255,236095,1,0,0:0:0:0:
380,259,236183,1,0,0:0:0:0:
380,264,236270,1,0,0:0:0:0:
380,268,236357,1,0,0:0:0:0:
380,272,236444,1,0,0:0:0:0:
380,276,236531,1,0,0:0:0:0:
380,281,236619,1,0,0:0:0:0:
380,285,236706,1,0,0:0:0:0:
380,289,236793,1,0,0:0:0:0:
380,293,236880,1,0,0:0:0:0:
380,298,236968,1,0,0:0:0:0:
380,302,237055,1,0,0:0:0:0:
380,306,237142,1,0,0:0:0:0:
380,310,237229,1,0,0:0:0:0:
380,315,237316,1,0,0:0:0:0:
380,319,237404,1,0,0:0:0:0:
380,324,237491,2,0,L|380:372,1,42.5
284,336,237666,6,0,L|276:292,3,42.5
156,268,238015,2,0,L|132:308,3,42.5
48,212,238363,2,0,L|92:192,3,42.5
112,84,238712,2,0,L|52:76,3,42.5
224,92,239061,5,0,0:0:0:0:
224,92,239148,1,0,0:0:0:0:
224,92,239236,2,0,L|200:48,1,42.5
336,140,239410,5,0,0:0:0:0:
336,140,239497,1,0,0:0:0:0:
336,140,239584,2,0,L|348:88,1,42.5
264,212,239759,5,0,0:0:0:0:
264,212,239846,1,0,0:0:0:0:
264,212,239934,2,0,L|240:168,1,42.5
376,260,240108,5,0,0:0:0:0:
376,260,240195,1,0,0:0:0:0:
376,260,240282,2,0,L|388:208,1,42.5
408,124,240457,5,0,0:0:0:0:
388,108,240544,1,0,0:0:0:0:
364,104,240631,1,0,0:0:0:0:
340,104,240718,1,0,0:0:0:0:
316,108,240805,2,0,P|288:120|268:136,1,42.5
176,184,240980,5,0,0:0:0:0:
172,160,241067,1,0,0:0:0:0:
168,136,241154,2,0,L|160:76,1,42.5
96,212,241329,5,0,0:0:0:0:
84,192,241416,1,0,0:0:0:0:
72,168,241503,2,0,L|52:124,1,42.5
192,260,241677,2,0,L|251:248,3,42.5
120,300,242026,6,0,L|76:308,1,42.5
193,361,242200,2,0,L|241:365,1,42.5
328,356,242375,5,0,0:0:0:0:
328,348,242462,1,0,0:0:0:0:
328,340,242550,1,0,0:0:0:0:
328,332,242637,1,0,0:0:0:0:
328,324,242724,2,0,L|356:284,1,42.5
472,212,242898,2,0,L|448:260,1,42.5
344,192,243073,2,0,L|352:144,3,42.5
360,64,243422,5,0,0:0:0:0:
336,56,243509,1,0,0:0:0:0:
312,56,243596,1,0,0:0:0:0:
288,60,243683,1,0,0:0:0:0:
264,72,243770,5,0,0:0:0:0:
232,64,243858,1,0,0:0:0:0:
200,64,243945,1,0,0:0:0:0:
168,76,244032,1,0,0:0:0:0:
140,96,244119,5,0,0:0:0:0:
124,136,244207,1,0,0:0:0:0:
144,172,244294,1,0,0:0:0:0:
184,184,244381,1,0,0:0:0:0:
224,172,244468,1,0,0:0:0:0:
252,140,244555,1,0,0:0:0:0:
252,96,244643,6,0,L|252:64,5,28.3333333333333
304,160,244991,2,0,L|304:196,5,28.3333333333333
376,112,245340,2,0,L|376:80,5,28.3333333333333
456,172,245689,2,0,L|456:208,5,28.3333333333333
436,328,246038,5,2,0:0:0:0:
404,341,246125,1,2,0:0:0:0:
372,337,246212,1,2,0:0:0:0:
352,313,246299,1,2,0:0:0:0:
349,278,246387,2,2,P|296:280|296:280,1,42.5
240,352,246561,5,2,0:0:0:0:
216,356,246648,1,2,0:0:0:0:
192,352,246735,1,2,0:0:0:0:
172,344,246823,1,2,0:0:0:0:
156,328,246910,2,0,P|132:280|132:264,1,42.5
176,156,247085,5,2,0:0:0:0:
160,140,247172,1,2,0:0:0:0:
148,120,247259,6,2,L|128:72,1,42.5
72,204,247434,2,2,L|89:246,1,42.5
252,88,247608,6,2,L|235:46,1,42.5
75,6,247782,2,2,L|92:48,1,42.5
228,100,247956,6,2,L|192:40,1,42.5
100,176,248131,2,2,L|136:232,1,42.5
320,148,248305,6,2,L|260:128,1,42.5
128,284,248480,2,2,L|184:272,1,42.5
240,188,248654,6,2,L|236:136,3,42.5
188,64,249003,1,2,0:0:0:0:
204,80,249090,1,0,0:0:0:0:
224,88,249177,1,0,0:0:0:0:
244,92,249265,1,0,0:0:0:0:
264,88,249352,1,0,0:0:0:0:
284,80,249439,1,0,0:0:0:0:
292,60,249526,2,0,L|304:20,1,42.5
387,20,249701,5,2,0:0:0:0:
373,51,249788,1,2,0:0:0:0:
345,71,249875,1,2,0:0:0:0:
313,71,249962,1,2,0:0:0:0:
285,51,250049,1,2,0:0:0:0:
273,19,250137,1,2,0:0:0:0:
281,0,250224,6,2,L|233:7,1,42.5
247,256,250398,2,2,L|289:239,1,42.5
165,71,250573,2,2,L|123:88,1,42.5
121,379,250747,2,2,L|163:362,1,42.5
380,284,250922,2,2,L|316:296,1,42.5
60,152,251096,2,2,L|136:144,1,42.5
400,72,251270,2,2,L|336:72,1,42.5
32,268,251445,2,2,L|96:280,1,42.5
456,176,251619,5,2,0:0:0:0:
428,156,251706,1,2,0:0:0:0:
396,144,251794,1,2,0:0:0:0:
364,148,251881,1,2,0:0:0:0:
332,160,251968,1,2,0:0:0:0:
312,188,252055,1,2,0:0:0:0:
304,220,252142,1,2,0:0:0:0:
300,256,252230,1,2,0:0:0:0:
312,288,252317,1,2,0:0:0:0:
336,312,252404,1,2,0:0:0:0:
364,328,252491,1,2,0:0:0:0:
396,336,252579,1,2,0:0:0:0:
428,332,252666,1,2,0:0:0:0:
456,316,252753,1,2,0:0:0:0:
472,288,252840,1,2,0:0:0:0:
472,256,252927,1,2,0:0:0:0:
468,224,253015,5,2,0:0:0:0:
440,244,253102,1,2,0:0:0:0:
428,276,253189,1,2,0:0:0:0:
432,308,253276,1,2,0:0:0:0:
420,340,253363,1,2,0:0:0:0:
400,368,253451,1,2,0:0:0:0:
368,368,253538,1,2,0:0:0:0:
336,356,253625,1,2,0:0:0:0:
312,332,253712,1,2,0:0:0:0:
308,300,253799,1,2,0:0:0:0:
316,268,253887,1,2,0:0:0:0:
340,244,253974,1,2,0:0:0:0:
368,224,254061,1,2,0:0:0:0:
392,200,254148,1,2,0:0:0:0:
408,172,254236,1,2,0:0:0:0:
408,140,254323,1,2,0:0:0:0:
400,108,254410,6,2,P|384:68|384:68,1,42.5
304,40,254584,1,0,0:0:0:0:
300,48,254672,1,0,0:0:0:0:
296,56,254759,1,0,0:0:0:0:
292,64,254846,1,0,0:0:0:0:
292,72,254933,1,0,0:0:0:0:
292,80,255020,1,0,0:0:0:0:
296,88,255108,5,2,0:0:0:0:
280,60,255195,1,2,0:0:0:0:
248,48,255282,1,2,0:0:0:0:
212,52,255369,1,2,0:0:0:0:
188,76,255456,1,2,0:0:0:0:
184,108,255544,1,2,0:0:0:0:
164,136,255631,1,2,0:0:0:0:
132,140,255718,1,2,0:0:0:0:
100,124,255805,5,2,0:0:0:0:
100,140,255892,1,2,0:0:0:0:
100,156,255980,1,2,0:0:0:0:
100,172,256067,1,2,0:0:0:0:
100,188,256154,1,2,0:0:0:0:
100,204,256241,1,2,0:0:0:0:
100,220,256329,1,2,0:0:0:0:
100,236,256416,1,2,0:0:0:0:
100,252,256503,5,2,0:0:0:0:
76,244,256590,1,2,0:0:0:0:
68,220,256677,1,2,0:0:0:0:
64,196,256765,1,2,0:0:0:0:
72,172,256852,1,2,0:0:0:0:
88,152,256939,1,2,0:0:0:0:
112,140,257026,1,2,0:0:0:0:
136,140,257113,1,2,0:0:0:0:
160,148,257201,1,2,0:0:0:0:
256,204,257375,5,2,0:0:0:0:
256,204,257462,1,2,0:0:0:0:
256,204,257549,1,2,0:0:0:0:
380,72,257724,1,2,0:0:0:0:
256,60,257898,6,2,L|280:104,1,42.5
480,232,258073,2,2,L|440:180,1,42.5
136,108,258247,2,2,L|160:156,1,42.5
392,352,258422,2,2,L|348:304,1,42.5
84,292,258596,5,2,0:0:0:0:
104,276,258683,1,2,0:0:0:0:
128,264,258770,1,2,0:0:0:0:
152,260,258858,1,2,0:0:0:0:
176,256,258945,1,2,0:0:0:0:
200,260,259032,1,2,0:0:0:0:
224,268,259119,1,2,0:0:0:0:
248,280,259206,1,2,0:0:0:0:
272,292,259294,1,2,0:0:0:0:
288,312,259381,1,2,0:0:0:0:
312,324,259468,1,2,0:0:0:0:
336,328,259555,1,2,0:0:0:0:
360,324,259642,1,2,0:0:0:0:
384,316,259730,1,2,0:0:0:0:
408,304,259817,1,2,0:0:0:0:
428,288,259904,1,2,0:0:0:0:
436,264,259991,6,2,P|448:200|448:200,1,42.5
416,64,260166,2,0,L|404:112,1,42.5
360,212,260340,5,2,0:0:0:0:
340,208,260427,1,0,0:0:0:0:
324,196,260515,2,0,P|296:168|288:144,1,42.5
176,260,260689,5,2,0:0:0:0:
192,220,260776,1,2,0:0:0:0:
232,212,260863,1,2,0:0:0:0:
272,220,260951,1,2,0:0:0:0:
308,244,261038,1,2,0:0:0:0:
320,284,261125,1,2,0:0:0:0:
316,328,261212,1,2,0:0:0:0:
284,356,261299,1,2,0:0:0:0:
240,364,261387,5,2,0:0:0:0:
252,320,261474,1,2,0:0:0:0:
284,288,261561,1,2,0:0:0:0:
324,264,261648,1,2,0:0:0:0:
372,260,261736,1,2,0:0:0:0:
420,260,261823,1,2,0:0:0:0:
460,240,261910,1,2,0:0:0:0:
480,200,261997,1,2,0:0:0:0:
472,152,262084,1,2,0:0:0:0:
440,116,262172,1,2,0:0:0:0:
392,112,262259,1,2,0:0:0:0:
348,128,262346,1,2,0:0:0:0:
328,168,262433,1,2,0:0:0:0:
324,216,262520,1,2,0:0:0:0:
324,264,262608,1,2,0:0:0:0:
292,300,262695,1,2,0:0:0:0:
248,320,262782,5,2,0:0:0:0:
180,264,262957,2,0,L|164:220,2,42.5
208,96,263305,2,0,L|232:136,2,42.5
72,172,263654,2,0,L|48:136,2,42.5
228,160,264003,2,0,L|268:188,2,42.5
384,100,264352,2,0,L|340:76,2,42.5
356,280,264701,5,2,0:0:0:0:
356,280,264788,1,2,0:0:0:0:
356,280,264875,1,2,0:0:0:0:
212,304,265049,5,2,0:0:0:0:
212,304,265137,1,2,0:0:0:0:
212,304,265224,2,0,L|208:256,1,42.5
256,112,265398,2,0,L|264:160,1,42.5
160,136,265573,5,2,0:0:0:0:
164,95,265660,1,2,0:0:0:0:
184,60,265747,2,0,L|184:12,1,42.5
256,160,265922,2,0,L|256:212,1,42.5
288,44,266096,2,0,L|288:0,1,42.5
388,88,266270,5,2,0:0:0:0:
344,82,266358,1,2,0:0:0:0:
299,88,266445,1,2,0:0:0:0:
258,105,266532,1,2,0:0:0:0:
221,131,266619,1,2,0:0:0:0:
192,165,266706,1,2,0:0:0:0:
173,206,266794,1,2,0:0:0:0:
163,249,266881,1,2,0:0:0:0:
168,292,266968,6,2,L|228:296,1,42.5000016212464
168,300,267084,2,2,L|212:304,1,42.5000016212464
168,308,267201,2,2,L|224:312,1,42.5000016212464
168,312,267316,6,2,L|108:316,1,42.5000016212464
168,320,267432,2,2,L|124:324,1,42.5000016212464
168,328,267549,2,2,L|112:332,1,42.5000016212464
168,332,267666,6,2,L|228:336,1,42.5000016212464
168,340,267782,2,2,L|212:344,1,42.5000016212464
168,348,267899,2,2,L|224:352,1,42.5000016212464
168,352,268014,6,2,L|108:356,1,42.5000016212464
168,360,268130,2,2,L|124:364,1,42.5000016212464
168,368,268247,2,2,L|112:372,1,42.5000016212464
292,348,268363,6,0,B|308:360|304:368|296:372|280:372|272:372|248:352|256:336|264:320|276:304|292:296|308:284|324:264|328:232|328:204|300:168|272:140|220:116|184:128|160:136|152:144|152:144|220:200|220:200|160:256|160:256|88:216,1,637.5
112,180,269759,2,0,B|128:188|128:196|120:208|104:220|64:220|52:184|68:152|80:128|104:116|136:112|160:124|176:152|176:180|168:220|172:248|188:280|208:288|244:272|264:256|272:240|276:216|264:200|264:200|76:296|76:296|24:320,1,637.5
76,340,271154,2,0,B|112:304|124:300|148:292|188:296|204:320|204:344|200:356|200:356|64:272|64:272|200:156|200:156|164:100|164:100|112:140|112:140,1,637.5
80,160,272550,2,0,B|84:196|84:196|132:200|132:200|144:168|144:168|196:212|196:216|192:256|192:256|256:296|256:296|272:248|288:236|288:212|272:192|256:172|268:148|292:124|344:120|360:124|380:152|408:180|400:208|400:208|376:176,1,637.5
340,188,273945,5,0,0:0:0:0:
324,272,274119,1,0,0:0:0:0:
368,344,274294,2,0,P|372:296|408:248,1,85
432,264,274555,2,0,L|344:260,2,85
388,336,275079,6,0,P|328:336|292:320,1,85
264,320,275340,2,0,L|268:268,2,42.5
332,240,275602,2,0,L|332:148,1,85
332,48,275863,1,0,0:0:0:0:
476,204,276038,5,0,0:0:0:0:
476,204,276125,2,0,P|472:252|436:280,2,85
296,352,276561,6,0,L|388:352,1,85
284,248,276910,1,0,0:0:0:0:
180,348,277084,1,0,0:0:0:0:
180,348,277259,6,0,L|176:252,1,85
128,172,277520,2,0,L|128:116,1,42.5
204,60,277695,5,0,0:0:0:0:
204,60,277782,2,0,P|248:48|304:48,1,85
392,124,278044,6,0,L|416:96,2,21.25
340,216,278218,1,0,0:0:0:0:
144,304,278393,1,0,0:0:0:0:
332,48,278654,5,0,0:0:0:0:
340,260,278829,1,0,0:0:0:0:
100,52,279090,5,0,0:0:0:0:
100,52,279177,2,0,L|96:104,1,42.5
180,160,279352,5,0,0:0:0:0:
180,160,279439,2,0,L|176:212,2,42.5
168,268,279701,2,0,L|164:328,1,42.5
272,324,279875,2,0,L|272:372,1,42.5
376,348,280050,5,0,0:0:0:0:
376,348,280137,2,0,L|376:288,1,42.5
468,256,280311,2,0,L|468:192,2,42.5
404,168,280573,5,0,0:0:0:0:
404,164,280660,1,0,0:0:0:0:
404,160,280747,1,0,0:0:0:0:
404,156,280834,1,0,0:0:0:0:
404,152,280922,2,0,L|404:92,1,42.5
324,40,281096,2,0,L|324:96,1,42.5
240,148,281270,2,0,P|196:172|120:144,1,127.5
52,88,281707,2,0,L|52:148,1,42.5
52,236,281881,2,0,B|76:244|100:220|96:208|64:188|32:196|12:224|20:248|28:268|28:268|28:268|28:268,1,127.5
216,332,282317,5,0,0:0:0:0:
388,208,282491,1,0,0:0:0:0:
244,364,282666,5,0,0:0:0:0:
352,184,282840,2,0,B|376:140|376:112|368:96|368:96|392:64,1,127.5
464,32,283276,1,0,0:0:0:0:
464,244,283451,1,0,0:0:0:0:
336,76,283625,5,0,0:0:0:0:
336,76,283712,2,0,P|236:112|144:68,1,212.5
244,32,284236,2,0,L|244:88,1,42.5
348,76,284410,2,0,P|308:96|252:96,1,85
164,84,284672,1,0,0:0:0:0:
164,84,284933,1,0,0:0:0:0:
80,180,285108,6,0,L|72:128,1,42.5
144,244,285282,2,0,L|156:300,1,42.5
260,356,285457,5,0,0:0:0:0:
264,356,285544,1,0,0:0:0:0:
268,356,285631,1,0,0:0:0:0:
272,356,285718,1,0,0:0:0:0:
292,340,285805,5,0,0:0:0:0:
300,340,285893,1,0,0:0:0:0:
308,340,285980,1,0,0:0:0:0:
316,340,286067,1,0,0:0:0:0:
336,324,286154,5,0,0:0:0:0:
340,312,286241,1,0,0:0:0:0:
348,300,286329,1,0,0:0:0:0:
356,292,286416,1,0,0:0:0:0:
380,288,286503,5,0,0:0:0:0:
380,272,286590,1,0,0:0:0:0:
380,256,286677,1,0,0:0:0:0:
380,240,286765,1,0,0:0:0:0:
396,220,286852,1,0,0:0:0:0:
392,200,286939,1,0,0:0:0:0:
380,184,287026,1,0,0:0:0:0:
360,172,287113,1,0,0:0:0:0:
336,168,287201,5,0,0:0:0:0:
312,160,287288,1,0,0:0:0:0:
292,144,287375,1,0,0:0:0:0:
280,124,287462,1,0,0:0:0:0:
276,96,287550,1,0,0:0:0:0:
284,68,287637,1,0,0:0:0:0:
308,52,287724,1,0,0:0:0:0:
336,48,287811,1,0,0:0:0:0:
368,60,287898,5,0,0:0:0:0:
388,88,287986,1,0,0:0:0:0:
404,120,288073,1,0,0:0:0:0:
408,152,288160,1,0,0:0:0:0:
396,188,288247,1,0,0:0:0:0:
368,216,288334,1,0,0:0:0:0:
332,228,288422,1,0,0:0:0:0:
296,236,288509,1,0,0:0:0:0:
252,232,288596,5,0,0:0:0:0:
208,212,288683,1,0,0:0:0:0:
188,172,288770,1,0,0:0:0:0:
180,124,288858,1,0,0:0:0:0:
144,88,288945,1,0,0:0:0:0:
92,88,289032,1,0,0:0:0:0:
48,116,289119,1,0,0:0:0:0:
36,168,289207,1,0,0:0:0:0:
56,216,289294,6,0,L|112:204,1,56.6666666666667
60,220,289410,2,0,L|-8:240,1,56.6666666666667
64,224,289526,2,0,L|136:208,1,56.6666666666667
68,228,289643,2,0,L|8:240,1,56.6666666666667
72,232,289759,6,0,L|128:220,1,56.6666666666667
76,236,289875,2,0,L|8:256,1,56.6666666666667
80,240,289991,2,0,L|152:224,1,56.6666666666667
84,244,290108,2,0,L|24:256,1,56.6666666666667
88,248,290224,6,0,L|144:236,1,56.6666666666667
92,252,290340,2,0,L|24:272,1,56.6666666666667
96,256,290456,2,0,L|168:240,1,56.6666666666667
100,260,290573,2,0,L|40:272,1,56.6666666666667
502,275,290689,5,2,0:0:0:0:
446,242,290777,1,2,0:0:0:0:
412,186,290864,1,2,0:0:0:0:
412,119,290951,1,2,0:0:0:0:
440,57,291038,5,2,0:0:0:0:
463,113,291125,1,2,0:0:0:0:
451,175,291213,1,2,0:0:0:0:
412,219,291300,1,2,0:0:0:0:
360,248,291387,5,2,0:0:0:0:
384,192,291474,1,2,0:0:0:0:
384,132,291561,1,2,0:0:0:0:
340,92,291649,1,2,0:0:0:0:
284,76,291736,5,2,0:0:0:0:
334,103,291823,1,2,0:0:0:0:
351,159,291910,1,2,0:0:0:0:
334,215,291998,1,2,0:0:0:0:
288,252,292085,5,2,0:0:0:0:
343,274,292172,1,2,0:0:0:0:
399,263,292259,1,2,0:0:0:0:
444,224,292346,1,2,0:0:0:0:
464,168,292433,5,2,0:0:0:0:
408,184,292521,1,2,0:0:0:0:
363,223,292608,1,2,0:0:0:0:
340,279,292695,1,2,0:0:0:0:
300,324,292782,1,2,0:0:0:0:
244,348,292869,1,2,0:0:0:0:
184,336,292957,1,2,0:0:0:0:
152,284,293044,1,2,0:0:0:0:
160,224,293131,1,2,0:0:0:0:
196,176,293218,1,2,0:0:0:0:
252,160,293305,5,2,0:0:0:0:
196,140,293393,1,2,0:0:0:0:
140,116,293480,5,2,0:0:0:0:
156,88,293567,1,2,0:0:0:0:
188,80,293654,1,2,0:0:0:0:
220,88,293741,1,2,0:0:0:0:
248,108,293829,1,2,0:0:0:0:
280,120,293916,1,2,0:0:0:0:
312,124,294003,1,2,0:0:0:0:
344,108,294090,1,2,0:0:0:0:
368,84,294178,1,2,0:0:0:0:
372,52,294265,1,2,0:0:0:0:
348,28,294352,1,2,0:0:0:0:
316,24,294439,1,2,0:0:0:0:
288,40,294526,1,2,0:0:0:0:
280,72,294614,1,2,0:0:0:0:
288,108,294701,5,2,0:0:0:0:
304,144,294788,1,2,0:0:0:0:
308,180,294875,1,2,0:0:0:0:
304,216,294962,1,2,0:0:0:0:
280,252,295050,5,2,0:0:0:0:
240,260,295137,1,2,0:0:0:0:
200,248,295224,1,2,0:0:0:0:
180,212,295311,1,2,0:0:0:0:
196,168,295398,5,2,0:0:0:0:
208,216,295486,1,2,0:0:0:0:
228,260,295573,1,2,0:0:0:0:
248,304,295660,1,2,0:0:0:0:
284,340,295747,5,2,0:0:0:0:
336,340,295835,1,2,0:0:0:0:
384,320,295922,1,2,0:0:0:0:
412,276,296009,1,2,0:0:0:0:
424,224,296096,5,2,0:0:0:0:
368,220,296183,1,2,0:0:0:0:
312,220,296271,2,2,L|308:176,3,42.5
164,200,296619,5,2,0:0:0:0:
200,224,296707,1,2,0:0:0:0:
244,220,296794,1,2,0:0:0:0:
280,196,296881,1,2,0:0:0:0:
304,160,296968,1,2,0:0:0:0:
336,132,297055,1,2,0:0:0:0:
376,112,297143,1,2,0:0:0:0:
420,108,297230,1,2,0:0:0:0:
460,128,297317,5,2,0:0:0:0:
416,132,297404,1,2,0:0:0:0:
372,136,297491,1,2,0:0:0:0:
332,148,297579,1,2,0:0:0:0:
304,160,297666,1,2,0:0:0:0:
280,196,297753,1,2,0:0:0:0:
260,232,297840,1,2,0:0:0:0:
260,276,297928,1,2,0:0:0:0:
260,320,298015,5,2,0:0:0:0:
292,296,298102,1,2,0:0:0:0:
296,252,298189,1,2,0:0:0:0:
284,212,298276,1,2,0:0:0:0:
252,184,298364,1,2,0:0:0:0:
216,160,298451,1,2,0:0:0:0:
172,164,298538,1,2,0:0:0:0:
128,168,298625,1,2,0:0:0:0:
96,196,298712,5,2,0:0:0:0:
140,196,298800,1,2,0:0:0:0:
184,196,298887,1,2,0:0:0:0:
228,196,298974,1,2,0:0:0:0:
272,196,299061,5,2,0:0:0:0:
260,236,299148,1,2,0:0:0:0:
228,264,299236,1,2,0:0:0:0:
188,272,299323,1,2,0:0:0:0:
148,264,299410,5,2,0:0:0:0:
116,236,299497,1,2,0:0:0:0:
96,196,299585,1,2,0:0:0:0:
100,152,299672,1,2,0:0:0:0:
116,112,299759,1,2,0:0:0:0:
152,92,299846,1,2,0:0:0:0:
192,76,299933,1,2,0:0:0:0:
232,64,300021,1,2,0:0:0:0:
252,28,300108,5,2,0:0:0:0:
208,32,300195,1,2,0:0:0:0:
176,60,300282,1,2,0:0:0:0:
172,104,300369,1,2,0:0:0:0:
188,144,300457,1,2,0:0:0:0:
212,176,300544,1,2,0:0:0:0:
252,192,300631,1,2,0:0:0:0:
296,196,300718,1,2,0:0:0:0:
336,184,300805,5,2,0:0:0:0:
380,176,300893,1,2,0:0:0:0:
424,180,300980,1,2,0:0:0:0:
452,212,301067,1,2,0:0:0:0:
456,256,301154,6,2,L|444:312,1,42.5
328,120,301329,2,2,L|328:52,1,42.5
220,300,301503,6,2,L|200:348,1,42.5
152,124,301678,2,2,L|132:44,1,42.5
80,252,301852,5,2,0:0:0:0:
120,228,301940,1,2,0:0:0:0:
144,188,302027,1,2,0:0:0:0:
144,140,302114,1,2,0:0:0:0:
124,96,302201,5,2,0:0:0:0:
108,136,302288,1,2,0:0:0:0:
116,180,302376,1,2,0:0:0:0:
144,212,302463,1,2,0:0:0:0:
180,232,302550,1,2,0:0:0:0:
220,240,302637,1,2,0:0:0:0:
264,236,302724,1,2,0:0:0:0:
292,204,302812,1,2,0:0:0:0:
300,164,302899,5,2,0:0:0:0:
264,184,302986,1,2,0:0:0:0:
252,224,303073,1,2,0:0:0:0:
264,264,303161,1,2,0:0:0:0:
292,296,303248,1,2,0:0:0:0:
332,312,303335,1,2,0:0:0:0:
372,304,303422,1,2,0:0:0:0:
404,276,303509,1,2,0:0:0:0:
416,236,303596,5,2,0:0:0:0:
376,248,303684,1,2,0:0:0:0:
344,276,303771,1,2,0:0:0:0:
328,316,303858,1,2,0:0:0:0:
296,344,303945,1,2,0:0:0:0:
256,352,304032,1,2,0:0:0:0:
212,352,304120,1,2,0:0:0:0:
172,340,304207,1,2,0:0:0:0:
144,308,304294,5,2,0:0:0:0:
104,320,304381,1,2,0:0:0:0:
60,320,304468,1,2,0:0:0:0:
20,304,304556,1,2,0:0:0:0:
4,264,304643,1,2,0:0:0:0:
12,224,304730,1,2,0:0:0:0:
28,184,304817,1,2,0:0:0:0:
64,164,304904,1,2,0:0:0:0:
108,160,304992,5,2,0:0:0:0:
84,196,305079,1,2,0:0:0:0:
44,204,305166,1,2,0:0:0:0:
8,184,305253,1,2,0:0:0:0:
0,140,305341,1,2,0:0:0:0:
16,100,305428,1,2,0:0:0:0:
48,72,305515,1,2,0:0:0:0:
88,64,305602,1,2,0:0:0:0:
128,72,305689,5,2,0:0:0:0:
164,92,305777,1,2,0:0:0:0:
184,128,305864,1,2,0:0:0:0:
200,168,305951,1,2,0:0:0:0:
228,200,306038,1,2,0:0:0:0:
268,216,306125,1,2,0:0:0:0:
312,224,306213,1,2,0:0:0:0:
352,212,306300,1,2,0:0:0:0:
380,180,306387,5,2,0:0:0:0:
336,176,306474,1,2,0:0:0:0:
296,192,306561,1,2,0:0:0:0:
268,224,306649,1,2,0:0:0:0:
256,264,306736,1,2,0:0:0:0:
252,308,306823,1,2,0:0:0:0:
224,340,306910,1,2,0:0:0:0:
180,340,306998,1,2,0:0:0:0:
144,320,307085,1,2,0:0:0:0:
128,280,307172,1,2,0:0:0:0:
132,236,307259,1,2,0:0:0:0:
152,200,307346,1,2,0:0:0:0:
188,176,307433,2,2,L|192:132,3,42.5
348,200,307782,5,2,0:0:0:0:
312,224,307870,1,2,0:0:0:0:
268,220,307957,1,2,0:0:0:0:
232,196,308044,1,2,0:0:0:0:
208,160,308131,5,2,0:0:0:0:
176,132,308218,1,2,0:0:0:0:
136,112,308306,1,2,0:0:0:0:
92,108,308393,1,2,0:0:0:0:
52,128,308480,5,2,0:0:0:0:
52,72,308567,1,2,0:0:0:0:
60,16,308654,5,2,0:0:0:0:
116,16,308742,1,2,0:0:0:0:
172,24,308829,1,0,0:0:0:0:
228,28,308916,1,0,0:0:0:0:
284,36,309003,5,0,0:0:0:0:
296,88,309090,1,0,0:0:0:0:
264,132,309177,1,0,0:0:0:0:
212,156,309265,1,2,0:0:0:0:
168,120,309352,5,2,0:0:0:0:
168,176,309439,1,2,0:0:0:0:
168,232,309527,5,2,0:0:0:0:
216,208,309614,1,2,0:0:0:0:
272,208,309701,5,2,0:0:0:0:
264,264,309788,1,2,0:0:0:0:
252,316,309875,5,2,0:0:0:0:
208,316,309963,1,2,0:0:0:0:
164,316,310050,1,2,0:0:0:0:
120,316,310137,1,2,0:0:0:0:
76,312,310224,2,2,L|60:356,3,42.5
140,232,310573,5,2,0:0:0:0:
172,204,310660,1,2,0:0:0:0:
192,164,310748,1,2,0:0:0:0:
188,120,310835,1,2,0:0:0:0:
168,84,310922,2,2,L|168:40,3,42.5
260,28,311271,5,2,0:0:0:0:
304,32,311358,1,2,0:0:0:0:
336,60,311445,1,2,0:0:0:0:
340,104,311532,1,2,0:0:0:0:
320,140,311619,2,2,L|308:184,23,28.3333333333333
300,208,313015,5,2,0:0:0:0:
260,224,313102,1,2,0:0:0:0:
216,216,313190,1,2,0:0:0:0:
184,188,313277,1,2,0:0:0:0:
180,144,313364,5,2,0:0:0:0:
220,136,313451,1,2,0:0:0:0:
264,140,313538,1,2,0:0:0:0:
292,172,313626,1,2,0:0:0:0:
300,212,313713,5,2,0:0:0:0:
264,192,313800,1,2,0:0:0:0:
252,152,313887,1,2,0:0:0:0:
264,112,313975,1,2,0:0:0:0:
292,80,314062,1,2,0:0:0:0:
332,64,314149,1,2,0:0:0:0:
372,72,314236,1,2,0:0:0:0:
404,100,314323,1,2,0:0:0:0:
416,140,314410,5,2,0:0:0:0:
376,128,314498,1,2,0:0:0:0:
344,100,314585,1,2,0:0:0:0:
328,60,314672,1,2,0:0:0:0:
296,32,314759,1,2,0:0:0:0:
256,24,314846,1,2,0:0:0:0:
212,24,314934,1,2,0:0:0:0:
172,36,315021,1,2,0:0:0:0:
144,68,315108,5,2,0:0:0:0:
104,56,315195,1,2,0:0:0:0:
60,56,315282,1,2,0:0:0:0:
20,72,315370,1,2,0:0:0:0:
4,112,315457,1,2,0:0:0:0:
12,152,315544,1,2,0:0:0:0:
28,192,315631,1,2,0:0:0:0:
64,212,315718,1,2,0:0:0:0:
108,216,315806,5,2,0:0:0:0:
84,180,315893,1,2,0:0:0:0:
44,172,315980,1,2,0:0:0:0:
8,192,316067,1,2,0:0:0:0:
0,236,316155,1,2,0:0:0:0:
16,276,316242,1,2,0:0:0:0:
48,304,316329,1,2,0:0:0:0:
88,312,316416,1,2,0:0:0:0:
128,304,316503,5,2,0:0:0:0:
164,284,316591,1,2,0:0:0:0:
184,248,316678,1,2,0:0:0:0:
200,208,316765,1,2,0:0:0:0:
228,176,316852,1,2,0:0:0:0:
268,160,316939,1,2,0:0:0:0:
312,152,317027,5,2,0:0:0:0:
312,196,317114,1,2,0:0:0:0:
308,240,317201,1,2,0:0:0:0:
304,284,317288,1,2,0:0:0:0:
300,328,317375,5,2,0:0:0:0:
332,300,317463,1,2,0:0:0:0:
340,260,317550,1,2,0:0:0:0:
324,220,317637,1,2,0:0:0:0:
284,208,317724,5,2,0:0:0:0:
280,164,317812,1,2,0:0:0:0:
272,124,317899,1,2,0:0:0:0:
268,84,317986,1,2,0:0:0:0:
260,44,318073,5,2,0:0:0:0:
280,80,318160,1,2,0:0:0:0:
308,104,318247,2,0,L|276:56,1,42.5
396,112,318422,2,2,L|432:152,1,42.5
348,176,318596,5,2,0:0:0:0:
312,152,318684,1,2,0:0:0:0:
268,156,318771,1,2,0:0:0:0:
232,180,318858,1,2,0:0:0:0:
208,216,318945,1,2,0:0:0:0:
176,244,319032,1,2,0:0:0:0:
136,264,319120,1,2,0:0:0:0:
92,268,319207,1,2,0:0:0:0:
52,256,319294,6,2,L|56:212,1,42.5
156,72,319468,2,2,L|168:132,1,42.5
356,240,319643,5,2,0:0:0:0:
356,240,319730,1,2,0:0:0:0:
356,240,319817,2,2,L|360:196,1,42.5
252,56,319992,5,2,0:0:0:0:
220,80,320079,1,2,0:0:0:0:
216,124,320166,1,2,0:0:0:0:
228,164,320253,1,2,0:0:0:0:
260,192,320341,1,2,0:0:0:0:
296,216,320428,1,2,0:0:0:0:
340,212,320515,1,2,0:0:0:0:
384,208,320602,1,2,0:0:0:0:
416,180,320689,5,2,0:0:0:0:
372,180,320777,1,2,0:0:0:0:
328,180,320864,1,2,0:0:0:0:
284,180,320951,1,2,0:0:0:0:
240,180,321038,2,2,L|224:232,1,42.5
316,48,321212,2,2,L|336:8,1,42.5
364,112,321387,5,2,0:0:0:0:
396,140,321474,1,2,0:0:0:0:
416,180,321562,1,2,0:0:0:0:
412,224,321649,1,2,0:0:0:0:
392,260,321736,2,2,L|392:316,3,42.5
260,348,322085,5,2,0:0:0:0:
304,344,322172,1,2,0:0:0:0:
336,316,322259,1,2,0:0:0:0:
340,272,322346,1,2,0:0:0:0:
316,236,322433,2,2,L|316:188,3,42.5
176,192,322782,5,2,0:0:0:0:
132,200,322870,1,2,0:0:0:0:
88,196,322957,1,2,0:0:0:0:
60,164,323044,1,2,0:0:0:0:
56,120,323131,6,2,L|68:64,1,42.5
184,256,323306,2,2,L|184:324,1,42.5
292,76,323480,6,2,L|312:28,1,42.5
360,252,323655,2,2,L|380:332,1,42.5
432,124,323829,5,2,0:0:0:0:
392,148,323917,1,2,0:0:0:0:
368,188,324004,1,2,0:0:0:0:
368,236,324091,1,2,0:0:0:0:
388,280,324178,5,2,0:0:0:0:
404,240,324265,1,2,0:0:0:0:
396,196,324353,1,2,0:0:0:0:
368,164,324440,1,2,0:0:0:0:
332,144,324527,1,2,0:0:0:0:
292,136,324614,1,2,0:0:0:0:
248,140,324701,1,2,0:0:0:0:
220,172,324789,1,2,0:0:0:0:
212,212,324876,5,2,0:0:0:0:
248,192,324963,1,2,0:0:0:0:
260,152,325050,1,2,0:0:0:0:
248,112,325138,1,2,0:0:0:0:
220,80,325225,1,2,0:0:0:0:
180,64,325312,1,2,0:0:0:0:
140,72,325399,1,2,0:0:0:0:
108,100,325486,1,2,0:0:0:0:
96,140,325573,5,2,0:0:0:0:
136,128,325661,1,2,0:0:0:0:
168,100,325748,1,2,0:0:0:0:
184,60,325835,1,2,0:0:0:0:
216,32,325922,1,2,0:0:0:0:
256,24,326009,1,2,0:0:0:0:
300,24,326097,1,2,0:0:0:0:
340,36,326184,1,2,0:0:0:0:
368,68,326271,5,2,0:0:0:0:
408,56,326358,1,2,0:0:0:0:
452,56,326445,1,2,0:0:0:0:
492,72,326533,1,2,0:0:0:0:
508,112,326620,1,2,0:0:0:0:
500,152,326707,1,2,0:0:0:0:
484,192,326794,1,2,0:0:0:0:
448,212,326881,1,2,0:0:0:0:
404,216,326969,5,2,0:0:0:0:
428,180,327056,1,2,0:0:0:0:
468,172,327143,1,2,0:0:0:0:
504,192,327230,1,2,0:0:0:0:
511,236,327318,1,2,0:0:0:0:
496,276,327405,1,2,0:0:0:0:
464,304,327492,1,2,0:0:0:0:
424,312,327579,1,2,0:0:0:0:
384,304,327666,5,2,0:0:0:0:
380,260,327754,1,2,0:0:0:0:
380,216,327841,1,2,0:0:0:0:
376,172,327928,1,2,0:0:0:0:
372,128,328015,5,2,0:0:0:0:
400,160,328102,1,2,0:0:0:0:
388,200,328190,1,2,0:0:0:0:
352,224,328277,1,2,0:0:0:0:
328,188,328364,5,2,0:0:0:0:
284,184,328451,1,2,0:0:0:0:
244,200,328538,1,2,0:0:0:0:
216,232,328626,1,2,0:0:0:0:
204,272,328713,5,2,0:0:0:0:
200,316,328800,1,2,0:0:0:0:
172,348,328887,1,2,0:0:0:0:
128,348,328975,1,2,0:0:0:0:
92,328,329061,5,2,0:0:0:0:
76,288,329149,1,2,0:0:0:0:
80,244,329236,1,2,0:0:0:0:
100,208,329323,1,2,0:0:0:0:
132,180,329411,1,2,0:0:0:0:
172,172,329498,1,2,0:0:0:0:
212,184,329585,2,2,P|248:208|260:224,1,42.5
200,124,329759,5,2,0:0:0:0:
236,100,329847,1,2,0:0:0:0:
280,104,329934,1,2,0:0:0:0:
316,128,330021,1,2,0:0:0:0:
340,164,330108,1,2,0:0:0:0:
372,192,330195,1,2,0:0:0:0:
412,212,330283,1,2,0:0:0:0:
456,216,330370,1,2,0:0:0:0:
496,196,330457,5,2,0:0:0:0:
452,192,330544,1,2,0:0:0:0:
408,188,330631,1,2,0:0:0:0:
368,176,330719,1,2,0:0:0:0:
328,168,330805,6,2,L|320:228,1,42.5
224,116,330980,2,2,L|224:64,1,42.5
272,264,331155,5,2,0:0:0:0:
240,240,331242,1,2,0:0:0:0:
236,196,331329,1,2,0:0:0:0:
248,156,331416,1,2,0:0:0:0:
288,140,331504,5,2,0:0:0:0:
252,164,331591,1,2,0:0:0:0:
208,160,331678,1,2,0:0:0:0:
164,156,331765,1,2,0:0:0:0:
132,128,331852,5,2,0:0:0:0:
176,128,331940,1,2,0:0:0:0:
220,128,332027,1,2,0:0:0:0:
264,128,332114,1,2,0:0:0:0:
308,128,332201,5,2,0:0:0:0:
300,112,332288,1,2,0:0:0:0:
284,104,332376,1,2,0:0:0:0:
268,104,332463,1,2,0:0:0:0:
256,116,332550,5,2,0:0:0:0:
252,136,332637,1,2,0:0:0:0:
256,160,332725,1,2,0:0:0:0:
280,176,332812,1,2,0:0:0:0:
312,184,332899,1,2,0:0:0:0:
348,176,332986,1,2,0:0:0:0:
376,144,333073,1,2,0:0:0:0:
380,96,333161,1,2,0:0:0:0:
352,56,333248,5,2,0:0:0:0:
296,48,333335,1,2,0:0:0:0:
240,68,333422,1,2,0:0:0:0:
204,120,333509,1,2,0:0:0:0:
200,188,333596,6,2,L|200:240,3,42.5000016212464
276,248,333945,2,2,L|296:280,23,28.3333333333333
228,152,335340,5,2,0:0:0:0:
232,152,335428,1,0,0:0:0:0:
236,152,335515,1,0,0:0:0:0:
240,152,335602,1,0,0:0:0:0:
244,152,335689,1,0,0:0:0:0:
248,152,335776,1,0,0:0:0:0:
252,152,335864,1,0,0:0:0:0:
256,152,335951,1,0,0:0:0:0:
260,152,336038,2,0,L|272:204,3,42.5
328,100,336387,5,2,0:0:0:0:
332,100,336475,1,0,0:0:0:0:
336,100,336562,1,0,0:0:0:0:
340,100,336649,1,0,0:0:0:0:
344,100,336736,1,0,0:0:0:0:
348,100,336823,1,0,0:0:0:0:
352,100,336911,1,0,0:0:0:0:
356,100,336998,1,0,0:0:0:0:
360,100,337085,2,0,L|368:44,3,42.5
380,220,337433,5,0,0:0:0:0:
380,220,337521,1,0,0:0:0:0:
380,220,337608,2,0,L|408:276,1,42.5
308,284,337782,5,0,0:0:0:0:
308,284,337870,1,0,0:0:0:0:
308,284,337957,2,0,L|280:340,1,42.5
440,312,338131,5,0,0:0:0:0:
440,312,338219,1,0,0:0:0:0:
440,312,338306,2,0,L|468:368,1,42.5
468,196,338480,6,0,L|480:156,3,42.5
392,140,338829,2,0,L|396:76,3,42.5
300,96,339178,2,0,L|288:52,3,42.5
196,72,339526,5,0,0:0:0:0:
192,73,339613,1,0,0:0:0:0:
188,74,339700,1,0,0:0:0:0:
184,75,339787,1,0,0:0:0:0:
180,76,339874,1,0,0:0:0:0:
176,77,339962,1,0,0:0:0:0:
172,78,340049,1,0,0:0:0:0:
168,79,340136,1,0,0:0:0:0:
164,80,340224,1,0,0:0:0:0:
160,80,340311,1,0,0:0:0:0:
156,80,340398,1,0,0:0:0:0:
152,80,340486,1,0,0:0:0:0:
148,80,340573,2,0,L|116:128,3,42.5
32,180,340922,5,0,0:0:0:0:
33,185,341009,1,0,0:0:0:0:
34,189,341096,1,0,0:0:0:0:
35,193,341183,1,0,0:0:0:0:
36,197,341270,1,0,0:0:0:0:
37,201,341358,1,0,0:0:0:0:
38,205,341445,1,0,0:0:0:0:
39,209,341532,1,0,0:0:0:0:
40,212,341620,1,0,0:0:0:0:
40,216,341707,1,0,0:0:0:0:
40,220,341794,1,0,0:0:0:0:
40,224,341882,1,0,0:0:0:0:
40,228,341968,6,0,L|88:260,3,42.5
104,340,342317,2,0,L|56:316,3,42.5
220,276,342666,2,0,L|260:300,3,42.5
180,148,343015,2,0,L|132:112,3,42.5
292,140,343364,2,0,L|328:172,1,42.5
324,60,343538,2,0,L|280:24,1,42.5
396,112,343712,5,0,0:0:0:0:
396,116,343800,1,0,0:0:0:0:
396,120,343887,1,0,0:0:0:0:
396,124,343974,1,0,0:0:0:0:
396,128,344061,1,0,0:0:0:0:
396,132,344148,1,0,0:0:0:0:
396,136,344236,1,0,0:0:0:0:
396,140,344323,1,0,0:0:0:0:
396,144,344410,1,0,0:0:0:0:
396,148,344497,1,0,0:0:0:0:
396,152,344585,1,0,0:0:0:0:
396,156,344672,1,0,0:0:0:0:
396,160,344759,1,0,0:0:0:0:
396,164,344846,1,0,0:0:0:0:
396,168,344933,1,0,0:0:0:0:
396,172,345021,1,0,0:0:0:0:
396,176,345108,6,0,L|396:220,5,28.3333333333333
336,288,345457,2,0,L|336:336,5,28.3333333333333
232,208,345805,2,0,L|232:168,5,28.3333333333333
120,288,346154,2,0,L|120:328,5,28.3333333333333
132,184,346503,5,0,0:0:0:0:
