osu file format v14

[General]
AudioFilename: 15 - THE LAST STRIKER.mp3
AudioLeadIn: 2000
PreviewTime: 93765
Countdown: 0
SampleSet: Soft
StackLeniency: 0.3
Mode: 0
LetterboxInBreaks: 1
WidescreenStoryboard: 1

[Editor]
DistanceSpacing: 1
BeatDivisor: 4
GridSize: 4
TimelineZoom: 3.899998

[Metadata]
Title:THE LAST STRIKER
TitleUnicode:THE LAST STRIKER
Artist:L.E.D.
ArtistUnicode:L.E.D.
Creator:Kloyd
Version:sionKotori's Another
Source:beatmania IIDX 17 SIRIUS
Tags:17 SIRIUS 15 TROOPERS CS LED Skystar Regou sionKotori milr_ PaRaDogi LeomineXD Electronic Instrumental
BeatmapID:2270813
BeatmapSetID:1085929

[Difficulty]
HPDrainRate:7
CircleSize:4
OverallDifficulty:8
ApproachRate:9
SliderMultiplier:1.4
SliderTickRate:1

[Events]
//Background and Video events
0,0,"wow.png",0,0
//Break Periods
2,10938,20192
2,73208,82637
//Storyboard Layer 0 (Background)
//Storyboard Layer 1 (Fail)
//Storyboard Layer 2 (Pass)
//Storyboard Layer 3 (Foreground)
//Storyboard Layer 4 (Overlay)
//Storyboard Sound Samples

[TimingPoints]
360,324.324324324324,4,2,1,63,1,0
522,-100,4,2,1,45,0,0
20792,-125,4,2,1,50,0,0
21116,-76.9230769230769,4,2,1,65,0,0
83387,-100,4,2,1,63,0,0
83549,-100,4,2,1,45,0,0
91170,-90.9090909090909,4,2,1,55,0,0
93765,-74.0740740740741,4,2,1,65,0,1
114522,-100,4,2,1,70,0,0
119711,-100,4,2,1,65,0,0

[Colours]
Combo1 : 0,128,192
Combo2 : 128,128,255
Combo3 : 0,0,255
Combo4 : 128,255,255

[HitObjects]
44,296,360,5,4,0:3:0:0:
44,296,522,1,2,0:0:0:0:
168,240,846,1,0,0:0:0:0:
168,240,1008,1,2,0:0:0:0:
304,296,1332,1,0,0:0:0:0:
304,296,1494,1,2,0:0:0:0:
428,240,1818,1,0,0:0:0:0:
428,240,1980,1,2,0:0:0:0:
416,372,2305,1,0,0:0:0:0:
416,372,2468,1,2,0:0:0:0:
356,252,2792,1,2,0:0:0:0:
396,160,2954,6,0,L|400:88,1,70,0|2,0:0|0:0,0:0:0:0:
272,32,3441,2,0,L|268:104,1,70,0|2,0:0|0:0,0:0:0:0:
140,188,3927,2,0,L|144:116,1,70,0|2,0:0|0:0,0:0:0:0:
16,60,4414,2,0,L|12:132,1,70,0|2,0:0|0:0,0:0:0:0:
76,248,4900,1,0,0:0:0:0:
76,248,5062,2,0,P|144:284|200:252,1,140,2|2,0:0|0:0,0:0:0:0:
232,168,5549,5,0,0:0:0:0:
244,160,5711,2,0,L|256:76,1,70,2|0,0:0|0:0,0:0:0:0:
308,208,6035,1,0,0:0:0:0:
296,216,6197,2,0,L|284:300,1,70,2|0,0:0|0:0,0:0:0:0:
440,312,6522,2,0,L|356:316,2,70,0|2|0,0:0|0:0|0:0,0:0:0:0:
224,372,7008,2,0,L|308:368,2,70,0|2|0,0:0|0:0|0:0,0:0:0:0:
104,332,7495,2,0,B|88:300|88:300|100:252,1,70,0|2,0:0|0:0,0:0:0:0:
192,200,7819,2,0,B|208:232|208:232|196:280,1,70,0|2,0:0|0:0,0:0:0:0:
100,162,8143,5,0,0:0:0:0:
179,103,8306,1,2,0:0:0:0:
192,200,8468,1,0,0:0:0:0:
100,160,8630,2,0,L|28:146,2,70,0|2|0,0:0|0:0|0:0,0:0:0:0:
180,104,9116,2,0,L|228:48,2,70,0|2|0,0:0|0:0|0:0,0:0:0:0:
192,200,9603,2,0,L|215:269,2,70,0|2|0,0:0|0:0|0:0,0:0:0:0:
276,140,10089,1,0,0:0:0:0:
276,140,10251,2,0,B|316:116|340:140|368:156|416:132,1,140,2|2,0:0|0:0,0:0:0:0:
464,72,10738,5,4,0:3:0:0:
256,232,20792,6,0,L|256:160,1,56,0|2,0:0|0:0,0:0:0:0:
64,108,21116,6,0,L|160:100,2,90.9999958343508,4|0|8,0:0|0:0|0:0,0:0:0:0:
148,200,21603,1,0,0:0:0:0:
148,200,21684,1,0,0:0:0:0:
148,200,21765,2,0,L|156:296,1,90.9999958343508,0|0,1:0|1:0,0:0:0:0:
336,332,22089,2,0,L|244:332,1,90.9999958343508,8|0,0:0|0:0,0:0:0:0:
420,376,22414,6,0,B|428:328|428:328|416:280,1,90.9999958343508,0|0,1:0|0:0,0:0:0:0:
296,116,22738,2,0,B|288:164|288:164|300:212,1,90.9999958343508,8|0,0:0|0:0,0:0:0:0:
308,220,22981,1,8,0:0:0:0:
316,232,23062,1,0,1:0:0:0:
431,251,23224,1,2,0:0:0:0:
487,145,23387,1,8,0:0:0:0:
404,59,23549,1,0,0:0:0:0:
297,111,23711,6,0,L|204:100,2,90.9999958343508,0|0|8,0:0|0:0|0:0,0:0:0:0:
224,208,24197,1,0,0:0:0:0:
224,208,24278,1,0,0:0:0:0:
224,208,24359,2,0,L|220:300,1,90.9999958343508,0|0,1:0|1:0,0:0:0:0:
64,344,24684,2,0,B|108:356|108:356|160:344,1,90.9999958343508,8|0,0:0|0:0,0:0:0:0:
300,320,25008,6,0,B|344:309|344:309|388:321,2,90.9999958343508,0|0|8,0:0|0:0|0:0,0:0:0:0:
440,248,25495,1,0,0:0:0:0:
440,248,25576,1,8,0:0:0:0:
440,248,25657,2,0,L|432:140,1,90.9999958343508,0|2,1:0|0:0,0:0:0:0:
320,72,25981,2,0,L|416:64,1,90.9999958343508,10|2,0:0|0:0,0:0:0:0:
348,188,26305,6,0,P|264:184|204:96,1,181.999991668702,0|8,0:0|0:0,0:0:0:0:
120,40,26792,1,0,0:0:0:0:
120,40,26873,1,0,0:0:0:0:
120,40,26954,2,0,L|112:144,1,90.9999958343508,0|0,1:0|1:0,0:0:0:0:
192,252,27278,2,0,L|184:356,1,90.9999958343508,8|0,0:0|0:0,0:0:0:0:
272,312,27603,5,0,0:0:0:0:
100,292,27765,1,0,0:0:0:0:
288,316,27927,2,0,L|380:308,1,90.9999958343508,8|0,0:0|0:0,0:0:0:0:
400,312,28170,1,8,0:0:0:0:
420,316,28251,1,0,1:0:0:0:
360,200,28414,2,0,L|352:108,2,90.9999958343508,2|10|2,0:0|0:0|0:0,0:0:0:0:
248,200,28900,6,0,P|200:224|100:156,1,181.999991668702,0|8,0:0|0:0,0:0:0:0:
184,136,29387,1,0,0:0:0:0:
184,136,29468,1,0,0:0:0:0:
184,136,29549,2,0,B|192:88|192:88|184:44,1,90.9999958343508,0|0,1:0|1:0,0:0:0:0:
24,112,29873,2,0,B|16:160|16:160|24:204,1,90.9999958343508,8|0,0:0|0:0,0:0:0:0:
176,228,30197,5,8,0:0:0:0:
216,216,30278,1,8,0:0:0:0:
260,224,30359,1,10,0:0:0:0:
288,256,30441,1,8,0:0:0:0:
292,296,30522,2,0,L|274:337,1,45.4999979171754,10|8,0:0|0:0,0:0:0:0:
382,287,30684,2,0,L|415:316,1,45.4999979171754,2|0,1:0|0:0,0:0:0:0:
400,200,30846,2,0,L|437:177,1,45.4999979171754,0|0,1:0|0:0,0:0:0:0:
324,152,31008,2,0,L|313:108,1,45.4999979171754,2|0,1:0|0:0,0:0:0:0:
255,212,31170,2,0,B|212:224|212:224|164:212,1,90.9999958343508,8|2,0:0|0:0,0:0:0:0:
96,80,31495,6,0,B|139:68|139:68|187:80,2,90.9999958343508,4|0|8,0:0|0:0|0:0,0:0:0:0:
140,192,31981,1,0,0:0:0:0:
140,192,32062,1,0,0:0:0:0:
140,192,32143,2,0,L|132:288,1,90.9999958343508,0|2,1:0|0:0,0:0:0:0:
128,296,32387,1,0,0:0:0:0:
124,308,32468,2,0,B|168:316|168:316|216:308,1,90.9999958343508,8|0,0:0|0:0,0:0:0:0:
388,280,32792,6,0,B|344:272|344:272|296:280,1,90.9999958343508,0|2,1:0|0:0,0:0:0:0:
488,344,33116,2,0,L|476:244,1,90.9999958343508,8|0,0:0|1:0,0:0:0:0:
480,232,33359,1,8,0:0:0:0:
484,216,33441,1,0,1:0:0:0:
448,112,33603,2,0,P|377:163|387:249,1,181.999991668702,2|0,0:0|0:0,0:0:0:0:
260,320,34089,6,0,L|160:332,2,90.9999958343508,0|0|8,1:0|0:0|0:0,0:0:0:0:
188,228,34576,1,0,0:0:0:0:
188,228,34657,1,0,0:0:0:0:
188,228,34738,2,0,L|172:112,1,90.9999958343508,0|2,1:0|0:0,0:0:0:0:
180,124,34981,1,0,0:0:0:0:
184,112,35062,2,0,B|140:120|140:120|92:112,1,90.9999958343508,8|0,0:0|0:0,0:0:0:0:
260,64,35387,6,0,B|304:56|304:56|352:64,1,90.9999958343508,0|2,1:0|0:0,0:0:0:0:
460,12,35711,2,0,L|456:108,1,90.9999958343508,8|0,0:0|1:0,0:0:0:0:
460,124,35954,1,8,0:0:0:0:
464,144,36035,1,0,1:0:0:0:
320,264,36197,1,2,0:0:0:0:
360,152,36359,1,10,0:0:0:0:
440,236,36522,1,2,0:0:0:0:
256,320,36684,6,0,L|160:328,1,90.9999958343508,0|0,1:0|0:0,0:0:0:0:
168,80,37008,2,0,L|176:176,1,90.9999958343508,8|0,0:0|0:0,0:0:0:0:
172,192,37251,1,0,0:0:0:0:
168,212,37332,1,0,1:0:0:0:
84,136,37495,1,2,0:0:0:0:
264,112,37657,2,0,L|360:120,1,90.9999958343508,8|0,0:0|0:0,0:0:0:0:
432,284,37981,6,0,L|336:276,1,90.9999958343508,0|2,1:0|0:0,0:0:0:0:
228,324,38305,2,0,B|216:280|216:280|224:236,1,90.9999958343508,8|0,0:0|1:0,0:0:0:0:
232,208,38549,1,8,0:0:0:0:
240,184,38630,2,0,B|248:140|248:140|236:96,1,90.9999958343508,0|2,1:0|0:0,0:0:0:0:
32,136,38954,2,0,L|122:143,1,90.9999958343508,8|0,0:0|0:0,0:0:0:0:
320,176,39278,5,0,1:0:0:0:
440,124,39441,2,0,L|444:28,1,90.9999958343508,0|8,0:0|0:0,0:0:0:0:
336,56,39765,1,0,0:0:0:0:
336,56,39846,1,0,0:0:0:0:
336,56,39927,1,0,1:0:0:0:
392,176,40089,2,0,L|400:268,2,90.9999958343508,2|8|0,0:0|0:0|0:0,0:0:0:0:
448,344,40576,6,0,B|404:356|404:356|356:344,1,90.9999958343508,0|2,1:0|0:0,0:0:0:0:
240,304,40900,2,0,B|195:292|195:292|151:304,1,90.9999958343508,8|0,0:0|1:0,0:0:0:0:
128,320,41143,1,8,0:0:0:0:
100,340,41224,2,0,L|88:224,1,90.9999958343508,0|2,1:0|0:0,0:0:0:0:
160,84,41549,2,0,L|172:200,1,90.9999958343508,10|2,0:0|0:0,0:0:0:0:
276,220,41873,5,4,0:0:0:0:
276,220,42035,2,0,P|356:192|420:252,1,181.999991668702
428,280,42441,1,0,0:0:0:0:
428,304,42522,1,0,1:0:0:0:
340,372,42684,2,0,P|328:324|340:280,1,90.9999958343508,2|8,0:0|0:0,0:0:0:0:
148,296,43008,6,0,L|256:296,2,90.9999958343508,0|0|2,0:0|1:0|0:0,0:0:0:0:
288,216,43495,2,0,L|300:120,1,90.9999958343508,8|0,0:0|1:0,0:0:0:0:
292,100,43738,1,8,0:0:0:0:
284,80,43819,1,0,1:0:0:0:
96,48,43981,2,0,B|162:59|162:59|205:47|205:47|276:59,1,181.999991668702,2|0,0:0|0:0,0:0:0:0:
168,160,44468,6,0,B|160:264,2,90.9999958343508,0|0|8,1:0|0:0|0:0,0:0:0:0:
96,328,44954,1,0,0:0:0:0:
116,332,45035,1,0,0:0:0:0:
140,336,45116,2,0,L|236:316,1,90.9999958343508,0|2,1:0|0:0,0:0:0:0:
252,320,45359,1,0,0:0:0:0:
272,324,45440,1,8,0:0:0:0:
408,368,45603,6,0,L|396:272,1,90.9999958343508,0|0,0:0|1:0,0:0:0:0:
400,256,45846,1,0,0:0:0:0:
404,236,45927,2,0,L|416:140,1,90.9999958343508,2|8,0:0|0:0,0:0:0:0:
412,124,46170,1,0,0:0:0:0:
408,104,46251,2,0,L|396:56,2,45.4999979171754,0|8|0,1:0|0:0|1:0,0:0:0:0:
236,140,46576,1,2,0:0:0:0:
228,24,46738,1,10,0:0:0:0:
332,76,46900,1,2,0:0:0:0:
128,96,47062,5,4,0:0:0:0:
216,180,47224,2,0,L|224:276,2,90.9999958343508,0|8|0,0:0|0:0|0:0,0:0:0:0:
144,352,47711,2,0,L|240:372,1,90.9999958343508,0|2,1:0|0:0,0:0:0:0:
260,360,47954,1,0,0:0:0:0:
284,348,48035,2,0,L|380:368,1,90.9999958343508,8|0,0:0|0:0,0:0:0:0:
496,300,48359,6,0,B|424:284|424:284|408:252,1,90.9999958343508,0|2,1:0|0:0,0:0:0:0:
404,244,48603,1,0,0:0:0:0:
396,224,48684,2,0,B|384:180|384:180|392:132,1,90.9999958343508,8|0,0:0|1:0,0:0:0:0:
472,44,49008,1,0,1:0:0:0:
320,104,49170,2,0,L|208:112,2,90.9999958343508,2|8|0,0:0|0:0|0:0,0:0:0:0:
168,28,49657,5,0,1:0:0:0:
116,132,49819,2,0,B|136:268|136:268|124:312,1,181.999991668702
116,332,50224,1,0,0:0:0:0:
108,352,50305,1,0,1:0:0:0:
216,316,50468,1,2,0:0:0:0:
324,336,50630,1,8,0:0:0:0:
432,300,50793,1,0,0:0:0:0:
316,216,50954,6,0,L|220:224,1,90.9999958343508,0|2,1:0|0:0,0:0:0:0:
324,128,51278,2,0,L|420:120,1,90.9999958343508,8|0,0:0|1:0,0:0:0:0:
436,112,51522,1,8,0:0:0:0:
456,104,51603,2,0,B|464:60|464:60|452:8,1,90.9999958343508,0|2,1:0|0:0,0:0:0:0:
244,92,51927,2,0,B|236:136|236:136|248:188,1,90.9999958343508,10|0,0:0|1:0,0:0:0:0:
380,276,52251,5,4,0:0:0:0:
244,340,52414,1,0,0:0:0:0:
220,344,52495,2,0,L|124:320,1,90.9999958343508
108,328,52738,1,0,0:0:0:0:
56,224,52900,1,0,1:0:0:0:
52,196,52981,1,0,0:0:0:0:
48,168,53062,1,2,0:0:0:0:
160,72,53224,1,8,0:0:0:0:
161,100,53305,1,0,0:0:0:0:
162,128,53386,1,0,0:0:0:0:
165,156,53468,1,0,0:0:0:0:
168,184,53549,5,0,1:0:0:0:
288,128,53711,1,2,0:0:0:0:
312,132,53792,2,0,L|408:108,1,90.9999958343508
424,116,54035,1,2,0:0:0:0:
472,248,54197,1,0,1:0:0:0:
449,256,54278,1,0,0:0:0:0:
423,265,54359,1,2,0:0:0:0:
400,273,54440,1,0,0:0:0:0:
370,284,54522,1,10,0:0:0:0:
347,293,54603,1,0,0:0:0:0:
321,302,54684,1,0,0:0:0:0:
299,310,54765,1,0,0:0:0:0:
276,316,54846,6,0,B|232:324|232:324|176:308,1,90.9999958343508,0|0,1:0|0:0,0:0:0:0:
168,304,55089,2,0,B|123:291|123:291|79:299,1,90.9999958343508
56,308,55332,1,0,0:0:0:0:
204,172,55495,1,0,1:0:0:0:
208,200,55576,1,0,0:0:0:0:
212,228,55657,1,2,0:0:0:0:
97,134,55819,1,8,0:0:0:0:
124,124,55900,1,0,0:0:0:0:
150,113,55981,1,0,0:0:0:0:
175,101,56063,1,0,0:0:0:0:
200,88,56143,6,0,B|216:76|216:76|264:64|264:64|288:68,1,90.9999958343508,0|2,1:0|0:0,0:0:0:0:
304,68,56387,2,0,B|325:71|325:71|373:59|373:59|389:47,1,90.9999958343508
404,40,56630,1,0,1:0:0:0:
362,144,56792,1,0,1:0:0:0:
368,168,56873,1,0,0:0:0:0:
374,194,56954,1,2,0:0:0:0:
379,218,57035,1,0,0:0:0:0:
387,249,57117,1,10,0:0:0:0:
394,273,57198,1,0,0:0:0:0:
400,300,57279,1,2,0:0:0:0:
406,322,57360,1,0,0:0:0:0:
412,344,57441,5,4,0:0:0:0:
320,316,57603,1,0,0:0:0:0:
304,312,57684,1,0,0:0:0:0:
220,336,57846,1,0,0:0:0:0:
203,337,57927,1,0,0:0:0:0:
100,296,58089,2,0,L|88:344,1,45.4999979171754,0|0,1:0|0:0,0:0:0:0:
76,276,58251,2,0,L|56:180,1,90.9999958343508,2|8,0:0|0:0,0:0:0:0:
64,164,58495,1,0,0:0:0:0:
72,144,58576,1,0,0:0:0:0:
80,124,58657,1,0,0:0:0:0:
88,104,58738,5,0,1:0:0:0:
164,48,58900,1,2,0:0:0:0:
180,52,58981,1,0,0:0:0:0:
276,24,59143,1,0,0:0:0:0:
291,22,59224,1,2,0:0:0:0:
360,108,59387,1,0,1:0:0:0:
356,132,59468,1,0,0:0:0:0:
353,158,59549,1,2,0:0:0:0:
350,183,59630,1,0,0:0:0:0:
344,208,59711,2,0,L|283:210,1,45.4999979171754,10|0,0:0|0:0,0:0:0:0:
340,232,59873,2,0,L|401:230,1,45.4999979171754
336,256,60035,6,0,L|320:356,1,90.9999958343508,0|0,1:0|0:0,0:0:0:0:
312,368,60278,2,0,B|272:384|272:384|216:372,1,90.9999958343508
204,368,60522,1,0,0:0:0:0:
84,300,60684,1,0,1:0:0:0:
100,292,60765,1,0,0:0:0:0:
120,280,60846,2,0,B|160:264|160:264|216:276,1,90.9999958343508,2|8,0:0|0:0,0:0:0:0:
228,268,61089,1,0,0:0:0:0:
248,260,61170,1,0,0:0:0:0:
264,252,61251,1,0,0:0:0:0:
280,244,61332,6,0,B|292:175|292:175|283:152,1,90.9999958343508,0|2,1:0|0:0,0:0:0:0:
280,140,61576,2,0,B|271:120|271:120|284:51,1,90.9999958343508
288,36,61819,1,0,1:0:0:0:
372,104,61981,2,0,L|380:56,1,45.4999979171754,0|0,1:0|0:0,0:0:0:0:
372,124,62143,2,0,L|388:216,1,90.9999958343508,2|10,0:0|0:0,0:0:0:0:
392,240,62387,1,0,0:0:0:0:
396,264,62468,1,2,0:0:0:0:
400,288,62549,1,0,0:0:0:0:
408,312,62630,6,0,L|456:320,2,45.4999979171754,4|0|0,0:0|0:0|0:0,0:0:0:0:
388,316,62873,2,0,L|280:328,1,90.9999958343508
276,328,63116,1,0,0:0:0:0:
148,372,63278,1,0,1:0:0:0:
156,348,63359,1,0,0:0:0:0:
168,320,63441,2,0,B|172:296|172:296|152:224,1,90.9999958343508,2|8,0:0|0:0,0:0:0:0:
56,296,63765,1,0,0:0:0:0:
216,188,63927,6,0,L|316:188,1,90.9999958343508,0|2,1:0|0:0,0:0:0:0:
336,176,64170,2,0,B|344:128|344:128|332:76,1,90.9999958343508
324,64,64414,1,2,0:0:0:0:
424,128,64576,1,0,1:0:0:0:
428,156,64657,1,0,0:0:0:0:
432,180,64738,1,2,0:0:0:0:
436,204,64819,1,0,0:0:0:0:
416,236,64900,1,10,0:0:0:0:
412,264,64981,1,0,0:0:0:0:
408,288,65062,1,0,0:0:0:0:
404,312,65143,1,0,0:0:0:0:
384,336,65224,6,0,B|358:339|358:339|294:327,1,90.9999958343508,0|0,1:0|0:0,0:0:0:0:
276,324,65468,2,0,B|212:312|212:312|186:315,1,90.9999958343508
168,320,65711,1,0,0:0:0:0:
60,240,65873,1,0,1:0:0:0:
52,376,66035,1,2,0:0:0:0:
168,320,66197,1,8,0:0:0:0:
176,296,66278,1,0,0:0:0:0:
184,272,66359,1,0,0:0:0:0:
192,248,66441,1,0,0:0:0:0:
200,228,66522,6,0,B|212:180|212:180|200:132,1,90.9999958343508,0|2,1:0|0:0,0:0:0:0:
196,124,66765,2,0,B|185:83|185:83|197:35,1,90.9999958343508
204,20,67008,1,0,1:0:0:0:
380,78,67170,1,0,1:0:0:0:
356,84,67251,1,0,0:0:0:0:
330,90,67332,1,2,0:0:0:0:
306,95,67413,1,0,0:0:0:0:
275,103,67495,1,10,0:0:0:0:
251,110,67576,1,0,0:0:0:0:
224,116,67657,1,2,0:0:0:0:
202,122,67738,1,0,0:0:0:0:
176,128,67819,6,0,L|124:120,2,45.4999979171754,4|0|0,0:0|0:0|0:0,0:0:0:0:
196,144,68062,2,0,B|204:188|204:188|188:224|188:224|196:280,1,136.499993751526
392,208,68468,2,0,L|292:220,1,90.9999958343508,0|2,1:0|0:0,0:0:0:0:
284,232,68711,1,0,0:0:0:0:
268,248,68792,2,0,B|288:304|288:304|280:344,1,90.9999958343508,8|0,0:0|0:0,0:0:0:0:
216,180,69116,6,0,B|196:124|196:124|204:84,1,90.9999958343508,0|2,1:0|0:0,0:0:0:0:
208,76,69359,1,0,0:0:0:0:
216,60,69441,2,0,L|200:16,3,45.4999979171754,8|0|2|0,0:0|0:0|0:0|0:0,0:0:0:0:
236,68,69765,1,0,1:0:0:0:
259,72,69846,1,0,0:0:0:0:
284,80,69927,1,2,0:0:0:0:
309,86,70008,1,0,0:0:0:0:
340,93,70090,1,10,0:0:0:0:
364,97,70171,1,0,0:0:0:0:
391,104,70252,1,0,0:0:0:0:
413,109,70333,1,0,0:0:0:0:
432,116,70414,6,0,B|444:160|444:160|436:212,1,90.9999958343508,4|0,0:0|0:0,0:0:0:0:
428,228,70657,2,0,B|412:268|412:268|424:304|424:304|404:356,1,136.499993751526
292,320,71062,2,0,L|236:304,2,45.4999979171754,0|0|2,1:0|0:0|0:0,0:0:0:0:
136,372,71387,2,0,L|124:276,1,90.9999958343508,8|0,0:0|0:0,0:0:0:0:
44,132,71711,5,4,0:0:0:0:
60,164,71792,1,0,0:0:0:0:
84,188,71873,1,2,0:0:0:0:
116,204,71954,1,0,0:0:0:0:
148,208,72035,1,8,0:0:0:0:
180,204,72116,1,0,0:0:0:0:
216,188,72197,1,0,1:0:0:0:
244,160,72278,1,8,0:0:0:0:
260,128,72359,1,0,1:0:0:0:
288,100,72440,1,0,1:0:0:0:
324,84,72521,1,0,1:0:0:0:
356,80,72602,1,0,1:0:0:0:
388,84,72683,1,10,0:0:0:0:
420,100,72764,1,8,0:0:0:0:
444,124,72845,1,10,0:0:0:0:
460,156,72926,1,8,0:0:0:0:
468,196,73008,5,4,0:0:0:0:
420,20,83387,5,4,0:3:0:0:
420,20,83549,1,2,0:0:0:0:
380,124,83873,1,0,0:0:0:0:
380,124,84035,1,2,0:0:0:0:
460,208,84359,1,0,0:0:0:0:
460,208,84521,1,2,0:0:0:0:
420,312,84845,1,0,0:0:0:0:
420,312,85007,1,2,0:0:0:0:
312,332,85332,1,0,0:0:0:0:
312,332,85495,1,2,0:0:0:0:
236,260,85819,1,2,0:0:0:0:
168,304,85981,6,0,L|164:380,1,70,0|2,0:0|0:0,0:0:0:0:
80,272,86468,2,0,L|84:196,1,70,0|2,0:0|0:0,0:0:0:0:
176,136,86954,2,0,L|172:212,1,70,0|2,0:0|0:0,0:0:0:0:
88,104,87441,2,0,L|92:28,1,70,0|2,0:0|0:0,0:0:0:0:
240,44,87927,1,0,0:0:0:0:
240,44,88089,2,0,P|292:96|360:72,1,140,2|2,0:0|0:0,0:0:0:0:
424,32,88576,5,0,0:0:0:0:
436,100,88738,1,2,0:0:0:0:
448,168,88900,1,0,0:0:0:0:
477,259,89062,5,0,0:0:0:0:
412,235,89224,1,2,0:0:0:0:
348,212,89386,1,0,0:0:0:0:
262,204,89549,5,0,0:0:0:0:
316,159,89711,1,2,0:0:0:0:
368,116,89873,1,0,0:0:0:0:
284,100,90035,5,0,0:0:0:0:
220,72,90197,1,2,0:0:0:0:
156,48,90359,1,0,0:0:0:0:
184,140,90522,5,0,0:0:0:0:
195,208,90684,1,2,0:0:0:0:
206,275,90846,1,0,0:0:0:0:
195,208,91008,1,2,0:0:0:0:
352,344,91170,5,4,0:0:0:0:
356,328,91251,1,8,0:0:0:0:
362,313,91332,1,8,0:0:0:0:
367,299,91414,1,8,0:0:0:0:
371,287,91495,1,10,0:0:0:0:
376,275,91576,1,8,0:0:0:0:
381,261,91657,1,8,0:0:0:0:
385,249,91738,1,8,0:0:0:0:
392,236,91819,2,0,L|388:192,3,38.5000011749268,10|8|8|8,0:0|0:0|0:0|0:0,0:0:0:0:
472,160,92143,2,0,L|468:116,3,38.5000011749268,10|8|10|8,0:0|0:0|0:0|0:0,0:0:0:0:
372,104,92468,6,0,L|368:60,1,38.5000011749268,0|0,1:0|0:0,0:0:0:0:
272,100,92630,2,0,L|268:56,1,38.5000011749268,0|0,1:0|0:0,0:0:0:0:
176,96,92792,1,10,0:0:0:0:
60,208,92954,2,0,L|64:252,1,38.5000011749268,0|0,1:0|0:0,0:0:0:0:
160,212,93116,2,0,L|164:256,1,38.5000011749268,0|0,1:0|0:0,0:0:0:0:
256,216,93278,1,10,0:0:0:0:
420,308,93441,1,0,1:0:0:0:
392,312,93522,1,0,1:0:0:0:
368,316,93603,1,0,1:0:0:0:
344,320,93684,1,0,1:0:0:0:
312,324,93765,6,0,L|196:308,2,94.5000003604889,4|0|8,0:0|0:0|0:0,0:0:0:0:
128,352,94251,1,0,0:0:0:0:
128,352,94332,1,0,0:0:0:0:
128,352,94414,2,0,B|116:300|116:300|128:256,1,94.5000003604889,0|2,1:0|0:0,0:0:0:0:
164,88,94738,2,0,B|176:140|176:140|164:184,1,94.5000003604889,8|0,0:0|0:0,0:0:0:0:
256,88,95062,6,0,L|352:80,1,94.5000003604889,0|2,1:0|0:0,0:0:0:0:
380,72,95305,1,0,0:0:0:0:
404,64,95387,1,8,0:0:0:0:
396,164,95549,2,0,B|388:232|388:232|416:280|416:280|412:344,1,189.000000720978,2|2,0:0|0:0,0:0:0:0:
396,360,95954,1,0,0:0:0:0:
380,376,96035,1,10,0:0:0:0:
280,280,96197,1,0,0:0:0:0:
472,216,96359,5,0,1:0:0:0:
312,164,96522,2,0,L|196:172,1,94.5000003604889,0|8,0:0|0:0,0:0:0:0:
120,44,96846,1,0,0:0:0:0:
120,44,96927,1,0,0:0:0:0:
120,44,97008,2,0,L|112:144,1,94.5000003604889,0|2,1:0|0:0,0:0:0:0:
176,296,97332,2,0,L|184:196,1,94.5000003604889,8|0,0:0|0:0,0:0:0:0:
128,360,97657,6,0,B|180:376|180:376|256:340|256:340|312:348,1,189.000000720978,4|8,0:0|0:0,0:0:0:0:
421,311,98143,1,2,0:0:0:0:
421,311,98224,1,0,0:0:0:0:
421,311,98305,1,4,0:0:0:0:
419,192,98468,1,2,0:0:0:0:
309,156,98631,1,10,0:0:0:0:
239,252,98793,1,2,0:0:0:0:
308,348,98955,5,4,0:0:0:0:
340,252,99116,1,0,0:0:0:0:
340,252,99197,1,0,0:0:0:0:
340,252,99278,2,0,L|352:156,1,94.5000003604889,8|0,0:0|0:0,0:0:0:0:
252,72,99603,1,0,1:0:0:0:
372,28,99765,2,0,L|488:44,1,94.5000003604889,2|8,0:0|0:0,0:0:0:0:
312,156,100089,1,0,0:0:0:0:
312,156,100170,1,0,0:0:0:0:
312,156,100251,6,0,L|196:140,2,94.5000003604889,0|2|8,1:0|0:0|0:0,0:0:0:0:
172,240,100738,2,0,B|232:244|232:244|288:288|288:288|348:292,1,189.000000720978,2|2,0:0|0:0,0:0:0:0:
368,288,101143,1,0,0:0:0:0:
388,284,101224,1,10,0:0:0:0:
256,364,101387,1,0,0:0:0:0:
328,200,101549,5,0,1:0:0:0:
184,144,101711,2,0,L|72:156,1,94.5000003604889,0|8,0:0|0:0,0:0:0:0:
208,296,102035,1,0,0:0:0:0:
352,352,102197,2,0,L|464:340,2,94.5000003604889,0|2|8,1:0|0:0|0:0,0:0:0:0:
392,124,102684,6,0,L|400:228,1,94.5000003604889,0|0,0:0|1:0,0:0:0:0:
392,244,102927,1,0,0:0:0:0:
384,268,103008,1,2,0:0:0:0:
268,192,103170,2,0,L|260:88,1,94.5000003604889,8|2,0:0|0:0,0:0:0:0:
268,72,103413,1,0,0:0:0:0:
276,48,103494,1,0,1:0:0:0:
132,108,103657,2,0,B|108:136|56:144|56:144|40:200|76:244,1,189.000000720978,2|2,0:0|0:0,0:0:0:0:
272,216,104143,6,0,L|172:208,2,94.5000003604889,4|0|8,0:0|0:0|0:0,0:0:0:0:
384,136,104630,1,0,0:0:0:0:
384,136,104711,1,0,0:0:0:0:
384,136,104792,2,0,L|396:232,1,94.5000003604889,0|2,1:0|0:0,0:0:0:0:
352,328,105116,2,0,B|400:340|400:340|456:328,1,94.5000003604889,8|0,0:0|0:0,0:0:0:0:
224,296,105441,6,0,B|176:284|176:284|120:296,1,94.5000003604889,0|2,1:0|0:0,0:0:0:0:
108,300,105684,1,0,0:0:0:0:
88,304,105765,1,8,0:0:0:0:
60,204,105927,2,0,B|112:192|112:192|156:144|148:60,1,189.000000720978,2|2,0:0|0:0,0:0:0:0:
144,44,106332,1,0,0:0:0:0:
140,24,106414,1,10,0:0:0:0:
52,104,106576,1,0,0:0:0:0:
224,168,106738,5,0,1:0:0:0:
352,104,106900,2,0,L|356:4,1,94.5000003604889,0|8,0:0|0:0,0:0:0:0:
404,196,107224,1,0,0:0:0:0:
404,196,107305,1,0,0:0:0:0:
404,196,107387,2,0,L|400:296,1,94.5000003604889,0|2,1:0|0:0,0:0:0:0:
204,264,107711,2,0,B|252:252|252:252|296:264,1,94.5000003604889,8|0,0:0|0:0,0:0:0:0:
168,372,108035,6,0,P|120:352|104:216,1,189.000000720978,4|8,0:0|0:0,0:0:0:0:
104,204,108441,1,0,0:0:0:0:
108,180,108522,1,2,0:0:0:0:
108,152,108603,1,0,0:0:0:0:
104,128,108684,1,4,0:0:0:0:
260,52,108846,2,0,L|160:60,2,94.5000003604889,2|10|2,0:0|0:0|0:0,0:0:0:0:
396,96,109332,5,4,0:0:0:0:
300,172,109495,1,0,0:0:0:0:
300,172,109576,1,0,0:0:0:0:
300,172,109657,2,0,B|292:220|292:220|304:276,1,94.5000003604889,8|0,0:0|0:0,0:0:0:0:
488,316,109981,2,0,B|496:268|496:268|484:212,1,94.5000003604889,0|2,1:0|0:0,0:0:0:0:
372,252,110305,1,8,0:0:0:0:
328,352,110468,1,0,0:0:0:0:
328,352,110549,1,0,0:0:0:0:
328,352,110630,6,0,L|220:328,2,94.5000003604889,0|2|8,1:0|0:0|0:0,0:0:0:0:
160,184,111116,2,0,B|230:203|230:203|256:247|256:247|321:265,1,189.000000720978,2|2,0:0|0:0,0:0:0:0:
344,260,111522,1,0,0:0:0:0:
368,252,111603,1,10,0:0:0:0:
488,180,111765,1,0,0:0:0:0:
368,112,111927,6,0,L|352:8,1,94.5000003604889,4|0,0:0|0:0,0:0:0:0:
264,140,112251,2,0,B|220:156|220:156|168:144,1,94.5000003604889,8|0,0:0|0:0,0:0:0:0:
148,136,112495,1,0,0:0:0:0:
128,128,112576,1,0,1:0:0:0:
208,44,112738,1,2,0:0:0:0:
152,228,112900,2,0,L|144:340,1,94.5000003604889,8|0,0:0|0:0,0:0:0:0:
446,256,113224,5,0,1:0:0:0:
420,255,113305,1,0,1:0:0:0:
395,251,113386,1,0,1:0:0:0:
370,249,113468,1,0,1:0:0:0:
351,248,113549,1,8,0:0:0:0:
330,244,113630,1,0,1:0:0:0:
307,242,113711,1,0,1:0:0:0:
288,240,113792,1,0,0:0:0:0:
268,239,113873,2,0,L|220:251,2,47.2500001802444,8|0|10,0:0|0:0|0:0,0:0:0:0:
192,104,114197,1,10,0:0:0:0:
60,152,114359,1,10,0:0:0:0:
20,292,114522,5,4,0:0:0:0:
20,292,114684,1,2,0:0:0:0:
128,228,115008,1,0,0:0:0:0:
128,228,115170,1,2,0:0:0:0:
260,248,115495,1,0,0:0:0:0:
260,248,115657,1,2,0:0:0:0:
368,184,115981,1,0,0:0:0:0:
368,184,116143,1,2,0:0:0:0:
496,200,116468,1,0,0:0:0:0:
496,200,116630,1,2,0:0:0:0:
416,296,116954,1,2,0:0:0:0:
432,164,117116,6,0,L|424:84,1,70,0|2,0:0|0:0,0:0:0:0:
288,40,117603,2,0,L|296:120,1,70,0|2,0:0|0:0,0:0:0:0:
164,192,118089,2,0,L|156:112,1,70,0|2,0:0|0:0,0:0:0:0:
20,68,118576,2,0,L|28:148,1,70,0|2,0:0|0:0,0:0:0:0:
92,260,119062,1,0,0:0:0:0:
92,260,119224,2,0,B|168:276|168:276|232:264,1,140,2|2,0:0|0:0,0:0:0:0:
256,192,119711,12,0,123603,0:0:0:0:
