osu file format v14

[General]
AudioFilename: 15 - THE LAST STRIKER.mp3
AudioLeadIn: 2000
PreviewTime: 93765
Countdown: 0
SampleSet: Soft
StackLeniency: 0.3
Mode: 0
LetterboxInBreaks: 1
WidescreenStoryboard: 1

[Editor]
Bookmarks: 73008
DistanceSpacing: 1
BeatDivisor: 4
GridSize: 32
TimelineZoom: 2.2

[Metadata]
Title:THE LAST STRIKER
TitleUnicode:THE LAST STRIKER
Artist:L.E.D.
ArtistUnicode:L.E.D.
Creator:Kloyd
Version:Skystar's Extra
Source:beatmania IIDX 17 SIRIUS
Tags:17 SIRIUS 15 TROOPERS CS LED Skystar Regou sionKotori milr_ PaRaDogi LeomineXD Electronic Instrumental
BeatmapID:2270814
BeatmapSetID:1085929

[Difficulty]
HPDrainRate:7
CircleSize:4
OverallDifficulty:9
ApproachRate:9
SliderMultiplier:2
SliderTickRate:1

[Events]
//Background and Video events
0,0,"bg.png",0,0
//Break Periods
2,73208,82787
//Storyboard Layer 0 (Background)
//Storyboard Layer 1 (Fail)
//Storyboard Layer 2 (Pass)
//Storyboard Layer 3 (Foreground)
//Storyboard Layer 4 (Overlay)
//Storyboard Sound Samples

[TimingPoints]
360,324.324324324324,4,2,1,63,1,0
522,-125,4,2,1,45,0,0
21116,-111.111111111111,4,2,1,55,0,0
30116,-100,4,2,1,60,0,0
52251,-83.3333333333333,4,2,1,65,0,0
72116,-100,4,2,1,50,0,0
72197,-100,4,2,1,65,0,0
83387,-100,4,2,1,63,0,0
83468,-125,4,2,1,50,0,0
91089,-100,4,2,1,50,0,0
91170,-100,4,2,1,55,0,0
93765,-100,4,2,1,65,0,1
114035,-125,4,2,1,65,0,1
114522,-100,4,2,1,70,0,0
114603,-125,4,2,1,50,0,0
117116,-133.333333333333,4,2,1,50,0,0
117765,-142.857142857143,4,2,1,50,0,0
118251,-153.846153846154,4,2,1,50,0,0
118738,-166.666666666667,4,2,1,50,0,0
119224,-200,4,2,1,50,0,0
121008,-100,4,2,1,50,0,0

[Colours]
Combo1 : 0,128,192
Combo2 : 128,128,255
Combo3 : 0,0,255
Combo4 : 128,255,255

[HitObjects]
96,64,360,5,4,0:3:0:0:
248,104,522,5,2,0:0:0:0:
336,92,684,1,0,0:0:0:0:
424,80,846,1,0,0:0:0:0:
392,220,1008,5,2,0:0:0:0:
304,208,1170,1,0,0:0:0:0:
216,196,1332,1,0,0:0:0:0:
172,328,1495,5,2,0:0:0:0:
240,384,1657,1,0,0:0:0:0:
256,296,1819,1,0,0:0:0:0:
96,240,1981,6,0,L|4:252,2,80,2|0|0,0:0|0:0|0:0,0:0:0:0:
256,296,2468,2,0,L|348:308,2,80,2|0|2,0:0|0:0|0:0,0:0:0:0:
144,140,2954,5,0,0:0:0:0:
280,56,3116,6,0,P|316:56|372:92,1,80,2|0,0:0|0:0,0:0:0:0:
396,152,3441,1,0,0:0:0:0:
175,206,3603,6,0,P|147:179|144:140,1,80,2|0,0:0|0:0,0:0:0:0:
188,64,3927,1,0,0:0:0:0:
312,224,4089,6,0,P|320:264|284:320,1,80,2|0,0:0|0:0,0:0:0:0:
232,344,4414,1,0,0:0:0:0:
268,140,4576,5,2,0:0:0:0:
356,124,4738,1,0,0:0:0:0:
444,108,4900,1,0,0:0:0:0:
312,224,5062,5,2,0:0:0:0:
400,208,5224,1,0,0:0:0:0:
268,324,5387,5,2,0:0:0:0:
356,308,5549,1,0,0:0:0:0:
180,212,5711,6,0,P|172:252|208:304,1,80,2|0,0:0|0:0,0:0:0:0:
268,324,6035,1,0,0:0:0:0:
75,310,6197,6,0,P|76:270|96:236,1,80,2|0,0:0|0:0,0:0:0:0:
180,212,6521,1,0,0:0:0:0:
268,324,6684,6,0,L|356:328,1,80,2|0,0:0|0:0,0:0:0:0:
436,332,7008,1,0,0:0:0:0:
496,192,7170,5,2,0:0:0:0:
408,200,7332,1,0,0:0:0:0:
320,208,7495,1,0,0:0:0:0:
496,192,7657,5,2,0:0:0:0:
356,128,7819,1,0,0:0:0:0:
460,272,7981,1,2,0:0:0:0:
408,200,8143,5,0,0:0:0:0:
484,24,8305,6,0,L|492:120,1,80,2|0,0:0|0:0,0:0:0:0:
356,128,8630,1,0,0:0:0:0:
112,128,8792,6,0,L|104:224,1,80,2|0,0:0|0:0,0:0:0:0:
240,232,9117,1,0,0:0:0:0:
421,275,9278,6,0,P|424:236|408:200,1,80,2|0,0:0|0:0,0:0:0:0:
268,148,9603,1,0,0:0:0:0:
180,296,9765,6,0,P|176:344|192:380,1,80,2|0,0:0|0:0,0:0:0:0:
368,348,10089,1,0,0:0:0:0:
268,148,10251,5,2,0:0:0:0:
280,316,10414,1,0,0:0:0:0:
420,220,10576,1,2,0:0:0:0:
324,228,10738,5,4,0:3:0:0:
324,228,10900,1,2,0:0:0:0:
324,228,11387,1,2,0:0:0:0:
324,228,11873,1,2,0:0:0:0:
324,228,12359,1,2,0:0:0:0:
324,228,12684,2,0,L|332:136,1,80,0|2,0:0|0:0,0:0:0:0:
228,80,13008,2,0,L|232:180,1,80,0|2,0:0|0:0,0:0:0:0:
156,228,13332,5,0,0:0:0:0:
156,228,13495,1,2,0:0:0:0:
128,28,13981,1,2,0:0:0:0:
328,296,14468,1,2,0:0:0:0:
472,64,14954,1,2,0:0:0:0:
260,144,15441,1,2,0:0:0:0:
416,208,15765,1,2,0:0:0:0:
388,64,15927,6,0,L|300:72,1,80,0|2,0:0|0:0,0:0:0:0:
196,220,16414,2,0,L|100:212,1,80,0|2,0:0|0:0,0:0:0:0:
360,312,16900,2,0,L|264:324,1,80,0|2,0:0|0:0,0:0:0:0:
452,192,17387,2,0,L|352:180,1,80,0|2,0:0|0:0,0:0:0:0:
292,88,17873,2,0,L|188:96,1,80,0|2,0:0|0:0,0:0:0:0:
176,204,18197,2,0,L|76:192,1,80,0|2,0:0|0:0,0:0:0:0:
244,312,18522,5,0,0:0:0:0:
244,312,18684,1,2,0:0:0:0:
244,312,18846,1,0,0:0:0:0:
344,188,19008,2,0,L|348:292,1,80,0|2,0:0|0:0,0:0:0:0:
444,320,19332,1,0,0:0:0:0:
500,176,19495,2,0,P|504:136|472:80,1,80,0|2,0:0|0:0,0:0:0:0:
220,20,19819,2,0,P|200:68|216:112,1,80
344,188,20143,5,2,0:0:0:0:
344,188,20224,1,0,0:0:0:0:
344,188,20305,1,0,0:0:0:0:
344,188,20387,1,0,0:0:0:0:
344,188,20468,1,0,0:0:0:0:
344,188,20549,1,0,0:0:0:0:
344,188,20630,1,2,0:0:0:0:
344,188,20712,1,0,0:0:0:0:
344,188,20792,1,0,0:0:0:0:
344,188,20873,1,0,0:0:0:0:
344,188,20954,1,2,0:0:0:0:
344,188,21036,1,0,0:0:0:0:
344,188,21116,6,0,L|232:192,1,89.9999972534181,4|0,0:0|0:0,0:0:0:0:
120,304,21441,1,8,0:0:0:0:
232,284,21603,1,0,0:0:0:0:
232,284,21684,2,0,P|252:220|208:140,1,134.999995880127,0|0,0:0|1:0,0:0:0:0:
424,256,22089,1,8,0:0:0:0:
376,28,22251,5,0,0:0:0:0:
376,28,22332,1,0,0:0:0:0:
376,28,22414,1,0,1:0:0:0:
344,188,22576,1,0,0:0:0:0:
496,136,22738,1,8,0:0:0:0:
308,96,22900,2,0,L|236:88,1,44.999998626709,0|8,0:0|0:0,0:0:0:0:
188,56,23062,6,0,P|180:104|212:152,1,89.9999972534181,0|2,1:0|0:0,0:0:0:0:
440,372,23387,2,0,P|458:331|449:288,1,89.9999972534181,8|0,0:0|0:0,0:0:0:0:
344,188,23711,5,0,0:0:0:0:
196,292,23873,2,0,L|200:408,1,89.9999972534181,0|8,0:0|0:0,0:0:0:0:
72,164,24197,1,0,0:0:0:0:
72,164,24278,1,0,0:0:0:0:
72,164,24359,6,0,L|68:60,1,89.9999972534181,0|0,1:0|1:0,0:0:0:0:
160,36,24684,1,8,0:0:0:0:
224,264,24846,6,0,L|248:392,1,89.9999972534181
336,376,25170,1,0,0:0:0:0:
376,192,25332,6,0,P|340:180|280:200,1,89.9999972534181,8|0,0:0|0:0,0:0:0:0:
224,264,25576,1,8,0:0:0:0:
224,264,25657,1,0,1:0:0:0:
40,212,25819,5,2,0:0:0:0:
248,160,25981,1,10,0:0:0:0:
16,108,26143,1,2,0:0:0:0:
144,36,26305,5,0,0:0:0:0:
140,128,26468,1,0,0:0:0:0:
136,220,26630,1,8,0:0:0:0:
268,384,26792,1,0,0:0:0:0:
264,292,26955,1,0,1:0:0:0:
260,200,27117,1,0,1:0:0:0:
360,40,27278,1,8,0:0:0:0:
376,128,27441,1,0,0:0:0:0:
376,128,27522,1,0,0:0:0:0:
376,128,27603,1,0,0:0:0:0:
392,216,27765,1,0,0:0:0:0:
260,200,27927,2,0,L|268:92,1,89.9999972534181,8|0,0:0|0:0,0:0:0:0:
392,216,28251,5,0,1:0:0:0:
168,232,28414,1,2,0:0:0:0:
360,320,28576,1,10,0:0:0:0:
200,128,28739,1,2,0:0:0:0:
332,112,28900,6,0,L|340:67,1,44.999998626709
510,100,29062,2,0,L|420:100,1,89.9999972534181,0|8,0:0|0:0,0:0:0:0:
268,296,29387,6,0,L|276:340,1,44.999998626709
446,308,29549,2,0,L|356:308,1,89.9999972534181,0|0,1:0|1:0,0:0:0:0:
116,144,29873,6,0,L|124:99,1,44.999998626709,8|0,0:0|0:0,0:0:0:0:
204,132,30035,1,0,0:0:0:0:
106,350,30197,6,0,P|90:350|26:326,1,50,8|8,0:0|0:0,0:0:0:0:
126,258,30359,2,0,P|113:247|80:188,1,50,10|8,0:0|0:0,0:0:0:0:
200,200,30522,2,0,P|197:184|209:117,1,50,10|8,0:0|0:0,0:0:0:0:
294,203,30684,2,0,P|302:189|354:145,1,50,2|0,1:0|0:0,0:0:0:0:
364,266,30847,2,0,P|379:260|447:261,1,50,0|0,1:0|0:0,0:0:0:0:
378,359,31008,2,0,P|393:364|444:408,1,50,2|0,1:0|0:0,0:0:0:0:
254,379,31170,2,0,L|248:280,1,100,8|2,0:0|0:0,0:0:0:0:
356,72,31495,5,4,0:0:0:0:
448,172,31657,1,0,0:0:0:0:
272,200,31819,2,0,L|160:188,1,100,8|0,0:0|0:0,0:0:0:0:
92,212,32062,1,0,0:0:0:0:
92,212,32143,2,0,P|72:256|100:328,1,100,0|2,1:0|0:0,0:0:0:0:
367,279,32468,5,8,0:0:0:0:
176,152,32630,1,0,0:0:0:0:
176,152,32711,1,0,0:0:0:0:
176,152,32792,2,0,L|164:48,1,100,0|2,1:0|0:0,0:0:0:0:
376,180,33116,2,0,L|364:316,1,100,8|0,0:0|1:0,0:0:0:0:
296,324,33359,2,0,P|256:332|184:304,1,100,8|0,0:0|0:0,0:0:0:0:
144,248,33603,2,0,L|16:260,2,100,2|8|0,0:0|0:0|0:0,0:0:0:0:
376,180,34089,5,0,1:0:0:0:
176,152,34251,1,0,0:0:0:0:
304,232,34414,1,8,0:0:0:0:
356,28,34576,5,0,0:0:0:0:
140,64,34738,1,0,1:0:0:0:
408,100,34900,2,0,P|436:64|436:4,1,100,2|8,0:0|0:0,0:0:0:0:
140,64,35224,5,0,0:0:0:0:
132,92,35305,1,0,0:0:0:0:
124,120,35387,2,0,L|128:248,1,100,0|2,1:0|0:0,0:0:0:0:
216,288,35711,1,8,0:0:0:0:
352,180,35873,5,0,1:0:0:0:
352,180,35954,2,0,L|360:116,1,50,8|0,0:0|1:0,0:0:0:0:
464,80,36197,1,2,0:0:0:0:
496,264,36359,2,0,P|504:312|476:360,1,100,10|2,0:0|0:0,0:0:0:0:
316,292,36684,5,0,1:0:0:0:
280,116,36846,1,0,0:0:0:0:
452,172,37008,1,8,0:0:0:0:
216,300,37170,5,0,0:0:0:0:
180,124,37332,1,0,1:0:0:0:
352,180,37494,1,2,0:0:0:0:
144,220,37657,6,0,L|24:216,1,100,8|0,0:0|0:0,0:0:0:0:
44,216,37900,1,0,0:0:0:0:
44,216,37981,1,0,1:0:0:0:
216,300,38143,1,2,0:0:0:0:
180,124,38305,1,8,0:0:0:0:
304,264,38468,6,0,L|353:267,1,50,0|8,1:0|0:0,0:0:0:0:
279,120,38630,2,0,L|180:124,1,100,0|2,1:0|0:0,0:0:0:0:
144,220,38954,1,8,0:0:0:0:
216,28,39116,1,0,0:0:0:0:
180,124,39278,6,0,L|200:256,1,100,0|0,1:0|0:0,0:0:0:0:
296,344,39603,2,0,P|360:356|456:300,1,150,8|0,0:0|0:0,0:0:0:0:
452,284,39927,2,0,L|440:404,2,100,0|2|8,1:0|0:0|0:0,0:0:0:0:
328,164,40414,5,0,0:0:0:0:
324,136,40495,1,0,0:0:0:0:
320,108,40576,1,0,1:0:0:0:
416,192,40738,1,2,0:0:0:0:
256,260,40900,1,8,0:0:0:0:
216,88,41062,5,0,1:0:0:0:
228,60,41143,1,8,0:0:0:0:
240,32,41224,1,0,1:0:0:0:
360,264,41387,1,2,0:0:0:0:
364,20,41549,1,10,0:0:0:0:
180,188,41711,1,2,0:0:0:0:
320,108,41873,6,0,L|440:104,1,100,4|0,0:0|0:0,0:0:0:0:
296,340,42197,2,0,P|256:348|168:308,1,100,8|0,0:0|0:0,0:0:0:0:
152,264,42441,2,0,L|144:92,1,150,0|2,0:0|0:0,0:0:0:0:
144,80,42765,1,0,0:0:0:0:
144,80,42846,6,0,L|248:76,1,100,8|0,0:0|0:0,0:0:0:0:
424,188,43170,1,0,1:0:0:0:
396,180,43251,1,0,0:0:0:0:
368,172,43332,1,2,0:0:0:0:
256,168,43495,1,8,0:0:0:0:
324,264,43657,1,0,1:0:0:0:
296,272,43738,1,8,0:0:0:0:
268,280,43819,1,0,1:0:0:0:
152,264,43982,1,2,0:0:0:0:
246,68,44143,6,0,L|256:168,1,100,8|0,0:0|0:0,0:0:0:0:
412,304,44468,1,0,1:0:0:0:
504,208,44630,2,0,P|512:156|464:92,1,100,0|8,0:0|0:0,0:0:0:0:
276,244,44954,2,0,L|216:240,1,50
176,116,45116,2,0,P|168:164|204:224,1,100,0|2,1:0|0:0,0:0:0:0:
336,344,45441,5,8,0:0:0:0:
372,132,45603,1,0,0:0:0:0:
196,216,45765,2,0,L|212:336,1,100,0|2,1:0|0:0,0:0:0:0:
412,292,46089,1,8,0:0:0:0:
372,132,46251,5,0,1:0:0:0:
372,132,46332,2,0,L|300:136,1,50,8|0,0:0|1:0,0:0:0:0:
196,216,46495,1,0,0:0:0:0:
196,216,46576,2,0,L|64:204,2,100,2|10|2,0:0|0:0|0:0,0:0:0:0:
372,132,47062,6,0,L|488:120,2,100,4|0|8,0:0|0:0|0:0,0:0:0:0:
256,288,47549,2,0,L|248:364,2,50,0|0|0,0:0|0:0|1:0,0:0:0:0:
280,144,47873,1,2,0:0:0:0:
388,232,48035,1,8,0:0:0:0:
312,60,48197,5,0,0:0:0:0:
272,56,48278,1,0,0:0:0:0:
232,64,48359,1,0,1:0:0:0:
168,224,48522,1,2,0:0:0:0:
376,132,48684,2,0,P|404:92|400:20,1,100,8|0,0:0|1:0,0:0:0:0:
407,42,48927,1,8,0:0:0:0:
407,42,49008,1,0,1:0:0:0:
504,160,49170,1,2,0:0:0:0:
388,232,49332,2,0,P|336:228|280:176,1,100,8|0,0:0|0:0,0:0:0:0:
128,56,49657,5,0,1:0:0:0:
168,224,49819,1,0,0:0:0:0:
148,88,49981,1,8,0:0:0:0:
296,184,50143,5,0,0:0:0:0:
256,352,50305,1,0,1:0:0:0:
276,216,50467,1,2,0:0:0:0:
68,136,50630,5,8,0:0:0:0:
108,304,50792,1,0,0:0:0:0:
88,168,50954,1,0,1:0:0:0:
324,292,51116,5,2,0:0:0:0:
363,294,51197,1,0,0:0:0:0:
402,284,51278,1,8,0:0:0:0:
436,264,51359,1,0,0:0:0:0:
463,235,51440,1,0,1:0:0:0:
481,199,51521,1,8,0:0:0:0:
487,159,51602,1,0,1:0:0:0:
482,120,51683,1,0,0:0:0:0:
466,83,51764,1,2,0:0:0:0:
440,53,51845,1,0,0:0:0:0:
407,32,51926,1,10,0:0:0:0:
368,21,52007,1,0,0:0:0:0:
328,21,52088,1,0,1:0:0:0:
290,33,52170,1,0,1:0:0:0:
257,56,52251,6,0,L|108:48,1,119.999996337891,4|0,0:0|0:0,0:0:0:0:
48,100,52495,2,0,P|24:152|60:224,1,119.999996337891
116,280,52738,2,0,L|256:264,1,119.999996337891,0|0,0:0|1:0,0:0:0:0:
312,224,52981,6,0,L|320:144,2,59.9999981689454,0|2|0,0:0|0:0|0:0,0:0:0:0:
376,292,53224,2,0,L|380:372,1,59.9999981689454,8|0,0:0|0:0,0:0:0:0:
464,252,53387,2,0,L|460:328,1,59.9999981689454
432,164,53549,6,0,P|416:112|440:48,1,119.999996337891,0|2,1:0|0:0,0:0:0:0:
340,36,53792,2,0,P|300:68|216:56,1,119.999996337891
160,32,54035,2,0,L|32:60,1,119.999996337891,2|0,0:0|1:0,0:0:0:0:
12,136,54278,1,0,0:0:0:0:
12,136,54359,6,0,P|8:168|36:216,1,59.9999981689454,2|0,0:0|0:0,0:0:0:0:
88,252,54522,2,0,L|168:248,1,59.9999981689454,10|0,0:0|0:0,0:0:0:0:
224,200,54684,2,0,L|300:212,1,59.9999981689454
336,280,54846,6,0,L|456:272,1,119.999996337891,0|0,1:0|0:0,0:0:0:0:
496,196,55089,1,0,0:0:0:0:
500,160,55170,1,8,0:0:0:0:
492,124,55251,1,0,0:0:0:0:
472,92,55332,1,0,0:0:0:0:
444,68,55414,1,0,0:0:0:0:
412,56,55495,6,0,L|312:60,1,59.9999981689454,0|0,1:0|0:0,0:0:0:0:
268,108,55657,2,0,P|260:144|276:192,1,59.9999981689454,2|0,0:0|0:0,0:0:0:0:
352,196,55819,2,0,P|360:224|336:292,1,59.9999981689454,8|0,0:0|0:0,0:0:0:0:
284,304,55981,2,0,L|208:292,1,59.9999981689454
144,332,56143,6,0,L|52:344,1,59.9999981689454,0|0,1:0|0:0,0:0:0:0:
32,240,56305,2,0,L|124:252,1,59.9999981689454,2|0,0:0|0:0,0:0:0:0:
176,200,56468,6,0,P|180:168|144:104,1,59.9999981689454,8|0,0:0|0:0,0:0:0:0:
92,80,56630,2,0,P|88:112|124:176,1,59.9999981689454,0|8,1:0|0:0,0:0:0:0:
244,96,56792,6,0,L|320:92,1,59.9999981689454,0|0,1:0|0:0,0:0:0:0:
392,112,56954,2,0,L|468:116,1,59.9999981689454,2|0,0:0|0:0,0:0:0:0:
444,224,57116,2,0,L|368:220,1,59.9999981689454,10|0,0:0|0:0,0:0:0:0:
280,236,57278,2,0,L|204:240,1,59.9999981689454,2|0,0:0|0:0,0:0:0:0:
180,148,57441,6,0,P|160:88|196:24,1,119.999996337891,4|0,0:0|0:0,0:0:0:0:
244,96,57684,1,0,0:0:0:0:
244,96,57765,6,0,L|228:192,1,59.9999981689454,8|0,0:0|0:0,0:0:0:0:
286,295,57927,2,0,L|280:236,1,59.9999981689454
348,104,58089,2,0,L|332:200,1,59.9999981689454,0|0,1:0|0:0,0:0:0:0:
390,303,58251,2,0,L|383:243,1,59.9999981689454,2|0,0:0|0:0,0:0:0:0:
452,112,58414,2,0,L|436:208,1,59.9999981689454,8|0,0:0|0:0,0:0:0:0:
494,311,58576,2,0,L|487:251,1,59.9999981689454
396,200,58738,6,0,L|248:196,1,119.999996337891,0|2,1:0|0:0,0:0:0:0:
208,248,58981,1,0,0:0:0:0:
200,284,59062,2,0,P|200:316|224:360,1,59.9999981689454,8|0,0:0|0:0,0:0:0:0:
116,240,59224,2,0,L|112:164,1,59.9999981689454,2|0,0:0|0:0,0:0:0:0:
184,92,59387,5,0,1:0:0:0:
216,80,59468,1,0,0:0:0:0:
252,76,59549,1,2,0:0:0:0:
288,80,59630,1,0,0:0:0:0:
320,96,59711,2,0,L|416:76,1,59.9999981689454,10|0,0:0|0:0,0:0:0:0:
372,200,59873,2,0,L|469:214,1,59.9999981689454
385,315,60035,6,0,P|344:356|256:340,1,119.999996337891,0|0,1:0|0:0,0:0:0:0:
196,324,60278,2,0,L|88:332,2,59.9999981689454,0|8|0,0:0|0:0|0:0,0:0:0:0:
256,248,60522,2,0,P|264:216|252:168,1,59.9999981689454
184,136,60684,6,0,L|88:144,1,59.9999981689454,0|0,1:0|0:0,0:0:0:0:
320,96,60846,2,0,L|412:124,1,59.9999981689454,2|0,0:0|0:0,0:0:0:0:
172,220,61008,2,0,L|76:228,1,59.9999981689454,8|0,0:0|0:0,0:0:0:0:
340,184,61170,2,0,L|432:212,1,59.9999981689454
262,307,61332,6,0,L|256:188,1,119.999996337891,0|2,1:0|0:0,0:0:0:0:
260,108,61576,1,0,0:0:0:0:
264,72,61657,2,0,L|268:12,3,59.9999981689454,8|0|0|8,0:0|0:0|1:0|0:0,0:0:0:0:
372,32,61981,6,0,P|396:24|452:32,1,59.9999981689454,0|0,1:0|0:0,0:0:0:0:
412,124,62143,2,0,P|435:133|473:175,1,59.9999981689454,2|0,0:0|0:0,0:0:0:0:
383,220,62305,2,0,P|395:242|396:298,1,59.9999981689454,10|0,0:0|0:0,0:0:0:0:
300,274,62468,2,0,P|294:298|260:343,1,59.9999981689454,2|0,0:0|0:0,0:0:0:0:
201,262,62630,6,0,P|152:296|80:280,1,119.999996337891,4|0,0:0|0:0,0:0:0:0:
32,224,62873,1,0,0:0:0:0:
32,224,62954,2,0,P|72:188|60:96,1,119.999996337891,8|0,0:0|0:0,0:0:0:0:
32,48,63197,1,0,0:0:0:0:
32,48,63278,2,0,L|128:36,1,59.9999981689454,0|0,1:0|0:0,0:0:0:0:
168,80,63441,5,2,0:0:0:0:
200,92,63522,1,0,0:0:0:0:
232,104,63603,2,0,L|312:120,1,59.9999981689454,8|0,0:0|0:0,0:0:0:0:
364,68,63765,5,0,0:0:0:0:
400,56,63846,1,0,0:0:0:0:
436,44,63927,2,0,P|472:96|436:168,1,119.999996337891,0|2,1:0|0:0,0:0:0:0:
376,200,64170,1,0,0:0:0:0:
376,200,64251,2,0,L|248:196,1,119.999996337891,8|2,0:0|0:0,0:0:0:0:
172,224,64495,1,0,0:0:0:0:
172,224,64576,6,0,P|168:256|188:300,1,59.9999981689454,0|0,1:0|0:0,0:0:0:0:
256,364,64738,2,0,P|263:335|259:305,1,59.9999981689454,2|0,0:0|0:0,0:0:0:0:
124,152,64900,2,0,L|48:148,1,59.9999981689454,10|0,0:0|0:0,0:0:0:0:
264,272,65062,2,0,L|348:272,1,59.9999981689454
444,252,65224,6,0,P|460:196|420:124,1,119.999996337891,0|0,1:0|0:0,0:0:0:0:
376,200,65468,2,0,L|312:192,1,59.9999981689454,0|8,0:0|0:0,0:0:0:0:
264,116,65630,1,0,0:0:0:0:
264,116,65711,2,0,L|264:40,1,59.9999981689454
200,184,65873,6,0,P|180:192|112:184,1,59.9999981689454,0|0,1:0|0:0,0:0:0:0:
56,176,66035,2,0,P|52:208|68:248,1,59.9999981689454,2|0,0:0|0:0,0:0:0:0:
136,368,66197,2,0,L|130:308,1,59.9999981689454,8|0,0:0|0:0,0:0:0:0:
224,264,66359,2,0,L|212:360,1,59.9999981689454
284,376,66522,6,0,L|408:376,1,119.999996337891,0|2,1:0|0:0,0:0:0:0:
480,352,66765,1,0,0:0:0:0:
500,324,66846,1,8,0:0:0:0:
504,288,66927,1,0,0:0:0:0:
492,252,67008,1,0,1:0:0:0:
468,224,67089,1,8,0:0:0:0:
436,208,67170,1,0,1:0:0:0:
400,200,67251,1,0,0:0:0:0:
364,200,67332,6,0,P|344:176|344:124,1,59.9999981689454,2|0,0:0|0:0,0:0:0:0:
344,60,67495,2,0,P|352:36|384:8,1,59.9999981689454,10|0,0:0|0:0,0:0:0:0:
464,12,67657,2,0,P|484:36|484:108,1,59.9999981689454,2|0,0:0|0:0,0:0:0:0:
420,124,67819,6,0,L|256:128,1,119.999996337891,4|0,0:0|0:0,0:0:0:0:
216,120,68062,1,0,0:0:0:0:
216,120,68143,2,0,L|224:196,1,59.9999981689454,8|0,0:0|0:0,0:0:0:0:
112,60,68305,2,0,L|136:136,1,59.9999981689454
69,233,68468,6,0,P|59:205|64:176,1,59.9999981689454,0|0,1:0|0:0,0:0:0:0:
144,284,68630,2,0,P|148:312|124:364,1,59.9999981689454,2|0,0:0|0:0,0:0:0:0:
279,245,68792,6,0,L|220:240,1,59.9999981689454,8|0,0:0|0:0,0:0:0:0:
407,291,68954,2,0,L|348:300,1,59.9999981689454
480,232,69116,5,0,1:0:0:0:
496,200,69197,1,0,0:0:0:0:
501,164,69278,1,2,0:0:0:0:
495,129,69359,1,0,0:0:0:0:
477,98,69440,1,8,0:0:0:0:
449,75,69521,1,0,0:0:0:0:
416,62,69602,1,2,0:0:0:0:
380,60,69683,1,0,0:0:0:0:
346,71,69765,6,0,P|336:96|352:148,1,59.9999981689454,0|0,1:0|0:0,0:0:0:0:
216,108,69927,2,0,P|217:134|184:178,1,59.9999981689454,2|0,0:0|0:0,0:0:0:0:
368,208,70089,2,0,P|375:233|421:263,1,59.9999981689454,10|0,0:0|0:0,0:0:0:0:
149,229,70251,2,0,P|132:250|79:262,1,59.9999981689454
328,368,70414,6,0,L|324:296,1,59.9999981689454,4|0,0:0|0:0,0:0:0:0:
248,192,70576,2,0,L|236:272,1,59.9999981689454
424,296,70738,6,0,P|456:300|512:268,1,59.9999981689454,8|0,0:0|0:0,0:0:0:0:
496,132,70900,2,0,P|467:124|437:128,1,59.9999981689454
320,256,71062,2,0,P|352:260|408:228,1,59.9999981689454,0|0,1:0|0:0,0:0:0:0:
364,96,71224,2,0,P|335:88|305:92,1,59.9999981689454,2|0,0:0|0:0,0:0:0:0:
236,280,71387,6,0,L|252:356,1,59.9999981689454,8|0,0:0|0:0,0:0:0:0:
88,372,71549,2,0,L|96:304,1,59.9999981689454
224,200,71711,2,0,L|240:276,1,59.9999981689454,4|0,0:0|0:0,0:0:0:0:
76,292,71873,2,0,L|84:224,1,59.9999981689454,2|0,0:0|0:0,0:0:0:0:
154,173,72035,5,8,0:0:0:0:
116,161,72116,1,0,0:0:0:0:
154,145,72197,1,0,1:0:0:0:
116,133,72278,1,8,0:0:0:0:
154,117,72359,1,0,1:0:0:0:
116,105,72441,1,0,1:0:0:0:
154,89,72522,1,0,1:0:0:0:
116,77,72603,1,0,1:0:0:0:
154,61,72684,1,10,0:0:0:0:
116,49,72766,1,8,0:0:0:0:
154,33,72846,1,10,0:0:0:0:
116,21,72927,1,8,0:0:0:0:
154,5,73008,1,4,0:0:0:0:
80,64,83387,5,4,0:3:0:0:
64,152,83549,1,2,0:0:0:0:
196,136,84035,1,2,0:0:0:0:
328,120,84522,1,2,0:0:0:0:
460,104,85008,1,2,0:0:0:0:
408,192,85495,2,0,L|424:360,1,160,2|2,0:0|0:0,0:0:0:0:
423,351,85981,5,0,0:0:0:0:
423,351,86143,1,2,0:0:0:0:
408,192,86630,1,2,0:0:0:0:
336,316,87116,1,2,0:0:0:0:
320,156,87603,1,2,0:0:0:0:
248,280,88089,1,2,0:0:0:0:
232,120,88414,1,2,0:0:0:0:
164,188,88576,6,0,L|64:192,1,80,0|2,0:0|0:0,0:0:0:0:
233,44,89062,2,0,P|244:82|232:120,1,80,0|2,0:0|0:0,0:0:0:0:
206,350,89549,2,0,P|199:310|208:272,1,80,0|2,0:0|0:0,0:0:0:0:
371,224,90035,2,0,L|292:228,1,80,0|2,0:0|0:0,0:0:0:0:
436,152,90522,2,0,P|444:116|416:56,1,80,0|2,0:0|0:0,0:0:0:0:
440,292,90846,2,0,P|432:328|448:376,1,80,0|2,0:0|0:0,0:0:0:0:
372,224,91170,5,4,0:0:0:0:
372,224,91251,1,8,0:0:0:0:
372,224,91332,1,8,0:0:0:0:
372,224,91414,1,8,0:0:0:0:
372,224,91495,1,10,0:0:0:0:
372,224,91576,1,8,0:0:0:0:
312,276,91657,5,8,0:0:0:0:
284,272,91738,1,8,0:0:0:0:
256,268,91819,1,10,0:0:0:0:
228,264,91900,1,8,0:0:0:0:
180,200,91981,5,8,0:0:0:0:
152,204,92062,1,8,0:0:0:0:
124,208,92143,1,10,0:0:0:0:
96,212,92224,1,8,0:0:0:0:
56,280,92305,5,10,0:0:0:0:
28,276,92386,1,8,0:0:0:0:
0,272,92468,2,0,L|88:272,1,50,0|0,1:0|0:0,0:0:0:0:
152,204,92630,2,0,L|216:220,1,50,0|0,1:0|0:0,0:0:0:0:
312,276,92792,1,10,0:0:0:0:
460,160,92954,6,0,L|456:88,1,50,0|0,1:0|0:0,0:0:0:0:
456,68,93116,1,0,1:0:0:0:
388,220,93278,1,10,0:0:0:0:
308,52,93441,1,0,1:0:0:0:
240,236,93603,1,0,1:0:0:0:
304,152,93765,5,4,0:0:0:0:
336,296,93927,1,0,0:0:0:0:
208,370,94089,1,8,0:0:0:0:
98,272,94251,1,0,0:0:0:0:
158,137,94414,1,0,1:0:0:0:
240,236,94576,2,0,L|232:364,1,100,2|8,0:0|0:0,0:0:0:0:
368,310,94900,5,0,0:0:0:0:
478,212,95062,1,0,1:0:0:0:
418,77,95225,1,2,0:0:0:0:
272,92,95387,1,8,0:0:0:0:
240,236,95549,1,2,0:0:0:0:
252,264,95630,1,0,0:0:0:0:
264,292,95711,1,0,1:0:0:0:
357,212,95873,5,2,0:0:0:0:
159,145,96035,1,10,0:0:0:0:
201,349,96197,1,0,0:0:0:0:
240,236,96359,5,0,1:0:0:0:
42,169,96522,1,0,0:0:0:0:
84,373,96684,1,8,0:0:0:0:
159,145,96846,1,0,0:0:0:0:
201,349,97008,1,0,1:0:0:0:
339,239,97170,6,0,L|240:236,1,100,2|8,0:0|0:0,0:0:0:0:
440,320,97495,2,0,L|372:324,1,50
500,236,97657,5,4,0:0:0:0:
368,152,97819,1,2,0:0:0:0:
496,152,97981,1,8,0:0:0:0:
360,68,98143,2,0,L|372:4,1,50,2|0,0:0|0:0,0:0:0:0:
288,116,98305,6,0,P|280:168|332:232,1,100,4|2,0:0|0:0,0:0:0:0:
160,44,98630,2,0,L|168:176,1,100,10|2,0:0|0:0,0:0:0:0:
88,304,98954,6,0,P|76:280|80:228,1,50,4|0,0:0|0:0,0:0:0:0:
136,192,99116,1,0,0:0:0:0:
228,336,99278,1,8,0:0:0:0:
44,384,99441,1,0,0:0:0:0:
44,384,99522,1,0,0:0:0:0:
44,384,99603,2,0,L|36:268,1,100,0|2,1:0|0:0,0:0:0:0:
224,236,99927,5,8,0:0:0:0:
368,300,100089,1,0,0:0:0:0:
408,308,100170,1,0,0:0:0:0:
448,316,100251,1,0,1:0:0:0:
504,176,100414,1,2,0:0:0:0:
388,79,100576,1,8,0:0:0:0:
259,160,100738,6,0,P|180:196|100:160,1,150,2|0,0:0|0:0,0:0:0:0:
72,112,101062,2,0,L|84:232,2,100,2|10|0,0:0|0:0|0:0,0:0:0:0:
164,52,101549,5,0,1:0:0:0:
256,112,101711,1,0,0:0:0:0:
344,44,101873,1,8,0:0:0:0:
428,116,102035,1,0,0:0:0:0:
428,116,102116,1,0,0:0:0:0:
428,116,102197,5,0,1:0:0:0:
320,204,102359,1,2,0:0:0:0:
444,272,102522,1,8,0:0:0:0:
324,344,102684,1,0,0:0:0:0:
416,178,102846,5,0,1:0:0:0:
420,360,103008,1,2,0:0:0:0:
260,272,103171,1,8,0:0:0:0:
364,272,103332,5,2,0:0:0:0:
364,272,103414,1,0,0:0:0:0:
364,272,103495,1,0,1:0:0:0:
192,356,103657,1,2,0:0:0:0:
108,184,103819,1,10,0:0:0:0:
280,100,103981,1,2,0:0:0:0:
260,272,104143,5,4,0:0:0:0:
184,128,104305,1,0,0:0:0:0:
356,212,104467,1,8,0:0:0:0:
272,384,104629,1,0,0:0:0:0:
100,300,104791,1,0,1:0:0:0:
260,272,104954,2,0,L|376:276,1,100,2|8,0:0|0:0,0:0:0:0:
507,123,105278,5,0,0:0:0:0:
356,33,105441,1,0,1:0:0:0:
356,212,105603,1,2,0:0:0:0:
507,123,105765,1,8,0:0:0:0:
407,123,105927,1,2,0:0:0:0:
407,123,106008,1,0,0:0:0:0:
407,123,106089,2,0,L|280:120,1,100,0|2,1:0|0:0,0:0:0:0:
140,280,106414,2,0,L|267:277,1,100,10|0,0:0|0:0,0:0:0:0:
311,114,106738,5,0,1:0:0:0:
271,349,106900,1,0,0:0:0:0:
165,135,107062,1,8,0:0:0:0:
376,246,107224,1,0,0:0:0:0:
140,280,107387,1,0,1:0:0:0:
264,200,107549,6,0,L|392:212,1,100,2|8,0:0|0:0,0:0:0:0:
456,328,107873,2,0,L|448:256,1,50
468,96,108035,2,0,L|448:216,1,100,4|2,0:0|0:0,0:0:0:0:
464,360,108359,1,8,0:0:0:0:
352,152,108522,6,0,L|344:224,1,50,2|0,0:0|0:0,0:0:0:0:
364,384,108684,2,0,L|344:264,1,100,4|2,0:0|0:0,0:0:0:0:
360,120,109008,1,10,0:0:0:0:
332,292,109170,6,0,P|288:308|212:280,1,100,2|4,0:0|0:0,0:0:0:0:
108,196,109495,1,0,0:0:0:0:
228,64,109657,2,0,B|284:36|284:36|328:96|432:72,1,200,8|0,0:0|1:0,0:0:0:0:
512,252,110143,2,0,L|392:248,1,100,2|8,0:0|0:0,0:0:0:0:
220,284,110468,6,0,L|140:292,2,50,0|0|0,0:0|0:0|1:0,0:0:0:0:
376,216,110792,1,2,0:0:0:0:
192,172,110954,1,8,0:0:0:0:
404,104,111116,2,0,L|392:240,1,100,2|0,0:0|1:0,0:0:0:0:
164,60,111441,2,0,L|176:196,2,100,2|10|0,0:0|0:0|0:0,0:0:0:0:
296,24,111927,5,4,0:0:0:0:
288,180,112089,1,0,0:0:0:0:
300,52,112252,2,0,L|288:176,1,100,8|0,0:0|0:0,0:0:0:0:
260,260,112576,2,0,L|272:388,1,100,0|2,1:0|0:0,0:0:0:0:
360,256,112900,1,8,0:0:0:0:
168,220,113062,1,0,0:0:0:0:
271,371,113224,5,0,1:0:0:0:
258,334,113305,1,0,1:0:0:0:
256,294,113387,1,0,1:0:0:0:
260,260,113468,1,0,1:0:0:0:
274,228,113549,1,8,0:0:0:0:
287,201,113630,1,0,1:0:0:0:
293,171,113711,1,0,1:0:0:0:
289,146,113792,1,0,0:0:0:0:
278,123,113873,1,8,0:0:0:0:
265,107,113954,1,0,0:0:0:0:
249,94,114035,2,0,P|182:69|96:109,1,160,10|10,0:0|0:0,0:0:0:0:
48,216,114522,5,4,0:0:0:0:
48,216,114684,2,0,L|52:316,1,80,2|0,0:0|0:0,0:0:0:0:
108,364,115008,1,0,0:0:0:0:
192,200,115170,6,0,L|189:279,1,80,2|0,0:0|0:0,0:0:0:0:
172,112,115495,1,0,0:0:0:0:
336,148,115657,6,0,L|332:240,1,80,2|0,0:0|0:0,0:0:0:0:
296,308,115981,1,0,0:0:0:0:
472,212,116143,6,0,L|478:132,1,80,2|0,0:0|0:0,0:0:0:0:
448,296,116468,1,0,0:0:0:0:
296,308,116630,2,0,L|112:304,1,160,2|2,0:0|0:0,0:0:0:0:
28,312,117116,5,0,0:0:0:0:
112,304,117278,2,0,L|124:136,1,150.000005722046,2|0,0:0|0:0,0:0:0:0:
120,132,117765,2,0,L|264:140,1,139.999995727539,2|0,0:0|0:0,0:0:0:0:
276,152,118251,2,0,L|412:144,1,129.999994049073,2|0,0:0|0:0,0:0:0:0:
420,132,118738,2,0,L|420:268,1,119.999996337891,2|0,0:0|0:0,0:0:0:0:
420,268,119224,2,0,L|428:340,2,50,2|0|2,0:0|0:0|0:0,0:0:0:0:
364,52,119711,5,4,0:3:0:0:
256,192,119792,12,0,123603,0:0:0:0:
