osu file format v14

[General]
AudioFilename: 15 - THE LAST STRIKER.mp3
AudioLeadIn: 2000
PreviewTime: 93765
Countdown: 0
SampleSet: Soft
StackLeniency: 0.4
Mode: 0
LetterboxInBreaks: 1
WidescreenStoryboard: 1

[Editor]
Bookmarks: 71711,83387,114522,119711
DistanceSpacing: 1.6
BeatDivisor: 8
GridSize: 32
TimelineZoom: 1

[Metadata]
Title:THE LAST STRIKER
TitleUnicode:THE LAST STRIKER
Artist:L.E.D.
ArtistUnicode:L.E.D.
Creator:Kloyd
Version:PaRaDogi's Hard
Source:beatmania IIDX 17 SIRIUS
Tags:17 SIRIUS 15 TROOPERS CS LED Skystar Regou sionKotori milr_ PaRaDogi LeomineXD Electronic Instrumental
BeatmapID:2289116
BeatmapSetID:1085929

[Difficulty]
HPDrainRate:4
CircleSize:4
OverallDifficulty:7
ApproachRate:7.5
SliderMultiplier:1.4
SliderTickRate:1

[Events]
//Background and Video events
0,0,"wow.png",0,0
//Break Periods
2,73208,82562
//Storyboard Layer 0 (Background)
//Storyboard Layer 1 (Fail)
//Storyboard Layer 2 (Pass)
//Storyboard Layer 3 (Foreground)
//Storyboard Layer 4 (Overlay)
//Storyboard Sound Samples

[TimingPoints]
360,324.324324324324,4,2,1,50,1,0
10738,-133.333333333333,4,2,1,63,0,0
31495,-100,4,2,1,60,0,0
83387,-133.333333333333,4,2,1,63,0,0
93765,-100,4,2,1,65,0,1
114522,-133.333333333333,4,2,1,70,0,0
119711,-133.333333333333,4,2,1,65,0,0

[Colours]
Combo1 : 0,128,192
Combo2 : 128,128,255
Combo3 : 0,0,255
Combo4 : 128,255,255

[HitObjects]
67,47,10738,5,4,0:3:0:0:
67,47,10900,2,0,P|106:37|179:55,1,105.000004005432,2|0,0:0|0:0,0:0:0:0:
223,112,11387,2,0,B|230:138|230:138|214:220,1,105.000004005432,2|0,0:0|0:0,0:0:0:0:
296,266,11873,2,0,B|289:240|289:240|305:158,1,105.000004005432,2|0,0:0|0:0,0:0:0:0:
368,110,12359,2,0,P|407:100|480:118,1,105.000004005432,2|0,0:0|0:0,0:0:0:0:
512,186,12846,1,2,0:0:0:0:
512,186,13008,2,0,L|512:257,1,52.5000020027161,0|2,0:0|0:0,0:0:0:0:
464,312,13332,5,0,0:0:0:0:
464,312,13495,2,0,B|421:313|421:313|399:307|399:307|345:312,1,105.000004005432,2|0,0:0|0:0,0:0:0:0:
309,367,13981,2,0,B|266:368|266:368|244:362|244:362|190:367,1,105.000004005432,2|0,0:0|0:0,0:0:0:0:
145,323,14468,2,0,P|132:288|150:221,1,105.000004005432,2|0,0:0|0:0,0:0:0:0:
211,176,14954,2,0,P|224:211|206:278,1,105.000004005432,2|0,0:0|0:0,0:0:0:0:
145,323,15441,2,0,L|72:322,1,52.5000020027161,2|0,0:0|0:0,0:0:0:0:
20,341,15765,2,0,L|20:282,1,52.5000020027161,2|0,0:0|0:0,0:0:0:0:
67,229,16089,6,0,P|59:192|80:110,1,105.000004005432,2|0,0:0|0:0,0:0:0:0:
130,80,16576,2,0,P|167:72|249:93,1,105.000004005432,2|0,0:0|0:0,0:0:0:0:
275,142,17062,2,0,P|283:179|262:261,1,105.000004005432,2|0,0:0|0:0,0:0:0:0:
214,296,17549,2,0,P|177:304|95:283,1,105.000004005432,2|0,0:0|0:0,0:0:0:0:
67,229,18035,2,0,L|67:172,1,52.5000020027161,2|0,0:0|0:0,0:0:0:0:
130,132,18359,2,0,L|130:76,1,52.5000020027161,2|0,0:0|0:0,0:0:0:0:
191,29,18684,6,0,B|231:26|231:26|254:31|254:31|320:29,1,105.000004005432,2|0,0:0|0:0,0:0:0:0:
373,42,19170,2,0,B|354:78|354:78|339:96|339:96|308:153,1,105.000004005432,2|0,0:0|0:0,0:0:0:0:
271,196,19657,2,0,B|248:162|248:162|240:139|240:139|206:84,1,105.000004005432,2|0,0:0|0:0,0:0:0:0:
191,29,20143,6,0,B|231:26|231:26|254:31|254:31|320:29,1,105.000004005432,2|0,0:0|0:0,0:0:0:0:
374,44,20630,1,2,0:0:0:0:
374,44,20792,1,0,0:0:0:0:
416,109,20954,1,2,0:0:0:0:
416,109,21116,6,0,L|417:175,1,52.5000020027161,4|0,0:0|0:0,0:0:0:0:
358,211,21441,2,0,L|359:277,1,52.5000020027161,8|0,0:0|0:0,0:0:0:0:
391,341,21765,1,0,1:0:0:0:
391,341,21927,1,0,1:0:0:0:
324,381,22089,2,0,L|263:381,1,52.5000020027161,8|0,0:0|0:0,0:0:0:0:
211,340,22414,6,0,B|167:339|167:339|150:332|150:332|91:335,2,105.000004005432,0|8|0,1:0|0:0|1:0,0:0:0:0:
280,306,23224,1,2,0:0:0:0:
280,306,23387,1,8,0:0:0:0:
233,241,23549,1,0,0:0:0:0:
233,241,23711,6,0,L|233:183,1,52.5000020027161
288,138,24035,2,0,L|288:80,1,52.5000020027161,8|0,0:0|0:0,0:0:0:0:
245,27,24359,1,0,1:0:0:0:
245,27,24522,1,0,1:0:0:0:
184,70,24684,2,0,L|125:70,1,52.5000020027161,8|0,0:0|0:0,0:0:0:0:
69,109,25008,5,0,0:0:0:0:
69,109,25170,1,0,0:0:0:0:
117,171,25332,2,0,L|117:239,1,52.5000020027161,8|0,0:0|0:0,0:0:0:0:
183,254,25657,2,0,L|183:320,1,52.5000020027161,0|2,1:0|0:0,0:0:0:0:
204,381,25981,1,10,0:0:0:0:
204,381,26143,1,2,0:0:0:0:
260,333,26305,6,0,L|320:333,1,52.5000020027161
378,366,26630,2,0,L|438:366,1,52.5000020027161,8|0,0:0|0:0,0:0:0:0:
491,321,26954,1,0,1:0:0:0:
491,321,27116,1,0,1:0:0:0:
436,263,27278,2,0,L|436:205,1,52.5000020027161,8|0,0:0|0:0,0:0:0:0:
485,156,27603,6,0,L|485:98,1,52.5000020027161
442,44,27927,2,0,P|414:39|385:45,1,52.5000020027161,8|0,0:0|0:0,0:0:0:0:
327,84,28251,1,0,1:0:0:0:
327,84,28414,1,2,0:0:0:0:
266,39,28576,1,10,0:0:0:0:
266,39,28738,1,2,0:0:0:0:
207,83,28900,6,0,B|157:65|157:112|82:83,2,105.000004005432,0|8|0,0:0|0:0|1:0,0:0:0:0:
267,137,29711,1,0,1:0:0:0:
267,137,29873,2,0,L|267:200,1,52.5000020027161,8|0,0:0|0:0,0:0:0:0:
314,240,30197,6,0,L|313:279,4,26.2500010013581,8|0|0|10|0,0:0|0:0|0:0|0:0|0:0,0:0:0:0:
265,319,30684,1,2,1:0:0:0:
256,330,30765,1,0,0:0:0:0:
248,340,30846,2,0,L|173:340,1,52.5000020027161,0|2,1:0|1:0,0:0:0:0:
151,281,31170,2,0,L|68:281,1,78.7500030040742,8|0,0:0|0:0,0:0:0:0:
38,248,31495,6,0,P|34:212|53:160,1,70,4|0,0:0|0:0,0:0:0:0:
95,103,31819,1,8,0:0:0:0:
95,103,31981,1,0,0:0:0:0:
178,149,32143,2,0,L|274:149,1,70,0|2,1:0|0:0,0:0:0:0:
332,97,32468,2,0,L|332:178,1,70,8|0,0:0|0:0,0:0:0:0:
380,250,32792,6,0,L|291:250,1,70,0|2,1:0|0:0,0:0:0:0:
231,307,33116,2,0,B|178:307|178:307|151:303|151:303|81:304,1,140,8|0,0:0|1:0,0:0:0:0:
16,243,33603,1,2,0:0:0:0:
16,243,33765,1,8,0:0:0:0:
81,177,33927,1,0,0:0:0:0:
81,177,34089,6,0,L|81:102,1,70,0|0,1:0|0:0,0:0:0:0:
145,37,34414,2,0,P|180:28|220:38,1,70,8|0,0:0|0:0,0:0:0:0:
292,90,34738,2,0,P|326:97|362:90,1,70,0|2,1:0|0:0,0:0:0:0:
452,46,35062,1,8,0:0:0:0:
452,46,35224,1,0,0:0:0:0:
506,125,35387,6,0,L|505:205,1,70,0|2,1:0|0:0,0:0:0:0:
446,268,35711,2,0,B|448:374|448:374|402:332,1,140,8|0,0:0|1:0,0:0:0:0:
361,280,36197,1,2,0:0:0:0:
361,280,36359,1,10,0:0:0:0:
280,332,36522,1,2,0:0:0:0:
280,332,36684,6,0,P|241:340|203:334,1,70,0|0,1:0|0:0,0:0:0:0:
134,285,37008,2,0,L|134:210,1,70,8|0,0:0|0:0,0:0:0:0:
192,137,37332,2,0,P|231:131|274:143,1,70,0|2,1:0|0:0,0:0:0:0:
346,181,37657,2,0,P|390:192|422:185,1,70,8|0,0:0|0:0,0:0:0:0:
493,132,37981,5,0,1:0:0:0:
493,132,38143,1,2,0:0:0:0:
459,47,38305,2,0,B|432:24|432:24|315:24,1,140,8|0,0:0|1:0,0:0:0:0:
245,71,38792,1,2,0:0:0:0:
245,71,38954,1,8,0:0:0:0:
166,22,39116,1,0,0:0:0:0:
81,63,39278,6,0,P|60:101|64:149,1,70,0|0,1:0|0:0,0:0:0:0:
105,210,39603,2,0,L|104:285,1,70,8|0,0:0|0:0,0:0:0:0:
169,353,39927,2,0,P|204:364|247:358,1,70,0|2,1:0|0:0,0:0:0:0:
320,313,40251,2,0,P|362:306|395:319,1,70,8|0,0:0|0:0,0:0:0:0:
479,370,40576,6,0,L|479:291,1,70,0|2,1:0|0:0,0:0:0:0:
414,228,40900,2,0,B|406:184|406:184|417:147|417:147|413:89,1,140,8|0,0:0|1:0,0:0:0:0:
338,29,41387,1,2,0:0:0:0:
338,29,41549,1,10,0:0:0:0:
259,80,41711,1,2,0:0:0:0:
259,80,41873,6,0,L|259:160,1,70,4|0,0:0|0:0,0:0:0:0:
314,226,42197,2,0,L|315:302,1,70,8|0,0:0|0:0,0:0:0:0:
246,360,42522,2,0,P|210:376|113:348,1,140,0|8,1:0|0:0,0:0:0:0:
67,275,43008,1,0,0:0:0:0:
67,275,43170,6,0,L|68:200,1,70,0|2,1:0|0:0,0:0:0:0:
130,143,43495,2,0,B|122:104|122:104|137:63|137:63|129:4,1,140,8|0,0:0|1:0,0:0:0:0:
31,9,43981,1,2,0:0:0:0:
31,9,44143,1,8,0:0:0:0:
0,99,44305,1,0,0:0:0:0:
0,99,44468,6,0,L|0:187,1,70,0|0,1:0|0:0,0:0:0:0:
45,254,44792,2,0,B|74:274|74:274|186:274,1,140,8|0,0:0|1:0,0:0:0:0:
260,216,45278,1,2,0:0:0:0:
260,216,45441,2,0,L|349:216,1,70,8|0,0:0|0:0,0:0:0:0:
419,262,45765,6,0,P|430:302|422:346,1,70,0|2,1:0|0:0,0:0:0:0:
345,371,46089,2,0,B|294:374|294:374|264:365|264:365|190:371,1,140,8|0,0:0|1:0,0:0:0:0:
119,325,46576,1,2,0:0:0:0:
119,325,46738,1,10,0:0:0:0:
159,243,46900,1,2,0:0:0:0:
159,243,47062,6,0,P|178:198|158:101,1,140,4|8,0:0|0:0,0:0:0:0:
117,27,47549,1,0,0:0:0:0:
117,27,47711,2,0,L|214:27,1,70,0|2,1:0|0:0,0:0:0:0:
257,95,48035,2,0,L|348:95,1,70,8|0,0:0|0:0,0:0:0:0:
411,142,48359,6,0,P|424:177|419:216,1,70,0|2,1:0|0:0,0:0:0:0:
366,286,48684,2,0,B|366:388|366:388|341:352,1,140,8|0,0:0|1:0,0:0:0:0:
281,285,49170,1,2,0:0:0:0:
281,285,49332,1,8,0:0:0:0:
327,207,49495,1,0,0:0:0:0:
327,207,49657,6,0,L|328:55,1,140,0|8,1:0|0:0,0:0:0:0:
247,14,50143,1,0,0:0:0:0:
247,14,50305,2,0,P|207:10|172:16,1,70,0|2,1:0|0:0,0:0:0:0:
94,58,50630,2,0,L|94:137,1,70,8|0,0:0|0:0,0:0:0:0:
159,204,50954,6,0,B|154:257|154:257|163:297|163:297|159:354,2,140,0|8|0,1:0|0:0|1:0,0:0:0:0:
228,135,51765,1,2,0:0:0:0:
228,135,51927,1,10,0:0:0:0:
306,187,52089,1,0,1:0:0:0:
306,187,52251,6,0,P|345:195|419:126,2,140,4|8|0,0:0|0:0|1:0,0:0:0:0:
228,135,53062,1,2,0:0:0:0:
155,80,53224,2,0,L|82:80,1,70,8|0,0:0|0:0,0:0:0:0:
6,182,53549,6,0,B|33:155|33:155|143:155,2,140,0|8|0,1:0|0:0|1:0,0:0:0:0:
30,277,54359,1,2,0:0:0:0:
30,277,54522,2,0,L|30:370,1,70,10|0,0:0|0:0,0:0:0:0:
120,375,54846,6,0,B|119:259|119:259|139:298,2,140,0|8|0,1:0|0:0|1:0,0:0:0:0:
209,335,55657,1,2,0:0:0:0:
209,335,55819,2,0,P|250:328|281:335,1,70,8|0,0:0|0:0,0:0:0:0:
372,374,56143,6,0,P|356:342|386:234,2,140,0|8|0,1:0|0:0|1:0,0:0:0:0:
449,314,56954,1,2,0:0:0:0:
449,314,57116,2,0,P|463:272|457:233,1,70,10|2,0:0|0:0,0:0:0:0:
420,177,57441,6,0,B|403:135|403:135|441:46,2,140,4|8|0,0:0|0:0|1:0,0:0:0:0:
321,128,58251,1,2,0:0:0:0:
321,128,58414,2,0,L|359:50,1,70,8|0,0:0|0:0,0:0:0:0:
268,57,58738,6,0,L|205:197,2,140,0|8|0,1:0|0:0|1:0,0:0:0:0:
190,3,59549,1,2,0:0:0:0:
190,3,59711,2,0,P|141:-4|102:5,1,70,10|0,0:0|0:0,0:0:0:0:
54,68,60035,6,0,B|75:99|75:99|59:131|59:131|98:188,2,140,0|8|0,1:0|0:0|1:0,0:0:0:0:
150,118,60846,1,2,0:0:0:0:
150,118,61008,2,0,L|192:180,1,70,8|0,0:0|0:0,0:0:0:0:
250,245,61332,6,0,P|303:272|395:234,2,140,0|8|0,1:0|0:0|1:0,0:0:0:0:
321,176,62143,1,2,0:0:0:0:
321,176,62305,1,10,0:0:0:0:
382,257,62468,1,2,0:0:0:0:
382,257,62630,6,0,B|397:289|397:289|347:380,2,140,4|8|0,0:0|0:0|1:0,0:0:0:0:
321,176,63441,1,2,0:0:0:0:
321,176,63603,2,0,P|317:134|331:90,1,70,8|0,0:0|0:0,0:0:0:0:
389,36,63927,6,0,B|419:16|419:16|515:69,2,140,0|8|0,1:0|0:0|1:0,0:0:0:0:
323,107,64738,1,2,0:0:0:0:
323,107,64900,2,0,P|283:114|244:107,1,70,10|0,0:0|0:0,0:0:0:0:
168,61,65224,6,0,B|118:61|118:61|82:46|82:46|17:49,2,140,0|8|0,1:0|0:0|1:0,0:0:0:0:
254,110,66035,1,2,0:0:0:0:
254,110,66197,2,0,L|254:183,1,70,8|0,0:0|0:0,0:0:0:0:
189,252,66522,6,0,B|177:306|177:306|191:336|191:336|184:393,2,140,0|8|0,1:0|0:0|1:0,0:0:0:0:
254,180,67332,1,2,0:0:0:0:
254,180,67495,1,10,0:0:0:0:
326,243,67657,1,2,0:0:0:0:
326,243,67819,6,0,P|368:262|463:237,2,140,4|8|0,0:0|0:0|1:0,0:0:0:0:
390,167,68630,1,2,0:0:0:0:
390,167,68792,2,0,B|395:131|395:131|378:93,1,70,8|0,0:0|0:0,0:0:0:0:
299,38,69116,6,0,B|266:69|266:69|306:169,2,140,0|8|0,1:0|0:0|1:0,0:0:0:0:
391,8,69927,1,2,0:0:0:0:
391,8,70089,1,10,0:0:0:0:
477,53,70251,1,0,0:0:0:0:
477,53,70414,6,0,P|491:96|485:131,1,70,4|0,0:0|0:0,0:0:0:0:
433,177,70738,2,0,L|443:254,1,70,8|0,0:0|0:0,0:0:0:0:
409,314,71062,2,0,B|382:338|382:338|340:330,1,70,0|2,1:0|0:0,0:0:0:0:
293,280,71387,2,0,B|266:256|266:256|224:264,1,70,8|0,0:0|0:0,0:0:0:0:
162,292,71711,6,0,P|120:307|26:255,1,140,4|8,0:0|0:0,0:0:0:0:
4,198,72197,1,0,1:0:0:0:
4,198,72278,1,8,0:0:0:0:
4,198,72359,2,0,L|1:149,3,35,0|0|0|0,1:0|1:0|1:0|1:0,0:0:0:0:
38,128,72684,2,0,L|39:81,3,35,10|8|10|8,0:0|0:0|0:0|0:0,0:0:0:0:
16,54,73008,5,0,0:0:0:0:
358,58,83387,5,4,0:3:0:0:
358,58,83549,2,0,B|359:89|359:89|365:109|365:109|356:133|356:133|356:179,1,105.000004005432,2|0,0:0|0:0,0:0:0:0:
406,216,84035,2,0,B|407:247|407:247|413:267|413:267|404:291|404:291|404:337,1,105.000004005432,2|0,0:0|0:0,0:0:0:0:
344,365,84522,2,0,P|302:376|233:364,1,105.000004005432,2|0,0:0|0:0,0:0:0:0:
177,325,85008,2,0,L|102:326,2,52.5000020027161,2|0|0,0:0|0:0|0:0,0:0:0:0:
232,267,85495,2,0,L|298:267,2,52.5000020027161,2|0|2,0:0|0:0|0:0,0:0:0:0:
174,214,85981,5,0,0:0:0:0:
174,214,86143,2,0,P|156:181|173:101,1,105.000004005432,2|0,0:0|0:0,0:0:0:0:
220,59,86630,2,0,P|238:92|221:172,1,105.000004005432,2|0,0:0|0:0,0:0:0:0:
174,214,87116,2,0,P|118:239|58:220,1,105.000004005432,2|0,0:0|0:0,0:0:0:0:
20,183,87603,2,0,B|2:163|2:163|11:76,1,105.000004005432,2|0,0:0|0:0,0:0:0:0:
66,34,88089,2,0,L|126:39,1,52.5000020027161,2|0,0:0|0:0,0:0:0:0:
170,96,88414,1,2,0:0:0:0:
233,48,88576,5,0,0:0:0:0:
233,48,88738,2,0,B|259:33|259:33|340:46,1,105.000004005432,2|0,0:0|0:0,0:0:0:0:
392,94,89224,2,0,P|411:127|409:197,1,105.000004005432,2|0,0:0|0:0,0:0:0:0:
363,252,89711,2,0,P|347:279|352:355,1,105.000004005432,2|0,0:0|0:0,0:0:0:0:
424,375,90197,2,0,L|485:379,2,52.5000020027161,2|0|0,0:0|0:0|0:0,0:0:0:0:
349,350,90684,2,0,L|288:354,2,52.5000020027161,2|0|2,0:0|0:0|0:0,0:0:0:0:
419,318,91170,6,0,L|426:273,7,26.2500010013581,4|8|8|8|10|8|8|8,0:0|0:0|0:0|0:0|0:0|0:0|0:0|0:0,0:0:0:0:
465,260,91819,6,0,L|458:223,7,26.2500010013581,10|8|8|8|10|8|10|8,0:0|0:0|0:0|0:0|0:0|0:0|0:0|0:0,0:0:0:0:
439,192,92468,5,0,1:0:0:0:
439,192,92630,1,0,1:0:0:0:
376,136,92792,6,0,L|383:74,2,52.5000020027161,10|0|0,0:0|1:0|1:0,0:0:0:0:
309,181,93278,1,10,0:0:0:0:
309,181,93441,2,0,L|314:247,1,52.5000020027161,0|0,1:0|1:0,0:0:0:0:
272,310,93765,6,0,P|226:325|138:308,1,140,4|8,0:0|0:0,0:0:0:0:
55,254,94251,1,0,0:0:0:0:
55,254,94414,2,0,P|44:215|44:170,1,70,0|2,1:0|0:0,0:0:0:0:
103,114,94738,1,8,0:0:0:0:
103,114,94900,1,0,0:0:0:0:
156,34,95062,6,0,B|188:17|188:17|299:43,1,140,0|8,1:0|0:0,0:0:0:0:
349,116,95549,2,0,L|424:111,1,70,2|0,0:0|1:0,0:0:0:0:
504,162,95873,1,2,0:0:0:0:
504,162,96035,2,0,P|511:202|500:243,1,70,10|0,0:0|0:0,0:0:0:0:
451,314,96359,6,0,L|294:319,1,140,0|8,1:0|0:0,0:0:0:0:
229,374,96846,2,0,L|133:375,1,70,0|0,0:0|1:0,0:0:0:0:
84,316,97170,1,2,0:0:0:0:
84,316,97332,2,0,P|78:276|88:243,1,70,8|0,0:0|0:0,0:0:0:0:
149,179,97657,6,0,B|160:79|160:79|131:117,1,140,4|8,0:0|0:0,0:0:0:0:
67,170,98143,1,2,0:0:0:0:
85,247,98305,2,0,P|125:262|155:258,1,70,4|2,0:0|0:0,0:0:0:0:
224,218,98630,2,0,P|258:212|317:223,1,70,10|2,0:0|0:0,0:0:0:0:
379,264,98954,6,0,P|421:274|501:213,1,140,4|8,0:0|0:0,0:0:0:0:
507,125,99441,1,0,0:0:0:0:
507,125,99603,1,0,1:0:0:0:
434,61,99765,1,2,0:0:0:0:
434,61,99927,2,0,L|341:65,1,70,8|0,0:0|0:0,0:0:0:0:
293,132,100251,6,0,B|236:134|236:134|218:127|218:127|140:131,1,140,0|8,1:0|0:0,0:0:0:0:
72,181,100738,1,2,0:0:0:0:
72,181,100900,1,0,1:0:0:0:
104,272,101062,1,2,0:0:0:0:
104,272,101224,2,0,P|140:285|181:281,1,70,10|0,0:0|0:0,0:0:0:0:
251,231,101549,6,0,P|287:218|389:239,1,140,0|8,1:0|0:0,0:0:0:0:
452,310,102035,1,0,0:0:0:0:
452,310,102197,2,0,P|391:332|359:326,1,70,0|2,1:0|0:0,0:0:0:0:
296,362,102522,2,0,L|219:357,1,70,8|0,0:0|0:0,0:0:0:0:
171,283,102846,6,0,B|132:292|103:271|103:271|75:291|31:283,1,140,0|8,1:0|0:0,0:0:0:0:
1,196,103332,1,2,0:0:0:0:
1,196,103495,2,0,B|-8:156|-8:156|20:50,1,140,0|10,1:0|0:0,0:0:0:0:
107,18,103981,1,2,0:0:0:0:
107,18,104143,6,0,P|156:7|245:20,1,140,4|8,0:0|0:0,0:0:0:0:
322,79,104630,1,0,0:0:0:0:
322,79,104792,2,0,P|371:88|403:82,1,70,0|2,1:0|0:0,0:0:0:0:
496,62,105116,2,0,P|478:96|471:141,1,70,8|0,0:0|0:0,0:0:0:0:
478,233,105441,6,0,P|433:211|334:240,1,140,0|8,1:0|0:0,0:0:0:0:
272,292,105927,1,2,0:0:0:0:
272,292,106089,1,0,1:0:0:0:
180,303,106251,1,2,0:0:0:0:
180,303,106414,2,0,L|97:302,1,70,10|0,0:0|0:0,0:0:0:0:
20,353,106738,6,0,B|1:319|1:319|13:211,1,140,0|8,1:0|0:0,0:0:0:0:
74,146,107224,1,0,0:0:0:0:
74,146,107387,2,0,L|78:76,1,70,0|2,1:0|0:0,0:0:0:0:
157,13,107711,1,8,0:0:0:0:
157,13,107873,1,0,0:0:0:0:
231,72,108035,6,0,P|267:90|366:65,1,140,4|8,0:0|0:0,0:0:0:0:
453,19,108522,1,2,0:0:0:0:
453,19,108684,2,0,P|447:61|456:105,1,70,4|2,0:0|0:0,0:0:0:0:
500,171,109008,2,0,P|512:215|504:252,1,70,10|2,0:0|0:0,0:0:0:0:
463,325,109332,6,0,P|415:342|319:317,1,140,4|8,0:0|0:0,0:0:0:0:
266,251,109819,1,0,0:0:0:0:
266,251,109981,1,0,1:0:0:0:
320,173,110143,1,2,0:0:0:0:
320,173,110305,2,0,L|316:101,1,70,8|0,0:0|0:0,0:0:0:0:
254,29,110630,6,0,B|220:14|220:14|96:37,1,140,0|8,1:0|0:0,0:0:0:0:
34,85,111116,1,2,0:0:0:0:
34,85,111278,1,0,1:0:0:0:
105,148,111441,1,2,0:0:0:0:
105,148,111603,2,0,L|100:224,1,70,10|0,0:0|0:0,0:0:0:0:
29,303,111927,6,0,B|85:300|85:300|112:310|112:310|191:303,1,140,4|8,0:0|0:0,0:0:0:0:
246,357,112414,1,0,0:0:0:0:
246,357,112576,2,0,L|329:346,1,70,0|2,1:0|0:0,0:0:0:0:
412,371,112900,2,0,L|501:356,1,70,8|0,0:0|0:0,0:0:0:0:
487,272,113224,6,0,L|433:282,7,35,0|0|0|0|8|0|0|0,1:0|1:0|1:0|1:0|0:0|1:0|1:0|0:0,0:0:0:0:
405,262,113873,2,0,L|353:270,7,35,8|0|10|0|10|0|10|0,0:0|0:0|0:0|0:0|0:0|0:0|0:0|0:0,0:0:0:0:
323,252,114522,5,4,0:0:0:0:
323,252,114684,2,0,B|283:262|283:262|260:259|260:259|207:268,1,105.000004005432,2|0,0:0|0:0,0:0:0:0:
164,305,115170,2,0,B|175:265|175:265|189:246|189:246|208:196,1,105.000004005432,2|0,0:0|0:0,0:0:0:0:
200,142,115657,2,0,B|228:171|228:171|237:193|237:193|271:234,1,105.000004005432,2|0,0:0|0:0,0:0:0:0:
323,252,116143,2,0,B|283:262|283:262|260:259|260:259|207:268,1,105.000004005432,2|0,0:0|0:0,0:0:0:0:
153,309,116630,1,2,0:0:0:0:
153,309,116792,2,0,L|83:317,1,52.5000020027161,0|2,0:0|0:0,0:0:0:0:
28,267,117116,5,0,0:0:0:0:
28,267,117278,2,0,P|8:228|27:154,1,105.000004005432,2|0,0:0|0:0,0:0:0:0:
88,119,117765,2,0,P|131:121|186:174,1,105.000004005432,2|0,0:0|0:0,0:0:0:0:
191,241,118251,2,0,P|167:277|93:298,1,105.000004005432,2|0,0:0|0:0,0:0:0:0:
28,267,118738,2,0,P|8:228|27:154,1,105.000004005432,2|0,0:0|0:0,0:0:0:0:
88,119,119224,1,2,0:0:0:0:
88,119,119387,2,0,L|158:123,1,52.5000020027161,0|2,0:0|0:0,0:0:0:0:
205,82,119711,5,4,0:3:0:0:
256,192,119792,12,0,123603,0:0:0:0:
