osu file format v14

[General]
AudioFilename: 15 - THE LAST STRIKER.mp3
AudioLeadIn: 2000
PreviewTime: 93765
Countdown: 0
SampleSet: Soft
StackLeniency: 0.3
Mode: 0
LetterboxInBreaks: 1
WidescreenStoryboard: 1

[Editor]
Bookmarks: 73008,104143
DistanceSpacing: 1
BeatDivisor: 4
GridSize: 32
TimelineZoom: 3.999998

[Metadata]
Title:THE LAST STRIKER
TitleUnicode:THE LAST STRIKER
Artist:L.E.D.
ArtistUnicode:L.E.D.
Creator:Kloyd
Version:Expert
Source:beatmania IIDX 17 SIRIUS
Tags:17 SIRIUS 15 TROOPERS CS LED Skystar Regou sionKotori milr_ PaRaDogi LeomineXD Electronic Instrumental
BeatmapID:2270810
BeatmapSetID:1085929

[Difficulty]
HPDrainRate:7
CircleSize:5
OverallDifficulty:9
ApproachRate:9
SliderMultiplier:1.8
SliderTickRate:1

[Events]
//Background and Video events
0,0,"wow.png",0,0
//Break Periods
2,73208,82787
//Storyboard Layer 0 (Background)
//Storyboard Layer 1 (Fail)
//Storyboard Layer 2 (Pass)
//Storyboard Layer 3 (Foreground)
//Storyboard Layer 4 (Overlay)
//Storyboard Sound Samples

[TimingPoints]
360,324.324324324324,4,2,1,63,1,0
522,-133.333333333333,4,2,1,45,0,0
21116,-111.111111111111,4,2,1,55,0,0
30116,-100,4,2,1,50,0,0
30197,-100,4,2,1,55,0,0
31170,-66.6666666666667,4,2,1,55,0,0
31495,-100,4,2,1,60,0,0
62630,-80,4,2,1,65,0,1
73008,-100,4,2,1,70,0,0
83387,-133.333333333333,4,2,1,63,0,0
91089,-100,4,2,1,50,0,0
93765,-100,4,2,1,65,0,1
114035,-125,4,2,1,65,0,1
114522,-133.333333333333,4,2,1,70,0,0
119711,-133.333333333333,4,2,1,65,0,0

[Colours]
Combo1 : 0,128,192
Combo2 : 128,128,255
Combo3 : 0,0,255
Combo4 : 128,255,255

[HitObjects]
79,143,360,5,4,0:3:0:0:
223,175,522,5,2,0:0:0:0:
151,159,684,1,0,0:0:0:0:
79,143,846,1,0,0:0:0:0:
277,125,1008,5,2,0:0:0:0:
223,175,1170,1,0,0:0:0:0:
168,224,1332,1,0,0:0:0:0:
138,91,1495,6,0,P|140:58|158:28,2,67.5000025749208,2|0|0,0:0|0:0|0:0,0:0:0:0:
98,211,1981,2,0,L|106:279,1,67.5000025749208,2|0,0:0|0:0,0:0:0:0:
187,349,2305,1,0,0:0:0:0:
295,357,2468,2,0,P|341:355|362:340,2,67.5000025749208,2|0|2,0:0|0:0|0:0,0:0:0:0:
429,369,2954,5,0,0:0:0:0:
453,236,3116,5,2,0:0:0:0:
441,302,3278,1,0,0:0:0:0:
429,369,3441,1,0,0:0:0:0:
424,176,3603,5,2,0:0:0:0:
453,237,3765,1,0,0:0:0:0:
482,299,3928,1,0,0:0:0:0:
453,102,4089,6,0,L|466:27,2,67.5000025749208,2|0|0,0:0|0:0|0:0,0:0:0:0:
325,147,4576,2,0,P|316:115|331:73,1,67.5000025749208,2|0,0:0|0:0,0:0:0:0:
378,42,4900,1,0,0:0:0:0:
246,108,5062,2,0,P|212:108|176:83,1,67.5000025749208,2|0,0:0|0:0,0:0:0:0:
238,6,5387,1,2,0:0:0:0:
325,147,5549,5,0,0:0:0:0:
245,220,5711,2,0,L|171:208,1,67.5000025749208,2|0,0:0|0:0,0:0:0:0:
178,209,6035,1,0,0:0:0:0:
203,317,6197,2,0,L|129:329,1,67.5000025749208,2|0,0:0|0:0,0:0:0:0:
136,327,6521,1,0,0:0:0:0:
67,255,6684,2,0,L|-7:243,1,67.5000025749208,2|0,0:0|0:0,0:0:0:0:
0,244,7008,1,0,0:0:0:0:
112,204,7170,2,0,P|122:160|119:124,1,67.5000025749208,2|0,0:0|0:0,0:0:0:0:
64,45,7495,5,0,0:0:0:0:
14,141,7657,1,2,0:0:0:0:
121,138,7819,1,0,0:0:0:0:
64,45,7981,1,2,0:0:0:0:
67,105,8143,5,0,0:0:0:0:
123,20,8305,1,2,0:0:0:0:
123,20,8468,1,0,0:0:0:0:
175,106,8630,5,0,0:0:0:0:
231,21,8792,1,2,0:0:0:0:
231,21,8955,1,0,0:0:0:0:
280,108,9116,5,0,0:0:0:0:
336,23,9278,1,2,0:0:0:0:
227,197,9441,2,0,P|258:214|297:214,1,67.5000025749208
367,149,9765,2,0,P|375:114|365:76,1,67.5000025749208,2|0,0:0|0:0,0:0:0:0:
280,108,10089,5,0,0:0:0:0:
390,77,10251,2,0,P|397:116|387:155,1,67.5000025749208,2|0,0:0|0:0,0:0:0:0:
294,235,10576,2,0,P|253:232|218:212,1,67.5000025749208,2|4,0:0|0:3,0:0:0:0:
383,233,10900,5,2,0:0:0:0:
183,266,11224,1,0,0:0:0:0:
336,279,11387,1,2,0:0:0:0:
138,314,11711,1,0,0:0:0:0:
291,327,11874,1,2,0:0:0:0:
94,359,12197,1,0,0:0:0:0:
247,372,12360,1,2,0:0:0:0:
183,266,12522,1,0,0:0:0:0:
94,359,12684,5,0,0:0:0:0:
245,300,12846,2,0,B|257:257|257:257|240:213|240:213|250:165,1,135.000005149842,2|2,0:0|0:0,0:0:0:0:
249,171,13332,1,0,0:0:0:0:
402,158,13495,5,2,0:0:0:0:
202,125,13819,1,0,0:0:0:0:
355,112,13982,1,2,0:0:0:0:
157,77,14306,1,0,0:0:0:0:
310,64,14469,1,2,0:0:0:0:
113,32,14792,1,0,0:0:0:0:
266,19,14955,1,2,0:0:0:0:
202,125,15117,1,0,0:0:0:0:
113,32,15278,6,0,P|77:33|45:53,1,67.5000025749208,0|2,0:0|0:0,0:0:0:0:
118,211,15603,2,0,P|154:210|186:190,1,67.5000025749208,0|2,0:0|0:0,0:0:0:0:
213,99,15927,5,0,0:0:0:0:
213,99,16089,1,2,0:0:0:0:
213,99,16251,1,0,0:0:0:0:
327,228,16414,5,0,0:0:0:0:
384,170,16576,1,2,0:0:0:0:
306,149,16738,1,0,0:0:0:0:
270,286,16900,5,0,0:0:0:0:
348,307,17062,1,2,0:0:0:0:
327,228,17224,1,0,0:0:0:0:
211,332,17387,5,0,0:0:0:0:
133,353,17549,1,2,0:0:0:0:
154,274,17711,1,0,0:0:0:0:
278,358,17873,6,0,P|311:376|347:372,1,67.5000025749208,0|2,0:0|0:0,0:0:0:0:
132,354,18197,6,0,P|95:362|61:349,1,67.5000025749208,0|2,0:0|0:0,0:0:0:0:
256,192,18522,12,2,20954,0:0:0:0:
348,160,21116,5,4,0:0:0:0:
477,97,21278,1,0,0:0:0:0:
436,175,21440,1,8,0:0:0:0:
416,32,21602,1,0,0:0:0:0:
416,32,21684,1,0,0:0:0:0:
416,32,21765,2,0,L|336:40,1,80.9999975280763,0|0,1:0|1:0,0:0:0:0:
270,88,22089,2,0,P|240:146|259:203,1,121.499996292114,8|0,0:0|0:0,0:0:0:0:
316,254,22414,6,0,L|396:246,1,80.9999975280763,0|0,1:0|0:0,0:0:0:0:
468,283,22738,2,0,P|478:339|464:364,1,80.9999975280763,8|0,0:0|0:0,0:0:0:0:
406,377,22981,1,8,0:0:0:0:
406,377,23062,1,0,1:0:0:0:
457,204,23224,1,2,0:0:0:0:
328,331,23387,2,0,L|203:313,1,121.499996292114,8|0,0:0|0:0,0:0:0:0:
161,267,23711,6,0,P|157:220|180:185,1,80.9999975280763
233,244,24035,1,8,0:0:0:0:
108,320,24197,1,0,0:0:0:0:
108,320,24278,1,0,0:0:0:0:
108,320,24359,2,0,P|76:296|63:258,1,80.9999975280763,0|0,1:0|1:0,0:0:0:0:
251,131,24684,2,0,P|259:190|233:244,1,121.499996292114,8|0,0:0|0:0,0:0:0:0:
161,266,25008,6,0,P|119:247|79:253,1,80.9999975280763
27,199,25332,2,0,L|34:115,1,80.9999975280763,8|0,0:0|0:0,0:0:0:0:
55,50,25576,2,0,L|50:6,1,40.4999987640381,8|0,0:0|1:0,0:0:0:0:
167,64,25819,1,2,0:0:0:0:
27,199,25981,1,10,0:0:0:0:
215,253,26143,1,2,0:0:0:0:
144,166,26305,5,0,0:0:0:0:
265,136,26468,1,0,0:0:0:0:
265,136,26549,2,0,L|226:145,1,40.4999987640381,0|8,0:0|0:0,0:0:0:0:
53,80,26792,1,0,0:0:0:0:
53,80,26873,1,0,0:0:0:0:
53,80,26954,1,0,1:0:0:0:
111,280,27116,1,0,1:0:0:0:
294,317,27278,2,0,P|318:271|308:231,1,80.9999975280763,8|0,0:0|0:0,0:0:0:0:
308,228,27522,1,0,0:0:0:0:
299,213,27603,6,0,L|390:232,1,80.9999975280763
441,243,27846,2,0,L|486:253,1,40.4999987640381,0|8,0:0|0:0,0:0:0:0:
354,304,28089,1,0,0:0:0:0:
354,304,28170,1,8,0:0:0:0:
354,304,28251,1,0,1:0:0:0:
354,304,28332,2,0,L|347:353,1,40.4999987640381,0|2,0:0|0:0,0:0:0:0:
367,159,28576,2,0,L|456:139,1,80.9999975280763,10|2,0:0|0:0,0:0:0:0:
489,93,28819,1,0,0:0:0:0:
489,93,28900,6,0,P|494:48|474:18,1,80.9999975280763
286,159,29224,2,0,P|292:203|319:227,1,80.9999975280763,8|0,0:0|0:0,0:0:0:0:
318,226,29468,1,0,0:0:0:0:
318,226,29549,2,0,L|301:61,1,161.999995056153,0|8,1:0|0:0,0:0:0:0:
249,26,29954,1,0,0:0:0:0:
249,26,30035,2,0,P|223:29|198:41,1,40.4999987640381
177,98,30197,5,8,0:0:0:0:
164,131,30278,1,8,0:0:0:0:
138,156,30359,1,10,0:0:0:0:
105,170,30440,1,8,0:0:0:0:
70,169,30521,1,10,0:0:0:0:
37,153,30602,1,8,0:0:0:0:
14,127,30683,1,2,1:0:0:0:
2,93,30764,1,0,0:0:0:0:
15,58,30846,1,0,1:0:0:0:
32,60,30927,1,0,0:0:0:0:
49,62,31008,1,2,1:0:0:0:
66,64,31089,1,0,0:0:0:0:
82,67,31170,6,0,B|63:238|63:238|85:207,1,202.500007724762,8|0,0:0|0:0,0:0:0:0:
152,223,31495,6,0,P|193:251|203:294,1,90,4|0,0:0|0:0,0:0:0:0:
47,342,31819,2,0,B|137:349,1,90,8|0,0:0|0:0,0:0:0:0:
157,331,32062,1,0,0:0:0:0:
179,315,32143,2,0,B|268:321,1,90,0|2,1:0|0:0,0:0:0:0:
353,289,32468,2,0,B|372:268|372:268|363:193,1,90,8|0,0:0|0:0,0:0:0:0:
344,189,32711,1,0,0:0:0:0:
325,169,32792,2,0,L|429:176,1,90,0|2,1:0|0:0,0:0:0:0:
395,352,33116,2,0,P|353:363|311:348,1,90,8|0,0:0|1:0,0:0:0:0:
260,273,33359,1,8,0:0:0:0:
247,250,33441,2,0,L|253:202,2,45,0|0|2,1:0|0:0|0:0,0:0:0:0:
459,303,33765,2,0,P|486:262|481:216,1,90,8|0,0:0|0:0,0:0:0:0:
465,202,34008,1,0,0:0:0:0:
474,176,34089,6,0,P|476:126|449:89,1,90,0|0,1:0|0:0,0:0:0:0:
280,58,34414,2,0,L|370:61,1,90,8|0,0:0|0:0,0:0:0:0:
352,81,34657,1,0,0:0:0:0:
333,100,34738,2,0,L|243:97,1,90,0|2,1:0|0:0,0:0:0:0:
165,142,35062,2,0,B|153:163|153:163|168:235,1,90,8|0,0:0|0:0,0:0:0:0:
150,249,35305,1,0,0:0:0:0:
129,267,35387,2,0,L|39:257,1,90,0|2,1:0|0:0,0:0:0:0:
136,70,35711,2,0,P|180:67|218:90,1,90,8|0,0:0|1:0,0:0:0:0:
241,155,35954,1,8,0:0:0:0:
241,155,36035,2,0,P|228:200|188:224,1,90,0|2,1:0|0:0,0:0:0:0:
89,139,36359,2,0,P|102:94|142:70,1,90,10|2,0:0|0:0,0:0:0:0:
375,130,36684,6,0,P|386:175|363:216,1,90,0|0,1:0|0:0,0:0:0:0:
367,212,36927,1,0,0:0:0:0:
367,212,37008,1,8,0:0:0:0:
255,328,37170,1,0,0:0:0:0:
255,328,37251,1,0,0:0:0:0:
255,328,37332,2,0,L|267:233,1,90,0|2,1:0|0:0,0:0:0:0:
185,198,37657,2,0,P|137:200|106:231,1,90,8|0,0:0|0:0,0:0:0:0:
112,340,37981,6,0,P|147:372|191:372,1,90,0|2,1:0|0:0,0:0:0:0:
187,373,38224,1,0,0:0:0:0:
187,373,38306,1,8,0:0:0:0:
257,227,38468,1,0,1:0:0:0:
257,227,38549,1,8,0:0:0:0:
257,227,38630,2,0,L|245:132,1,90,0|2,1:0|0:0,0:0:0:0:
183,72,38954,2,0,B|117:62|117:62|59:106,1,135,8|0,0:0|0:0,0:0:0:0:
47,187,39278,6,0,L|81:270,1,90,0|0,1:0|0:0,0:0:0:0:
166,310,39522,2,0,B|189:307|189:307|211:294,1,45,0|8,0:0|0:0,0:0:0:0:
465,187,39765,2,0,L|430:270,1,90,0|0,0:0|1:0,0:0:0:0:
346,310,40009,2,0,B|323:307|323:307|301:294,1,45,0|2,0:0|0:0,0:0:0:0:
256,161,40251,2,0,L|256:26,1,135,8|0,0:0|0:0,0:0:0:0:
256,161,40576,6,0,L|256:251,1,90,0|2,1:0|0:0,0:0:0:0:
256,340,40900,1,8,0:0:0:0:
257,250,41062,1,0,1:0:0:0:
257,245,41143,1,8,0:0:0:0:
257,237,41224,1,0,1:0:0:0:
186,186,41386,1,2,0:0:0:0:
324,186,41548,1,10,0:0:0:0:
213,104,41711,1,2,0:0:0:0:
297,104,41873,5,4,0:0:0:0:
202,81,42035,1,0,0:0:0:0:
168,184,42197,1,8,0:0:0:0:
257,248,42359,1,0,0:0:0:0:
257,248,42441,1,0,0:0:0:0:
257,250,42522,2,0,P|302:254|352:226,1,90,0|2,1:0|0:0,0:0:0:0:
404,170,42846,2,0,L|394:64,1,90,8|0,0:0|0:0,0:0:0:0:
434,19,43089,6,0,L|487:27,1,45,0|0,0:0|1:0,0:0:0:0:
474,196,43332,1,2,0:0:0:0:
333,160,43495,2,0,P|266:162|216:206,1,135,8|8,0:0|0:0,0:0:0:0:
200,274,43819,2,0,L|208:322,2,45,0|0|2,1:0|0:0|0:0,0:0:0:0:
126,256,44143,2,0,P|91:288|46:291,1,90,8|0,0:0|0:0,0:0:0:0:
0,239,44387,1,0,0:0:0:0:
0,239,44468,5,0,1:0:0:0:
15,114,44630,1,0,0:0:0:0:
139,130,44792,1,8,0:0:0:0:
126,255,44954,1,0,0:0:0:0:
126,255,45036,1,0,0:0:0:0:
128,256,45117,2,0,P|89:231|76:185,1,90,0|2,1:0|0:0,0:0:0:0:
139,130,45441,2,0,L|237:139,1,90,8|0,0:0|0:0,0:0:0:0:
281,89,45684,6,0,P|283:63|279:43,1,45,0|0,0:0|1:0,0:0:0:0:
227,212,45927,1,2,0:0:0:0:
202,55,46089,2,0,L|112:46,1,90,8|0,0:0|1:0,0:0:0:0:
44,70,46332,2,0,L|0:65,1,45,8|0,0:0|1:0,0:0:0:0:
83,183,46576,1,2,0:0:0:0:
274,277,46738,2,0,P|302:228|297:190,1,90,10|2,0:0|0:0,0:0:0:0:
202,55,47062,5,4,0:0:0:0:
344,34,47224,2,0,L|388:44,2,45,0|0|8,0:0|0:0|0:0,0:0:0:0:
283,101,47549,1,0,0:0:0:0:
283,101,47630,1,0,0:0:0:0:
283,101,47711,2,0,B|288:138|288:138|279:153|279:153|286:192,1,90,0|2,1:0|0:0,0:0:0:0:
227,283,48035,2,0,B|217:328|217:328|239:370,1,90,8|0,0:0|0:0,0:0:0:0:
348,360,48359,6,0,B|358:315|358:315|336:273,1,90,0|2,1:0|0:0,0:0:0:0:
337,276,48603,1,0,0:0:0:0:
337,276,48684,1,8,0:0:0:0:
403,215,48846,1,0,1:0:0:0:
403,215,48927,1,8,0:0:0:0:
403,215,49008,2,0,L|499:228,1,90,0|2,1:0|0:0,0:0:0:0:
348,360,49332,2,0,B|247:373|247:373|217:354,1,135,8|0,0:0|0:0,0:0:0:0:
165,305,49657,5,0,1:0:0:0:
32,361,49819,2,0,L|-16:353,2,45,0|0|8,0:0|0:0|0:0,0:0:0:0:
91,290,50143,1,0,0:0:0:0:
91,290,50224,1,0,0:0:0:0:
91,289,50305,2,0,P|112:251|152:228,1,90,0|2,1:0|0:0,0:0:0:0:
229,328,50630,2,0,P|199:367|144:370,1,90,8|0,0:0|0:0,0:0:0:0:
91,290,50873,1,0,0:0:0:0:
91,290,50954,6,0,L|97:201,1,90,0|2,1:0|0:0,0:0:0:0:
31,138,51278,1,8,0:0:0:0:
173,161,51441,2,0,L|168:107,1,45,0|8,1:0|0:0,0:0:0:0:
24,66,51684,1,0,0:0:0:0:
50,69,51765,1,2,0:0:0:0:
76,72,51846,1,0,0:0:0:0:
102,75,51927,2,0,L|94:22,3,45,10|0|0|0,0:0|0:0|1:0|1:0,0:0:0:0:
166,18,52251,6,0,P|218:20|280:86,1,135,4|0,0:0|0:0,0:0:0:0:
332,120,52576,1,8,0:0:0:0:
332,120,52657,1,0,0:0:0:0:
332,120,52738,2,0,L|339:175,1,45
312,232,52900,1,0,1:0:0:0:
312,232,52981,2,0,P|256:256|224:240,1,90
184,192,53224,1,8,0:0:0:0:
148,180,53305,1,0,0:0:0:0:
112,192,53387,1,0,0:0:0:0:
92,224,53468,1,0,0:0:0:0:
96,260,53549,5,0,1:0:0:0:
116,275,53630,1,0,0:0:0:0:
96,288,53711,1,2,0:0:0:0:
117,304,53792,1,0,0:0:0:0:
96,316,53873,1,8,0:0:0:0:
117,332,53954,1,0,0:0:0:0:
96,348,54035,1,2,0:0:0:0:
117,360,54116,1,0,0:0:0:0:
147,352,54197,2,0,L|191:368,3,45,0|0|2|0,1:0|0:0|0:0|0:0,0:0:0:0:
305,331,54522,2,0,L|349:347,3,45,10|0|0|0,0:0|0:0|0:0|0:0,0:0:0:0:
440,308,54846,6,0,P|464:252|448:216,1,90,0|0,1:0|0:0,0:0:0:0:
428,208,55089,1,0,0:0:0:0:
392,200,55170,2,0,P|376:208|348:208,3,45,8|0|0|0,0:0|0:0|0:0|0:0,0:0:0:0:
316,192,55495,1,0,1:0:0:0:
280,188,55576,1,0,0:0:0:0:
244,196,55657,1,2,0:0:0:0:
208,188,55738,1,0,0:0:0:0:
184,160,55819,1,8,0:0:0:0:
180,124,55900,1,0,0:0:0:0:
188,88,55981,1,0,0:0:0:0:
216,64,56062,1,0,0:0:0:0:
252,60,56143,6,0,L|296:76,1,45,0|0,1:0|0:0,0:0:0:0:
436,32,56305,2,0,L|400:62,1,45,2|0,0:0|0:0,0:0:0:0:
372,200,56468,2,0,L|363:153,1,45,8|0,0:0|0:0,0:0:0:0:
340,4,56630,6,0,L|348:50,1,45,0|8,1:0|0:0,0:0:0:0:
276,172,56792,2,0,L|311:141,1,45,0|0,1:0|0:0,0:0:0:0:
460,144,56954,2,0,L|416:128,1,45,2|0,0:0|0:0,0:0:0:0:
358,101,57116,5,10,0:0:0:0:
358,101,57197,1,0,0:0:0:0:
358,101,57278,1,2,0:0:0:0:
358,101,57359,1,0,0:0:0:0:
358,101,57441,6,0,L|261:109,1,90,4|0,0:0|0:0,0:0:0:0:
207,161,57684,2,0,P|217:215|254:238,1,90
319,260,57927,2,0,L|367:252,1,45
439,280,58089,1,0,1:0:0:0:
463,306,58170,1,0,0:0:0:0:
468,341,58251,1,2,0:0:0:0:
449,371,58332,1,0,0:0:0:0:
413,379,58414,1,8,0:0:0:0:
382,359,58495,1,0,0:0:0:0:
346,354,58576,1,0,0:0:0:0:
310,359,58657,1,0,0:0:0:0:
281,381,58738,6,0,L|290:286,1,90,0|2,1:0|0:0,0:0:0:0:
223,229,58981,2,0,P|180:244|161:290,1,90
87,333,59224,2,0,L|35:319,1,45,2|0,0:0|0:0,0:0:0:0:
26,284,59387,1,0,1:0:0:0:
19,244,59468,1,0,0:0:0:0:
11,204,59549,1,2,0:0:0:0:
4,163,59630,1,0,0:0:0:0:
32,134,59711,1,10,0:0:0:0:
70,120,59792,1,0,0:0:0:0:
109,128,59873,1,0,0:0:0:0:
140,153,59954,1,0,0:0:0:0:
168,181,60035,6,0,P|210:195|253:185,1,90,0|0,1:0|0:0,0:0:0:0:
428,127,60278,2,0,P|385:112|342:122,1,90
367,246,60522,2,0,P|388:253|409:248,1,45
448,226,60684,1,0,1:0:0:0:
487,205,60765,1,0,0:0:0:0:
512,169,60846,1,2,0:0:0:0:
512,126,60927,1,0,0:0:0:0:
512,82,61008,1,8,0:0:0:0:
483,48,61089,1,0,0:0:0:0:
440,34,61170,1,0,0:0:0:0:
395,37,61251,1,0,0:0:0:0:
357,61,61332,6,0,L|366:114,1,45,0|0,1:0|0:0,0:0:0:0:
246,154,61495,2,0,L|261:111,1,45,2|0,0:0|0:0,0:0:0:0:
226,27,61657,6,0,L|182:8,1,45,8|0,0:0|0:0,0:0:0:0:
94,46,61819,1,0,1:0:0:0:
94,46,61900,1,8,0:0:0:0:
94,46,61981,2,0,L|102:99,1,45,0|0,1:0|0:0,0:0:0:0:
260,111,62143,2,0,L|245:153,1,45,2|0,0:0|0:0,0:0:0:0:
36,192,62305,6,0,L|44:236,1,45,10|0,0:0|0:0,0:0:0:0:
200,294,62468,2,0,L|192:338,1,45,2|0,0:0|0:0,0:0:0:0:
122,268,62630,6,0,L|132:146,1,112.5,4|0,0:0|0:0,0:0:0:0:
166,75,62873,1,0,0:0:0:0:
203,50,62954,1,8,0:0:0:0:
247,41,63035,1,0,0:0:0:0:
291,49,63116,2,0,P|320:59|341:79,1,56.25
420,112,63278,1,0,1:0:0:0:
444,147,63359,1,0,0:0:0:0:
458,190,63441,1,2,0:0:0:0:
452,234,63522,1,0,0:0:0:0:
427,271,63603,2,0,B|401:261|401:261|368:263,3,56.25,8|0|0|0,0:0|0:0|0:0|0:0,0:0:0:0:
312,329,63927,5,0,1:0:0:0:
267,337,64008,1,0,0:0:0:0:
222,345,64089,1,2,0:0:0:0:
178,356,64170,1,0,0:0:0:0:
134,367,64251,2,0,L|142:306,3,56.25,8|0|2|0,0:0|0:0|0:0|0:0,0:0:0:0:
188,233,64576,1,0,1:0:0:0:
182,188,64657,1,0,0:0:0:0:
177,143,64738,1,2,0:0:0:0:
144,173,64819,1,0,0:0:0:0:
111,204,64900,6,0,L|119:144,1,56.25,10|0,0:0|0:0,0:0:0:0:
32,121,65062,2,0,L|40:61,1,56.25
120,27,65224,6,0,B|164:29|164:29|183:44|183:44|235:45,1,112.5,0|0,1:0|0:0,0:0:0:0:
284,115,65468,1,0,0:0:0:0:
328,115,65549,1,8,0:0:0:0:
370,101,65630,1,0,0:0:0:0:
407,75,65711,2,0,P|427:55|431:29,1,56.25
344,2,65873,1,0,1:0:0:0:
349,46,65954,1,0,0:0:0:0:
354,90,66035,1,2,0:0:0:0:
359,134,66116,1,0,0:0:0:0:
363,178,66197,2,0,P|335:188|301:188,3,56.25,8|0|0|0,0:0|0:0|0:0|0:0,0:0:0:0:
225,227,66522,5,0,1:0:0:0:
202,265,66603,1,0,0:0:0:0:
201,309,66684,1,2,0:0:0:0:
221,348,66765,1,0,0:0:0:0:
259,372,66846,1,8,0:0:0:0:
303,375,66927,1,0,0:0:0:0:
335,342,67008,1,0,1:0:0:0:
380,345,67089,1,8,0:0:0:0:
420,324,67170,6,0,L|411:266,1,56.25,0|0,1:0|0:0,0:0:0:0:
397,156,67332,2,0,L|388:98,1,56.25,2|0,0:0|0:0,0:0:0:0:
275,90,67495,2,0,L|253:144,1,56.25,10|0,0:0|0:0,0:0:0:0:
211,247,67657,2,0,L|189:301,1,56.25,2|0,0:0|0:0,0:0:0:0:
77,288,67819,6,0,L|59:172,1,112.5,4|0,0:0|0:0,0:0:0:0:
98,95,68062,1,0,0:0:0:0:
98,95,68143,2,0,P|128:92|157:102,1,56.25,8|0,0:0|0:0,0:0:0:0:
229,146,68305,2,0,P|259:149|288:139,1,56.25
349,78,68468,1,0,1:0:0:0:
317,45,68549,1,0,0:0:0:0:
274,30,68630,1,2,0:0:0:0:
227,38,68711,1,0,0:0:0:0:
191,65,68792,1,8,0:0:0:0:
172,105,68873,1,0,0:0:0:0:
174,149,68954,1,0,0:0:0:0:
194,189,69035,1,0,0:0:0:0:
228,217,69116,6,0,B|205:311|205:311|230:295,1,112.5,0|2,1:0|0:0,0:0:0:0:
297,345,69359,1,0,0:0:0:0:
297,345,69441,2,0,P|328:343|365:327,1,56.25,8|0,0:0|0:0,0:0:0:0:
437,307,69603,2,0,P|458:283|472:246,1,56.25,2|0,0:0|0:0,0:0:0:0:
458,172,69765,1,0,1:0:0:0:
428,138,69846,1,0,0:0:0:0:
383,133,69927,1,2,0:0:0:0:
340,146,70008,1,0,0:0:0:0:
313,182,70089,1,10,0:0:0:0:
321,137,70170,1,0,0:0:0:0:
329,92,70251,1,0,0:0:0:0:
337,47,70332,1,0,0:0:0:0:
341,1,70414,6,0,L|280:17,1,56.25,4|0,0:0|0:0,0:0:0:0:
115,60,70576,2,0,L|169:45,1,56.25
370,119,70738,6,0,L|309:135,1,56.25,8|0,0:0|0:0,0:0:0:0:
144,178,70900,2,0,L|198:163,1,56.25
402,228,71062,6,0,L|341:244,1,56.25,0|0,1:0|0:0,0:0:0:0:
176,287,71224,2,0,L|230:272,1,56.25,2|0,0:0|0:0,0:0:0:0:
401,282,71387,6,0,L|340:266,1,56.25,8|0,0:0|0:0,0:0:0:0:
175,223,71549,2,0,L|229:237,1,56.25
312,365,71711,6,0,L|296:304,1,56.25,4|0,0:0|0:0,0:0:0:0:
253,139,71873,2,0,L|267:193,1,56.25,2|0,0:0|0:0,0:0:0:0:
259,365,72035,6,0,L|275:304,1,56.25,8|0,0:0|0:0,0:0:0:0:
318,139,72197,2,0,L|303:193,1,56.25,0|8,1:0|0:0,0:0:0:0:
314,282,72359,5,0,1:0:0:0:
314,282,72441,1,0,1:0:0:0:
314,282,72522,1,0,1:0:0:0:
314,282,72603,1,0,1:0:0:0:
314,282,72684,5,10,0:0:0:0:
314,282,72765,1,8,0:0:0:0:
314,282,72846,5,10,0:0:0:0:
314,282,72927,1,8,0:0:0:0:
314,282,73008,5,4,0:0:0:0:
410,313,83387,5,4,0:3:0:0:
424,242,83549,1,2,0:0:0:0:
422,234,83711,1,0,0:0:0:0:
420,226,83873,1,0,0:0:0:0:
484,342,84035,1,2,0:0:0:0:
494,350,84359,1,0,0:0:0:0:
354,356,84522,6,0,B|306:348|306:348|274:364|274:364|221:357,1,135.000005149842,2|0,0:0|0:0,0:0:0:0:
165,324,85008,2,0,B|141:295|141:295|139:255,1,67.5000025749208,2|0,0:0|0:0,0:0:0:0:
168,204,85332,1,0,0:0:0:0:
235,212,85495,2,0,B|259:241|259:241|261:281,2,67.5000025749208,2|0|2,0:0|0:0|0:0,0:0:0:0:
102,71,85981,5,0,0:0:0:0:
88,142,86143,1,2,0:0:0:0:
90,150,86305,1,0,0:0:0:0:
92,158,86467,1,0,0:0:0:0:
28,42,86629,1,2,0:0:0:0:
18,34,86953,1,0,0:0:0:0:
158,28,87116,6,0,B|206:36|206:36|238:20|238:20|291:27,1,135.000005149842,2|0,0:0|0:0,0:0:0:0:
347,60,87602,2,0,B|371:89|371:89|373:129,1,67.5000025749208,2|0,0:0|0:0,0:0:0:0:
344,180,87926,1,0,0:0:0:0:
227,245,88089,2,0,L|297:237,1,67.5000025749208,2|0,0:0|0:0,0:0:0:0:
194,363,88414,2,0,P|181:332|186:297,1,67.5000025749208,2|0,0:0|0:0,0:0:0:0:
348,288,88738,6,0,P|361:319|356:354,2,67.5000025749208,2|0|0,0:0|0:0|0:0,0:0:0:0:
294,222,89224,2,0,L|153:238,1,135.000005149842,2|0,0:0|0:0,0:0:0:0:
428,237,89711,2,0,L|294:221,1,135.000005149842,2|0,0:0|0:0,0:0:0:0:
494,198,90197,2,0,P|501:158|488:124,1,67.5000025749208,2|0,0:0|0:0,0:0:0:0:
454,305,90522,5,0,0:0:0:0:
366,161,90684,1,2,0:0:0:0:
437,238,90846,1,0,0:0:0:0:
394,66,91008,1,2,0:0:0:0:
260,190,91170,5,4,0:0:0:0:
261,194,91251,1,8,0:0:0:0:
262,198,91332,1,8,0:0:0:0:
263,202,91414,1,8,0:0:0:0:
264,206,91495,1,10,0:0:0:0:
265,210,91576,1,8,0:0:0:0:
266,214,91657,1,8,0:0:0:0:
267,218,91738,1,8,0:0:0:0:
247,289,91819,5,10,0:0:0:0:
248,293,91900,1,8,0:0:0:0:
249,297,91981,1,8,0:0:0:0:
250,301,92063,1,8,0:0:0:0:
202,356,92143,5,10,0:0:0:0:
203,360,92224,1,8,0:0:0:0:
204,364,92305,1,10,0:0:0:0:
205,368,92387,1,8,0:0:0:0:
129,341,92468,5,0,1:0:0:0:
125,342,92549,1,0,0:0:0:0:
121,343,92630,1,0,1:0:0:0:
117,344,92711,2,0,L|70:343,1,45,0|10,0:0|0:0,0:0:0:0:
301,349,92954,5,0,1:0:0:0:
305,348,93035,1,0,0:0:0:0:
309,347,93116,1,0,1:0:0:0:
313,346,93197,2,0,L|360:347,1,45,0|10,0:0|0:0,0:0:0:0:
193,140,93441,6,0,L|201:229,1,90,0|0,1:0|1:0,0:0:0:0:
117,74,93765,5,4,0:0:0:0:
295,106,93927,1,0,0:0:0:0:
178,243,94089,1,8,0:0:0:0:
192,140,94251,1,0,0:0:0:0:
192,140,94332,1,0,0:0:0:0:
192,140,94414,2,0,L|292:152,1,90,0|2,1:0|0:0,0:0:0:0:
118,168,94738,1,8,0:0:0:0:
206,65,94900,1,0,0:0:0:0:
252,192,95062,6,0,P|208:228|172:224,1,90,0|2,1:0|0:0,0:0:0:0:
117,74,95387,5,8,0:0:0:0:
33,190,95549,1,2,0:0:0:0:
33,190,95630,1,0,0:0:0:0:
33,190,95711,1,0,1:0:0:0:
254,118,95873,1,2,0:0:0:0:
118,306,96035,1,10,0:0:0:0:
254,262,96197,1,0,0:0:0:0:
394,306,96359,5,0,1:0:0:0:
488,93,96522,1,0,0:0:0:0:
254,118,96684,1,8,0:0:0:0:
384,179,96846,1,0,0:0:0:0:
384,179,96927,1,0,0:0:0:0:
384,179,97008,2,0,L|483:185,1,90,0|2,1:0|0:0,0:0:0:0:
363,62,97332,2,0,P|332:18|285:2,1,90,8|0,0:0|0:0,0:0:0:0:
213,219,97657,6,0,P|266:228|310:206,1,90,4|2,0:0|0:0,0:0:0:0:
165,63,97981,2,0,P|114:81|86:122,1,90,8|2,0:0|0:0,0:0:0:0:
77,131,98224,1,0,0:0:0:0:
64,152,98305,2,0,L|71:52,1,90,4|2,0:0|0:0,0:0:0:0:
227,19,98630,2,0,P|270:38|297:84,1,90,10|2,0:0|0:0,0:0:0:0:
409,185,98954,6,0,P|452:166|479:120,1,90,4|0,0:0|0:0,0:0:0:0:
452,44,99278,1,8,0:0:0:0:
344,140,99441,1,0,0:0:0:0:
344,140,99522,1,0,0:0:0:0:
344,140,99603,2,0,P|332:192|344:228,1,90,0|2,1:0|0:0,0:0:0:0:
492,352,99927,2,0,P|490:298|469:266,1,90,8|0,0:0|0:0,0:0:0:0:
280,312,100251,6,0,B|144:300|144:300|188:276,1,180,0|8,1:0|0:0,0:0:0:0:
32,180,100738,2,0,B|92:184|92:184|136:164|136:164|212:172,1,180,2|2,0:0|0:0,0:0:0:0:
348,152,101224,2,0,P|308:120|252:120,1,90,10|0,0:0|0:0,0:0:0:0:
270,115,101468,1,0,0:0:0:0:
270,115,101549,6,0,L|368:100,1,90,0|0,1:0|0:0,0:0:0:0:
448,88,101873,1,8,0:0:0:0:
272,52,102035,2,0,L|369:67,1,90,0|0,0:0|1:0,0:0:0:0:
448,88,102359,1,2,0:0:0:0:
304,196,102522,2,0,P|224:190|196:139,1,135,8|0,0:0|0:0,0:0:0:0:
204,120,102846,6,0,L|104:132,1,90,0|2,1:0|0:0,0:0:0:0:
24,140,103170,1,8,0:0:0:0:
92,224,103332,1,2,0:0:0:0:
88,252,103414,1,0,0:0:0:0:
84,280,103495,1,0,1:0:0:0:
196,188,103657,1,2,0:0:0:0:
0,312,103819,1,10,0:0:0:0:
172,364,103981,1,2,0:0:0:0:
96,196,104143,5,4,0:0:0:0:
276,217,104305,1,0,0:0:0:0:
172,364,104467,1,8,0:0:0:0:
96,196,104630,1,0,0:0:0:0:
276,216,104792,2,0,P|276:260|236:296,1,90,0|2,1:0|0:0,0:0:0:0:
180,228,105116,1,8,0:0:0:0:
332,132,105278,1,0,0:0:0:0:
332,132,105359,1,0,0:0:0:0:
332,132,105441,6,0,L|424:144,1,90,0|2,1:0|0:0,0:0:0:0:
512,303,105765,2,0,P|480:326|436:324,1,90,8|2,0:0|0:0,0:0:0:0:
363,319,106008,2,0,L|371:371,1,45,0|0,0:0|1:0,0:0:0:0:
456,236,106251,1,2,0:0:0:0:
282,130,106414,1,10,0:0:0:0:
253,254,106576,1,0,0:0:0:0:
407,119,106738,5,0,1:0:0:0:
209,65,106900,1,0,0:0:0:0:
253,254,107062,1,8,0:0:0:0:
407,119,107224,1,0,0:0:0:0:
286,151,107387,2,0,L|188:155,1,90,0|2,1:0|0:0,0:0:0:0:
68,221,107711,2,0,P|61:269|87:309,1,90,8|0,0:0|0:0,0:0:0:0:
143,339,107954,1,0,0:0:0:0:
143,339,108035,6,0,L|240:333,1,90,4|2,0:0|0:0,0:0:0:0:
279,278,108278,2,0,P|282:254|269:234,1,45,0|8,0:0|0:0,0:0:0:0:
79,329,108522,2,0,P|75:353|88:373,1,45,2|0,0:0|0:0,0:0:0:0:
156,379,108684,2,0,L|253:373,1,90,4|2,0:0|0:0,0:0:0:0:
358,359,108927,2,0,B|344:379|321:382,1,45,0|10,0:0|0:0,0:0:0:0:
203,263,109170,1,2,0:0:0:0:
185,242,109251,1,0,0:0:0:0:
167,221,109332,6,0,L|75:227,1,90,4|0,0:0|0:0,0:0:0:0:
9,166,109657,1,8,0:0:0:0:
137,100,109819,1,0,0:0:0:0:
137,100,109900,1,0,0:0:0:0:
137,100,109981,2,0,P|185:97|230:126,1,90,0|2,1:0|0:0,0:0:0:0:
228,316,110305,2,0,P|187:342|134:339,1,90,8|0,0:0|0:0,0:0:0:0:
167,221,110630,6,0,B|258:240|250:193|350:224,1,180,0|8,1:0|0:0,0:0:0:0:
175,210,111116,2,0,B|40:202|40:202|81:233,1,180,2|2,0:0|0:0,0:0:0:0:
220,282,111603,2,0,P|252:241|247:196,1,90,10|0,0:0|0:0,0:0:0:0:
134,57,111927,5,4,0:0:0:0:
167,221,112089,1,0,0:0:0:0:
134,57,112251,2,0,B|90:53|90:53|42:67,1,90,8|0,0:0|0:0,0:0:0:0:
167,221,112576,2,0,B|211:225|211:225|259:211,2,90,0|2|8,1:0|0:0|0:0,0:0:0:0:
198,43,113062,1,0,0:0:0:0:
303,140,113224,5,0,1:0:0:0:
334,156,113305,1,0,1:0:0:0:
370,159,113386,1,0,1:0:0:0:
404,147,113467,1,0,1:0:0:0:
430,123,113548,1,8,0:0:0:0:
444,90,113629,1,0,1:0:0:0:
442,54,113711,1,0,1:0:0:0:
424,22,113792,1,0,0:0:0:0:
391,6,113873,1,8,0:0:0:0:
376,16,113954,1,0,0:0:0:0:
362,20,114035,1,10,0:0:0:0:
348,25,114116,1,0,0:0:0:0:
335,31,114197,2,0,L|257:25,1,72,10|10,0:0|0:0,0:0:0:0:
179,60,114522,5,4,0:0:0:0:
123,152,114684,2,0,L|136:224,1,67.5000025749208,2|0,0:0|0:0,0:0:0:0:
134,218,115008,1,0,0:0:0:0:
239,191,115170,2,0,L|226:263,1,67.5000025749208,2|0,0:0|0:0,0:0:0:0:
227,258,115494,1,0,0:0:0:0:
108,295,115657,6,0,L|36:282,1,67.5000025749208,2|0,0:0|0:0,0:0:0:0:
42,284,115981,1,0,0:0:0:0:
153,365,116143,2,0,P|190:367|230:346,1,67.5000025749208,2|0,0:0|0:0,0:0:0:0:
277,323,116468,1,0,0:0:0:0:
334,357,116630,2,0,P|365:368|398:366,2,67.5000025749208,2|0|2,0:0|0:0|0:0,0:0:0:0:
375,303,117116,5,0,0:0:0:0:
431,211,117278,2,0,L|418:139,1,67.5000025749208,2|0,0:0|0:0,0:0:0:0:
420,145,117602,1,0,0:0:0:0:
315,172,117764,2,0,L|328:100,1,67.5000025749208,2|0,0:0|0:0,0:0:0:0:
327,105,118088,1,0,0:0:0:0:
387,73,118251,6,0,L|459:86,1,67.5000025749208,2|0,0:0|0:0,0:0:0:0:
453,84,118575,1,0,0:0:0:0:
411,14,118737,2,0,P|374:12|334:33,1,67.5000025749208,2|0,0:0|0:0,0:0:0:0:
283,49,119062,1,0,0:0:0:0:
249,107,119224,2,0,L|385:94,1,135.000005149842,2|2,0:0|0:0,0:0:0:0:
172,113,119711,5,4,0:3:0:0:
256,192,119792,12,0,123603,0:0:0:0:
