osu file format v14

[General]
AudioFilename: audio.mp3
AudioLeadIn: 0
PreviewTime: 22658
Countdown: 0
SampleSet: Soft
StackLeniency: 0.7
Mode: 3
LetterboxInBreaks: 0
SpecialStyle: 0
WidescreenStoryboard: 0

[Editor]
DistanceSpacing: 0.6
BeatDivisor: 4
GridSize: 8
TimelineZoom: 2.999999

[Metadata]
Title:SCHWARZSCHILD FIELD
TitleUnicode:SCHWARZSCHILD FIELD
Artist:L.E.D.
ArtistUnicode:L.E.D.
Creator:Awang411
Version:Theory of General Relativity
Source:REFLEC BEAT groovin'!!
Tags:beatmania IIDX 21 SPADA 発見!よみがえったBEMANI遺跡 Ura MYSTICAL STRIKE jacks
BeatmapID:1410746
BeatmapSetID:666549

[Difficulty]
HPDrainRate:9
CircleSize:4
OverallDifficulty:9
ApproachRate:5
SliderMultiplier:1.4
SliderTickRate:1

[Events]
//Background and Video events
0,0,"SCHWARZSCHILD FIELD-bg.png",0,0
//Break Periods
//Storyboard Layer 0 (Background)
//Storyboard Layer 1 (Fail)
//Storyboard Layer 2 (Pass)
//Storyboard Layer 3 (Foreground)
//Storyboard Sound Samples

[TimingPoints]
258,400,4,2,0,5,1,0

[HitObjects]
64,192,258,5,0,0:0:0:0:
320,192,258,1,0,0:0:0:0:
320,192,358,1,0,0:0:0:0:
320,192,458,1,0,0:0:0:0:
192,192,558,1,0,0:0:0:0:
192,192,658,1,0,0:0:0:0:
192,192,758,1,0,0:0:0:0:
448,192,858,1,0,0:0:0:0:
448,192,958,1,0,0:0:0:0:
448,192,1058,1,0,0:0:0:0:
64,192,1158,1,0,0:0:0:0:
64,192,1258,1,0,0:0:0:0:
64,192,1358,1,0,0:0:0:0:
320,192,1458,1,0,0:0:0:0:
320,192,1558,1,0,0:0:0:0:
192,192,1658,1,0,0:0:0:0:
192,192,1758,1,0,0:0:0:0:
448,192,1858,1,0,0:0:0:0:
320,192,1858,1,0,0:0:0:0:
448,192,1958,1,0,0:0:0:0:
448,192,2058,1,0,0:0:0:0:
64,192,2158,1,0,0:0:0:0:
64,192,2258,1,0,0:0:0:0:
64,192,2358,1,0,0:0:0:0:
320,192,2458,1,0,0:0:0:0:
320,192,2558,1,0,0:0:0:0:
320,192,2658,1,0,0:0:0:0:
192,192,2758,1,0,0:0:0:0:
192,192,2858,1,0,0:0:0:0:
192,192,2958,1,0,0:0:0:0:
320,192,3058,1,0,0:0:0:0:
320,192,3158,1,0,0:0:0:0:
64,192,3258,1,0,0:0:0:0:
64,192,3358,1,0,0:0:0:0:
448,192,3458,1,0,0:0:0:0:
192,192,3458,1,0,0:0:0:0:
448,192,3558,1,0,0:0:0:0:
448,192,3658,1,0,0:0:0:0:
192,192,3758,1,0,0:0:0:0:
192,192,3858,1,0,0:0:0:0:
192,192,3958,1,0,0:0:0:0:
448,192,4058,1,0,0:0:0:0:
448,192,4158,1,0,0:0:0:0:
448,192,4258,1,0,0:0:0:0:
64,192,4358,1,0,0:0:0:0:
64,192,4458,1,0,0:0:0:0:
64,192,4558,1,0,0:0:0:0:
320,192,4658,1,0,0:0:0:0:
320,192,4758,1,0,0:0:0:0:
192,192,4858,1,0,0:0:0:0:
192,192,4958,1,0,0:0:0:0:
448,192,5058,1,0,0:0:0:0:
448,192,5158,1,0,0:0:0:0:
448,192,5258,1,0,0:0:0:0:
64,192,5358,1,0,0:0:0:0:
64,192,5458,1,0,0:0:0:0:
64,192,5558,1,0,0:0:0:0:
320,192,5658,1,0,0:0:0:0:
320,192,5758,1,0,0:0:0:0:
320,192,5858,1,0,0:0:0:0:
64,192,5958,1,0,0:0:0:0:
64,192,6058,1,0,0:0:0:0:
64,192,6158,1,0,0:0:0:0:
320,192,6258,1,0,0:0:0:0:
448,192,6258,1,0,0:0:0:0:
320,192,6358,1,0,0:0:0:0:
448,192,6358,1,0,0:0:0:0:
64,192,6458,1,0,0:0:0:0:
192,192,6458,1,0,0:0:0:0:
64,192,6558,1,0,0:0:0:0:
192,192,6558,1,0,0:0:0:0:
64,192,6658,1,0,0:0:0:0:
192,192,6658,1,0,0:0:0:0:
320,192,6658,1,0,0:0:0:0:
448,192,6658,1,0,0:0:0:0:
320,192,7858,1,0,0:0:0:0:
448,192,7858,1,0,0:0:0:0:
192,192,7858,1,0,0:0:0:0:
192,192,8258,1,0,0:0:0:0:
320,192,8258,1,0,0:0:0:0:
448,192,8258,1,0,0:0:0:0:
448,192,8858,1,0,0:0:0:0:
192,192,8858,1,0,0:0:0:0:
64,192,8858,1,0,0:0:0:0:
192,192,9258,1,0,0:0:0:0:
320,192,9258,1,0,0:0:0:0:
448,192,9258,1,0,0:0:0:0:
64,192,9458,1,0,0:0:0:0:
320,192,9458,1,0,0:0:0:0:
448,192,9458,1,0,0:0:0:0:
64,192,9658,1,0,0:0:0:0:
192,192,9658,1,0,0:0:0:0:
448,192,9658,1,0,0:0:0:0:
64,192,9858,1,0,0:0:0:0:
192,192,9858,1,0,0:0:0:0:
320,192,9858,1,0,0:0:0:0:
448,192,9858,1,0,0:0:0:0:
448,192,11458,1,0,0:0:0:0:
320,192,11458,1,0,0:0:0:0:
448,192,11558,1,0,0:0:0:0:
320,192,11558,1,0,0:0:0:0:
320,192,11658,1,0,0:0:0:0:
192,192,11658,1,0,0:0:0:0:
320,192,11758,1,0,0:0:0:0:
192,192,11758,1,0,0:0:0:0:
64,192,11858,1,0,0:0:0:0:
192,192,11858,1,0,0:0:0:0:
64,192,11958,1,0,0:0:0:0:
192,192,11958,1,0,0:0:0:0:
448,192,12158,1,0,0:0:0:0:
192,192,12158,1,0,0:0:0:0:
320,192,12158,1,0,0:0:0:0:
64,192,12358,1,0,0:0:0:0:
320,192,12358,1,0,0:0:0:0:
448,192,12358,1,0,0:0:0:0:
64,192,12558,1,0,0:0:0:0:
192,192,12558,1,0,0:0:0:0:
448,192,12558,1,0,0:0:0:0:
64,192,12758,1,0,0:0:0:0:
192,192,12758,1,0,0:0:0:0:
192,192,12858,1,0,0:0:0:0:
320,192,12858,1,0,0:0:0:0:
320,192,12958,1,0,0:0:0:0:
448,192,12958,1,0,0:0:0:0:
64,192,14658,1,0,0:0:0:0:
192,192,14658,1,0,0:0:0:0:
448,192,14658,1,0,0:0:0:0:
192,192,14858,1,0,0:0:0:0:
320,192,14858,1,0,0:0:0:0:
448,192,15058,1,0,0:0:0:0:
320,192,15058,1,0,0:0:0:0:
64,192,15058,1,0,0:0:0:0:
64,192,15258,1,0,0:0:0:0:
192,192,15258,1,0,0:0:0:0:
448,192,15458,1,0,0:0:0:0:
320,192,15458,1,0,0:0:0:0:
192,192,15458,1,0,0:0:0:0:
448,192,15658,1,0,0:0:0:0:
64,192,15658,1,0,0:0:0:0:
64,192,15858,1,0,0:0:0:0:
192,192,15858,1,0,0:0:0:0:
320,192,15858,1,0,0:0:0:0:
448,192,16058,1,0,0:0:0:0:
320,192,16058,1,0,0:0:0:0:
64,192,16258,1,0,0:0:0:0:
192,192,16258,1,0,0:0:0:0:
448,192,16258,1,0,0:0:0:0:
320,192,16458,1,0,0:0:0:0:
64,192,16458,1,0,0:0:0:0:
192,192,16658,1,0,0:0:0:0:
320,192,16658,1,0,0:0:0:0:
448,192,16658,1,0,0:0:0:0:
64,192,16858,1,0,0:0:0:0:
320,192,16858,1,0,0:0:0:0:
320,192,17058,1,0,0:0:0:0:
448,192,17058,1,0,0:0:0:0:
320,192,17158,1,0,0:0:0:0:
448,192,17158,1,0,0:0:0:0:
320,192,17258,1,0,0:0:0:0:
448,192,17258,1,0,0:0:0:0:
320,192,17358,1,0,0:0:0:0:
448,192,17358,1,0,0:0:0:0:
192,192,17458,1,0,0:0:0:0:
64,192,17558,1,0,0:0:0:0:
64,192,17658,1,0,0:0:0:0:
320,192,17658,1,0,0:0:0:0:
64,192,17758,1,0,0:0:0:0:
320,192,17758,1,0,0:0:0:0:
64,192,17858,1,0,0:0:0:0:
192,192,17858,1,0,0:0:0:0:
320,192,17858,1,0,0:0:0:0:
448,192,17858,1,0,0:0:0:0:
64,192,18158,1,0,0:0:0:0:
192,192,18158,1,0,0:0:0:0:
320,192,18158,1,0,0:0:0:0:
448,192,18158,1,0,0:0:0:0:
64,192,18458,1,0,0:0:0:0:
192,192,18458,1,0,0:0:0:0:
320,192,18458,1,0,0:0:0:0:
448,192,18458,1,0,0:0:0:0:
64,192,18758,1,0,0:0:0:0:
192,192,18758,1,0,0:0:0:0:
320,192,18758,1,0,0:0:0:0:
448,192,18758,1,0,0:0:0:0:
64,192,19058,1,0,0:0:0:0:
192,192,19058,1,0,0:0:0:0:
320,192,19058,1,0,0:0:0:0:
448,192,19058,1,0,0:0:0:0:
64,192,19158,1,0,0:0:0:0:
192,192,19158,1,0,0:0:0:0:
320,192,19158,1,0,0:0:0:0:
448,192,19158,1,0,0:0:0:0:
448,192,19258,1,0,0:0:0:0:
320,192,19258,1,0,0:0:0:0:
64,192,19258,1,0,0:0:0:0:
192,192,19258,1,0,0:0:0:0:
64,192,19358,1,0,0:0:0:0:
192,192,19358,1,0,0:0:0:0:
320,192,19358,1,0,0:0:0:0:
448,192,19358,1,0,0:0:0:0:
192,192,19458,1,0,0:0:0:0:
448,192,19458,1,0,0:0:0:0:
192,192,19558,1,0,0:0:0:0:
448,192,19558,1,0,0:0:0:0:
64,192,19658,1,0,0:0:0:0:
320,192,19658,1,0,0:0:0:0:
64,192,19758,1,0,0:0:0:0:
320,192,19758,1,0,0:0:0:0:
192,192,19858,1,0,0:0:0:0:
448,192,19858,1,0,0:0:0:0:
192,192,19958,1,0,0:0:0:0:
448,192,19958,1,0,0:0:0:0:
320,192,20058,1,0,0:0:0:0:
192,192,20158,1,0,0:0:0:0:
64,192,20158,1,0,0:0:0:0:
64,192,20258,1,0,0:0:0:0:
192,192,20358,1,0,0:0:0:0:
320,192,20358,1,0,0:0:0:0:
320,192,20458,1,0,0:0:0:0:
448,192,20558,1,0,0:0:0:0:
192,192,20558,1,0,0:0:0:0:
192,192,20658,1,0,0:0:0:0:
320,192,20758,1,0,0:0:0:0:
448,192,20758,1,0,0:0:0:0:
192,192,20858,1,0,0:0:0:0:
320,192,20858,1,0,0:0:0:0:
64,192,20958,1,0,0:0:0:0:
192,192,20958,1,0,0:0:0:0:
448,192,21058,1,0,0:0:0:0:
320,192,21058,1,0,0:0:0:0:
448,192,21158,1,0,0:0:0:0:
192,192,21258,1,0,0:0:0:0:
64,192,21258,1,0,0:0:0:0:
192,192,21358,1,0,0:0:0:0:
320,192,21458,1,0,0:0:0:0:
448,192,21458,1,0,0:0:0:0:
320,192,21558,1,0,0:0:0:0:
64,192,21658,1,0,0:0:0:0:
192,192,21658,1,0,0:0:0:0:
64,192,21758,1,0,0:0:0:0:
320,192,21858,1,0,0:0:0:0:
448,192,21858,1,0,0:0:0:0:
320,192,21958,1,0,0:0:0:0:
448,192,21958,1,0,0:0:0:0:
64,192,22058,1,0,0:0:0:0:
192,192,22058,1,0,0:0:0:0:
64,192,22158,1,0,0:0:0:0:
192,192,22158,1,0,0:0:0:0:
320,192,22258,1,0,0:0:0:0:
448,192,22258,1,0,0:0:0:0:
320,192,22358,1,0,0:0:0:0:
448,192,22358,1,0,0:0:0:0:
64,192,22458,1,0,0:0:0:0:
192,192,22458,1,0,0:0:0:0:
64,192,22558,1,0,0:0:0:0:
192,192,22558,1,0,0:0:0:0:
320,192,22658,1,0,0:0:0:0:
448,192,22658,1,0,0:0:0:0:
192,192,22658,1,0,0:0:0:0:
64,192,22658,1,0,0:0:0:0:
320,192,22758,1,0,0:0:0:0:
64,192,22858,1,0,0:0:0:0:
448,192,22858,1,0,0:0:0:0:
192,192,22958,1,0,0:0:0:0:
64,192,23058,1,0,0:0:0:0:
320,192,23058,1,0,0:0:0:0:
448,192,23058,1,0,0:0:0:0:
320,192,23158,1,0,0:0:0:0:
64,192,23258,1,0,0:0:0:0:
448,192,23258,1,0,0:0:0:0:
192,192,23358,1,0,0:0:0:0:
448,192,23458,1,0,0:0:0:0:
320,192,23458,1,0,0:0:0:0:
64,192,23458,1,0,0:0:0:0:
320,192,23558,1,0,0:0:0:0:
64,192,23658,1,0,0:0:0:0:
192,192,23658,1,0,0:0:0:0:
448,192,23758,1,0,0:0:0:0:
320,192,23858,1,0,0:0:0:0:
192,192,23858,1,0,0:0:0:0:
64,192,23858,1,0,0:0:0:0:
320,192,23958,1,0,0:0:0:0:
64,192,24058,1,0,0:0:0:0:
448,192,24058,1,0,0:0:0:0:
320,192,24158,1,0,0:0:0:0:
64,192,24258,1,0,0:0:0:0:
192,192,24258,1,0,0:0:0:0:
448,192,24258,1,0,0:0:0:0:
192,192,24358,1,0,0:0:0:0:
320,192,24458,1,0,0:0:0:0:
448,192,24458,1,0,0:0:0:0:
64,192,24558,1,0,0:0:0:0:
192,192,24658,1,0,0:0:0:0:
320,192,24658,1,0,0:0:0:0:
448,192,24658,1,0,0:0:0:0:
192,192,24758,1,0,0:0:0:0:
64,192,24858,1,0,0:0:0:0:
448,192,24858,1,0,0:0:0:0:
320,192,24958,1,0,0:0:0:0:
192,192,25058,1,0,0:0:0:0:
64,192,25058,1,0,0:0:0:0:
448,192,25058,1,0,0:0:0:0:
192,192,25158,1,0,0:0:0:0:
320,192,25258,1,0,0:0:0:0:
64,192,25258,1,0,0:0:0:0:
448,192,25358,1,0,0:0:0:0:
192,192,25458,1,0,0:0:0:0:
320,192,25458,1,0,0:0:0:0:
64,192,25458,1,0,0:0:0:0:
192,192,25558,1,0,0:0:0:0:
64,192,25658,1,0,0:0:0:0:
448,192,25658,1,0,0:0:0:0:
320,192,25758,1,0,0:0:0:0:
448,192,25858,1,0,0:0:0:0:
64,192,25858,1,0,0:0:0:0:
192,192,25858,1,0,0:0:0:0:
448,192,25958,1,0,0:0:0:0:
320,192,26058,1,0,0:0:0:0:
192,192,26058,1,0,0:0:0:0:
64,192,26158,1,0,0:0:0:0:
448,192,26258,1,0,0:0:0:0:
192,192,26258,1,0,0:0:0:0:
320,192,26258,1,0,0:0:0:0:
448,192,26358,1,0,0:0:0:0:
64,192,26458,1,0,0:0:0:0:
192,192,26458,1,0,0:0:0:0:
320,192,26558,1,0,0:0:0:0:
448,192,26658,1,0,0:0:0:0:
64,192,26658,1,0,0:0:0:0:
192,192,26658,1,0,0:0:0:0:
448,192,26758,1,0,0:0:0:0:
320,192,26858,1,0,0:0:0:0:
64,192,26858,1,0,0:0:0:0:
192,192,26958,1,0,0:0:0:0:
448,192,27058,1,0,0:0:0:0:
320,192,27058,1,0,0:0:0:0:
64,192,27058,1,0,0:0:0:0:
448,192,27158,1,0,0:0:0:0:
64,192,27258,1,0,0:0:0:0:
192,192,27258,1,0,0:0:0:0:
320,192,27258,1,0,0:0:0:0:
192,192,27358,1,0,0:0:0:0:
64,192,27458,1,0,0:0:0:0:
448,192,27458,1,0,0:0:0:0:
320,192,27458,1,0,0:0:0:0:
64,192,27558,1,0,0:0:0:0:
192,192,27658,1,0,0:0:0:0:
320,192,27658,1,0,0:0:0:0:
448,192,27758,1,0,0:0:0:0:
64,192,27858,1,0,0:0:0:0:
192,192,27858,1,0,0:0:0:0:
320,192,27858,1,0,0:0:0:0:
64,192,27958,1,0,0:0:0:0:
192,192,28058,1,0,0:0:0:0:
448,192,28058,1,0,0:0:0:0:
320,192,28158,1,0,0:0:0:0:
64,192,28258,1,0,0:0:0:0:
192,192,28258,1,0,0:0:0:0:
448,192,28258,1,0,0:0:0:0:
64,192,28358,1,0,0:0:0:0:
320,192,28458,1,0,0:0:0:0:
448,192,28458,1,0,0:0:0:0:
192,192,28558,1,0,0:0:0:0:
64,192,28658,1,0,0:0:0:0:
320,192,28658,1,0,0:0:0:0:
448,192,28658,1,0,0:0:0:0:
64,192,28758,1,0,0:0:0:0:
320,192,28858,1,0,0:0:0:0:
448,192,28858,1,0,0:0:0:0:
320,192,28958,1,0,0:0:0:0:
448,192,28958,1,0,0:0:0:0:
64,192,29058,1,0,0:0:0:0:
192,192,29058,1,0,0:0:0:0:
320,192,29058,1,0,0:0:0:0:
448,192,29058,1,0,0:0:0:0:
192,192,29158,1,0,0:0:0:0:
320,192,29258,1,0,0:0:0:0:
448,192,29258,1,0,0:0:0:0:
64,192,29358,1,0,0:0:0:0:
192,192,29458,1,0,0:0:0:0:
320,192,29458,1,0,0:0:0:0:
448,192,29458,1,0,0:0:0:0:
192,192,29558,1,0,0:0:0:0:
64,192,29658,1,0,0:0:0:0:
448,192,29658,1,0,0:0:0:0:
320,192,29758,1,0,0:0:0:0:
192,192,29858,1,0,0:0:0:0:
64,192,29858,1,0,0:0:0:0:
448,192,29858,1,0,0:0:0:0:
192,192,29958,1,0,0:0:0:0:
320,192,30058,1,0,0:0:0:0:
64,192,30158,1,0,0:0:0:0:
192,192,30258,1,0,0:0:0:0:
320,192,30258,1,0,0:0:0:0:
448,192,30258,1,0,0:0:0:0:
192,192,30358,1,0,0:0:0:0:
64,192,30458,1,0,0:0:0:0:
448,192,30458,1,0,0:0:0:0:
192,192,30558,1,0,0:0:0:0:
320,192,30658,1,0,0:0:0:0:
64,192,30658,1,0,0:0:0:0:
448,192,30658,1,0,0:0:0:0:
320,192,30758,1,0,0:0:0:0:
192,192,30858,1,0,0:0:0:0:
448,192,30858,1,0,0:0:0:0:
64,192,30958,1,0,0:0:0:0:
320,192,31058,1,0,0:0:0:0:
448,192,31058,1,0,0:0:0:0:
192,192,31058,1,0,0:0:0:0:
320,192,31158,1,0,0:0:0:0:
64,192,31258,1,0,0:0:0:0:
192,192,31258,1,0,0:0:0:0:
448,192,31358,1,0,0:0:0:0:
320,192,31458,1,0,0:0:0:0:
64,192,31458,1,0,0:0:0:0:
192,192,31458,1,0,0:0:0:0:
320,192,31558,1,0,0:0:0:0:
448,192,31658,1,0,0:0:0:0:
64,192,31658,1,0,0:0:0:0:
192,192,31758,1,0,0:0:0:0:
320,192,31858,1,0,0:0:0:0:
448,192,31858,1,0,0:0:0:0:
64,192,31858,1,0,0:0:0:0:
320,192,31958,1,0,0:0:0:0:
192,192,32058,1,0,0:0:0:0:
64,192,32058,1,0,0:0:0:0:
448,192,32158,1,0,0:0:0:0:
64,192,32258,1,0,0:0:0:0:
320,192,32258,1,0,0:0:0:0:
448,192,32258,1,0,0:0:0:0:
192,192,32258,1,0,0:0:0:0:
64,192,32358,1,0,0:0:0:0:
192,192,32458,1,0,0:0:0:0:
448,192,32458,1,0,0:0:0:0:
320,192,32558,1,0,0:0:0:0:
64,192,32658,1,0,0:0:0:0:
192,192,32658,1,0,0:0:0:0:
448,192,32658,1,0,0:0:0:0:
64,192,32758,1,0,0:0:0:0:
320,192,32858,1,0,0:0:0:0:
448,192,32858,1,0,0:0:0:0:
192,192,32958,1,0,0:0:0:0:
64,192,33058,1,0,0:0:0:0:
320,192,33058,1,0,0:0:0:0:
448,192,33058,1,0,0:0:0:0:
64,192,33158,1,0,0:0:0:0:
192,192,33258,1,0,0:0:0:0:
320,192,33258,1,0,0:0:0:0:
448,192,33258,1,0,0:0:0:0:
448,192,33358,1,0,0:0:0:0:
64,192,33458,1,0,0:0:0:0:
192,192,33458,1,0,0:0:0:0:
320,192,33458,1,0,0:0:0:0:
64,192,33558,1,0,0:0:0:0:
192,192,33558,1,0,0:0:0:0:
448,192,33658,1,0,0:0:0:0:
320,192,33658,1,0,0:0:0:0:
320,192,33758,1,0,0:0:0:0:
448,192,33758,1,0,0:0:0:0:
64,192,33858,128,0,34058:0:0:0:0:
192,192,33858,128,0,34058:0:0:0:0:
320,192,33858,128,0,34058:0:0:0:0:
448,192,33858,128,0,34058:0:0:0:0:
448,192,34158,1,0,0:0:0:0:
320,192,34158,128,0,34358:0:0:0:0:
192,192,34158,128,0,34358:0:0:0:0:
64,192,34158,128,0,34358:0:0:0:0:
448,192,34458,1,0,0:0:0:0:
320,192,34458,1,0,0:0:0:0:
192,192,34458,128,0,34658:0:0:0:0:
64,192,34458,128,0,34658:0:0:0:0:
448,192,34758,1,0,0:0:0:0:
320,192,34758,1,0,0:0:0:0:
192,192,34758,1,0,0:0:0:0:
64,192,34758,128,0,34958:0:0:0:0:
320,192,34858,1,0,0:0:0:0:
320,192,34958,1,0,0:0:0:0:
448,192,35058,1,0,0:0:0:0:
192,192,35058,1,0,0:0:0:0:
192,192,35158,1,0,0:0:0:0:
64,192,35258,1,0,0:0:0:0:
320,192,35258,1,0,0:0:0:0:
320,192,35358,1,0,0:0:0:0:
64,192,35458,1,0,0:0:0:0:
192,192,35458,1,0,0:0:0:0:
320,192,35458,1,0,0:0:0:0:
448,192,35458,1,0,0:0:0:0:
64,192,35558,1,0,0:0:0:0:
192,192,35658,1,0,0:0:0:0:
320,192,35658,1,0,0:0:0:0:
448,192,35758,1,0,0:0:0:0:
64,192,35858,1,0,0:0:0:0:
192,192,35858,1,0,0:0:0:0:
320,192,35858,1,0,0:0:0:0:
64,192,35958,1,0,0:0:0:0:
448,192,36058,1,0,0:0:0:0:
320,192,36058,1,0,0:0:0:0:
192,192,36158,1,0,0:0:0:0:
64,192,36258,1,0,0:0:0:0:
320,192,36258,1,0,0:0:0:0:
448,192,36258,1,0,0:0:0:0:
64,192,36358,1,0,0:0:0:0:
192,192,36458,1,0,0:0:0:0:
448,192,36458,1,0,0:0:0:0:
320,192,36558,1,0,0:0:0:0:
64,192,36658,1,0,0:0:0:0:
192,192,36658,1,0,0:0:0:0:
448,192,36658,1,0,0:0:0:0:
64,192,36758,1,0,0:0:0:0:
320,192,36858,1,0,0:0:0:0:
192,192,36858,1,0,0:0:0:0:
64,192,36958,1,0,0:0:0:0:
448,192,37058,1,0,0:0:0:0:
192,192,37058,1,0,0:0:0:0:
320,192,37058,1,0,0:0:0:0:
448,192,37158,1,0,0:0:0:0:
64,192,37258,1,0,0:0:0:0:
320,192,37258,1,0,0:0:0:0:
192,192,37358,1,0,0:0:0:0:
448,192,37458,1,0,0:0:0:0:
320,192,37458,1,0,0:0:0:0:
64,192,37458,1,0,0:0:0:0:
448,192,37558,1,0,0:0:0:0:
64,192,37658,1,0,0:0:0:0:
192,192,37658,1,0,0:0:0:0:
320,192,37758,1,0,0:0:0:0:
448,192,37858,1,0,0:0:0:0:
64,192,37858,1,0,0:0:0:0:
192,192,37858,1,0,0:0:0:0:
448,192,37958,1,0,0:0:0:0:
320,192,38058,1,0,0:0:0:0:
192,192,38058,1,0,0:0:0:0:
64,192,38058,1,0,0:0:0:0:
64,192,38158,1,0,0:0:0:0:
448,192,38258,1,0,0:0:0:0:
192,192,38258,1,0,0:0:0:0:
448,192,38358,1,0,0:0:0:0:
192,192,38358,1,0,0:0:0:0:
64,192,38458,1,0,0:0:0:0:
320,192,38458,1,0,0:0:0:0:
320,192,38558,1,0,0:0:0:0:
64,192,38558,1,0,0:0:0:0:
448,192,38658,128,0,38858:0:0:0:0:
320,192,38658,128,0,38824:0:0:0:0:
192,192,38658,128,0,38791:0:0:0:0:
64,192,38658,128,0,38758:0:0:0:0:
64,192,38958,128,0,39158:0:0:0:0:
192,192,38958,128,0,39124:0:0:0:0:
320,192,38958,128,0,39091:0:0:0:0:
448,192,38958,128,0,39058:0:0:0:0:
64,192,39258,128,0,39358:0:0:0:0:
192,192,39258,128,0,39391:0:0:0:0:
320,192,39258,128,0,39424:0:0:0:0:
448,192,39258,128,0,39458:0:0:0:0:
448,192,39558,128,0,39658:0:0:0:0:
320,192,39558,128,0,39691:0:0:0:0:
192,192,39558,128,0,39724:0:0:0:0:
64,192,39558,128,0,39758:0:0:0:0:
192,192,39858,1,0,0:0:0:0:
320,192,39858,1,0,0:0:0:0:
192,192,39958,1,0,0:0:0:0:
320,192,39958,1,0,0:0:0:0:
192,192,40058,1,0,0:0:0:0:
320,192,40058,1,0,0:0:0:0:
192,192,40158,1,0,0:0:0:0:
320,192,40158,1,0,0:0:0:0:
64,192,40258,1,0,0:0:0:0:
448,192,40258,1,0,0:0:0:0:
448,192,40358,128,0,40458:0:0:0:0:
64,192,40358,128,0,40458:0:0:0:0:
192,192,40558,1,0,0:0:0:0:
320,192,40558,1,0,0:0:0:0:
192,192,40658,128,0,40758:0:0:0:0:
320,192,40658,128,0,40758:0:0:0:0:
448,192,40858,1,0,0:0:0:0:
192,192,40858,1,0,0:0:0:0:
192,192,40958,128,0,41058:0:0:0:0:
448,192,40958,128,0,41058:0:0:0:0:
320,192,41158,1,0,0:0:0:0:
64,192,41158,1,0,0:0:0:0:
64,192,41258,128,0,41358:0:0:0:0:
320,192,41258,128,0,41358:0:0:0:0:
448,192,41458,1,0,0:0:0:0:
320,192,41458,1,0,0:0:0:0:
192,192,41524,1,0,0:0:0:0:
64,192,41524,1,0,0:0:0:0:
320,192,41591,1,0,0:0:0:0:
448,192,41591,1,0,0:0:0:0:
192,192,41658,1,0,0:0:0:0:
64,192,41658,1,0,0:0:0:0:
320,192,41724,1,0,0:0:0:0:
448,192,41724,1,0,0:0:0:0:
192,192,41791,1,0,0:0:0:0:
64,192,41791,1,0,0:0:0:0:
448,192,41858,1,0,0:0:0:0:
320,192,41858,1,0,0:0:0:0:
192,192,42858,128,0,43058:0:0:0:0:
448,192,42958,1,0,0:0:0:0:
320,192,43058,128,0,43258:0:0:0:0:
64,192,43158,1,0,0:0:0:0:
192,192,43258,128,0,43458:0:0:0:0:
448,192,43358,1,0,0:0:0:0:
64,192,43458,128,0,43858:0:0:0:0:
192,192,43558,1,0,0:0:0:0:
320,192,43658,1,0,0:0:0:0:
448,192,43758,1,0,0:0:0:0:
192,192,43858,1,0,0:0:0:0:
320,192,43958,1,0,0:0:0:0:
448,192,44058,1,0,0:0:0:0:
320,192,44158,1,0,0:0:0:0:
64,192,44258,128,0,44658:0:0:0:0:
192,192,44258,1,0,0:0:0:0:
448,192,44358,1,0,0:0:0:0:
320,192,44458,1,0,0:0:0:0:
192,192,44558,1,0,0:0:0:0:
320,192,44658,1,0,0:0:0:0:
448,192,44758,1,0,0:0:0:0:
192,192,44858,1,0,0:0:0:0:
320,192,44958,1,0,0:0:0:0:
448,192,45058,128,0,45458:0:0:0:0:
64,192,45058,1,0,0:0:0:0:
192,192,45158,1,0,0:0:0:0:
320,192,45258,1,0,0:0:0:0:
192,192,45358,1,0,0:0:0:0:
64,192,45458,1,0,0:0:0:0:
320,192,45558,1,0,0:0:0:0:
192,192,45658,1,0,0:0:0:0:
64,192,45758,1,0,0:0:0:0:
448,192,45858,128,0,46258:0:0:0:0:
192,192,45858,1,0,0:0:0:0:
320,192,45958,1,0,0:0:0:0:
64,192,46058,1,0,0:0:0:0:
192,192,46158,1,0,0:0:0:0:
320,192,46258,1,0,0:0:0:0:
64,192,46358,1,0,0:0:0:0:
192,192,46458,1,0,0:0:0:0:
64,192,46558,1,0,0:0:0:0:
448,192,46658,1,0,0:0:0:0:
320,192,46658,1,0,0:0:0:0:
192,192,46724,1,0,0:0:0:0:
64,192,46791,1,0,0:0:0:0:
448,192,46858,1,0,0:0:0:0:
320,192,46924,1,0,0:0:0:0:
192,192,46991,1,0,0:0:0:0:
64,192,47058,1,0,0:0:0:0:
448,192,47058,1,0,0:0:0:0:
192,192,47124,1,0,0:0:0:0:
320,192,47191,1,0,0:0:0:0:
448,192,47258,1,0,0:0:0:0:
64,192,47324,1,0,0:0:0:0:
192,192,47391,1,0,0:0:0:0:
320,192,47458,1,0,0:0:0:0:
448,192,47458,1,0,0:0:0:0:
192,192,47524,1,0,0:0:0:0:
64,192,47591,1,0,0:0:0:0:
320,192,47658,1,0,0:0:0:0:
448,192,47658,1,0,0:0:0:0:
64,192,47724,1,0,0:0:0:0:
192,192,47791,1,0,0:0:0:0:
320,192,47858,1,0,0:0:0:0:
448,192,47858,1,0,0:0:0:0:
192,192,47924,1,0,0:0:0:0:
64,192,47991,1,0,0:0:0:0:
320,192,48058,1,0,0:0:0:0:
448,192,48058,1,0,0:0:0:0:
64,192,48124,1,0,0:0:0:0:
192,192,48191,1,0,0:0:0:0:
320,192,48258,1,0,0:0:0:0:
448,192,48258,1,0,0:0:0:0:
320,192,48358,1,0,0:0:0:0:
64,192,48458,1,0,0:0:0:0:
64,192,48558,1,0,0:0:0:0:
192,192,48558,1,0,0:0:0:0:
192,192,48658,1,0,0:0:0:0:
448,192,48758,1,0,0:0:0:0:
448,192,48858,1,0,0:0:0:0:
320,192,48858,1,0,0:0:0:0:
320,192,48958,1,0,0:0:0:0:
64,192,49058,1,0,0:0:0:0:
64,192,49158,1,0,0:0:0:0:
192,192,49158,1,0,0:0:0:0:
192,192,49258,1,0,0:0:0:0:
320,192,49258,1,0,0:0:0:0:
448,192,49358,1,0,0:0:0:0:
320,192,49358,1,0,0:0:0:0:
64,192,49458,1,0,0:0:0:0:
192,192,49458,1,0,0:0:0:0:
320,192,49524,1,0,0:0:0:0:
448,192,49591,1,0,0:0:0:0:
192,192,49658,1,0,0:0:0:0:
320,192,49724,1,0,0:0:0:0:
448,192,49791,1,0,0:0:0:0:
192,192,49858,128,0,50058:0:0:0:0:
320,192,49858,1,0,0:0:0:0:
64,192,50058,128,0,50258:0:0:0:0:
192,192,50258,128,0,50458:0:0:0:0:
448,192,50258,1,0,0:0:0:0:
320,192,50458,128,0,50658:0:0:0:0:
448,192,50658,128,0,51258:0:0:0:0:
64,192,50658,1,0,0:0:0:0:
192,192,50858,1,0,0:0:0:0:
320,192,51058,1,0,0:0:0:0:
64,192,51058,1,0,0:0:0:0:
192,192,51258,128,0,51658:0:0:0:0:
448,192,51458,1,0,0:0:0:0:
320,192,51458,1,0,0:0:0:0:
64,192,51658,128,0,51858:0:0:0:0:
192,192,51858,128,0,52058:0:0:0:0:
448,192,51858,1,0,0:0:0:0:
320,192,52058,128,0,52258:0:0:0:0:
448,192,52258,128,0,53058:0:0:0:0:
192,192,52258,1,0,0:0:0:0:
64,192,52458,1,0,0:0:0:0:
320,192,52658,1,0,0:0:0:0:
192,192,52658,1,0,0:0:0:0:
64,192,52858,1,0,0:0:0:0:
192,192,53058,128,0,53258:0:0:0:0:
320,192,53058,1,0,0:0:0:0:
64,192,53258,128,0,53458:0:0:0:0:
192,192,53458,128,0,53658:0:0:0:0:
448,192,53458,1,0,0:0:0:0:
320,192,53658,128,0,53858:0:0:0:0:
448,192,53858,128,0,54058:0:0:0:0:
192,192,53858,1,0,0:0:0:0:
64,192,54058,128,0,54258:0:0:0:0:
320,192,54258,128,0,54458:0:0:0:0:
448,192,54258,1,0,0:0:0:0:
192,192,54458,128,0,54858:0:0:0:0:
320,192,54658,1,0,0:0:0:0:
448,192,54658,1,0,0:0:0:0:
64,192,54858,128,0,55058:0:0:0:0:
192,192,55058,128,0,55258:0:0:0:0:
448,192,55058,1,0,0:0:0:0:
320,192,55258,128,0,55458:0:0:0:0:
448,192,55458,128,0,55658:0:0:0:0:
64,192,55458,1,0,0:0:0:0:
320,192,55658,128,0,55858:0:0:0:0:
192,192,55858,128,0,56058:0:0:0:0:
448,192,55858,1,0,0:0:0:0:
64,192,56058,128,0,56258:0:0:0:0:
192,192,56258,1,0,0:0:0:0:
320,192,56258,1,0,0:0:0:0:
448,192,56258,1,0,0:0:0:0:
320,192,56358,1,0,0:0:0:0:
64,192,56458,1,0,0:0:0:0:
448,192,56458,1,0,0:0:0:0:
320,192,56558,1,0,0:0:0:0:
64,192,56658,1,0,0:0:0:0:
192,192,56658,1,0,0:0:0:0:
448,192,56658,1,0,0:0:0:0:
192,192,56758,1,0,0:0:0:0:
448,192,56858,1,0,0:0:0:0:
64,192,56858,1,0,0:0:0:0:
192,192,56958,1,0,0:0:0:0:
320,192,57058,1,0,0:0:0:0:
448,192,57058,1,0,0:0:0:0:
64,192,57058,1,0,0:0:0:0:
320,192,57158,1,0,0:0:0:0:
64,192,57258,1,0,0:0:0:0:
448,192,57258,1,0,0:0:0:0:
320,192,57358,1,0,0:0:0:0:
192,192,57458,1,0,0:0:0:0:
64,192,57458,1,0,0:0:0:0:
448,192,57458,1,0,0:0:0:0:
192,192,57558,1,0,0:0:0:0:
320,192,57658,1,0,0:0:0:0:
64,192,57658,1,0,0:0:0:0:
192,192,57758,1,0,0:0:0:0:
448,192,57858,1,0,0:0:0:0:
320,192,57858,1,0,0:0:0:0:
64,192,57858,1,0,0:0:0:0:
448,192,57958,1,0,0:0:0:0:
192,192,58058,1,0,0:0:0:0:
320,192,58058,1,0,0:0:0:0:
448,192,58158,1,0,0:0:0:0:
64,192,58258,1,0,0:0:0:0:
192,192,58258,1,0,0:0:0:0:
320,192,58258,1,0,0:0:0:0:
64,192,58358,1,0,0:0:0:0:
448,192,58458,1,0,0:0:0:0:
320,192,58458,1,0,0:0:0:0:
64,192,58558,1,0,0:0:0:0:
448,192,58658,1,0,0:0:0:0:
192,192,58658,1,0,0:0:0:0:
320,192,58658,1,0,0:0:0:0:
448,192,58758,1,0,0:0:0:0:
64,192,58858,1,0,0:0:0:0:
192,192,58858,1,0,0:0:0:0:
448,192,58958,1,0,0:0:0:0:
64,192,59058,1,0,0:0:0:0:
320,192,59058,1,0,0:0:0:0:
192,192,59058,1,0,0:0:0:0:
64,192,59158,1,0,0:0:0:0:
448,192,59258,1,0,0:0:0:0:
320,192,59258,1,0,0:0:0:0:
448,192,59358,1,0,0:0:0:0:
192,192,59458,1,0,0:0:0:0:
320,192,59458,1,0,0:0:0:0:
64,192,59458,1,0,0:0:0:0:
192,192,59558,1,0,0:0:0:0:
448,192,59658,1,0,0:0:0:0:
320,192,59658,1,0,0:0:0:0:
320,192,59758,1,0,0:0:0:0:
192,192,59858,1,0,0:0:0:0:
64,192,59858,1,0,0:0:0:0:
448,192,59858,1,0,0:0:0:0:
192,192,59958,1,0,0:0:0:0:
448,192,60058,1,0,0:0:0:0:
320,192,60058,1,0,0:0:0:0:
320,192,60158,1,0,0:0:0:0:
64,192,60258,1,0,0:0:0:0:
192,192,60258,1,0,0:0:0:0:
448,192,60258,1,0,0:0:0:0:
64,192,60358,1,0,0:0:0:0:
448,192,60458,1,0,0:0:0:0:
320,192,60458,1,0,0:0:0:0:
448,192,60558,1,0,0:0:0:0:
64,192,60658,1,0,0:0:0:0:
192,192,60658,1,0,0:0:0:0:
448,192,60658,1,0,0:0:0:0:
320,192,60658,1,0,0:0:0:0:
64,192,60758,1,0,0:0:0:0:
192,192,60758,1,0,0:0:0:0:
320,192,60858,1,0,0:0:0:0:
448,192,60858,1,0,0:0:0:0:
64,192,60858,1,0,0:0:0:0:
192,192,60858,1,0,0:0:0:0:
320,192,60958,1,0,0:0:0:0:
448,192,60958,1,0,0:0:0:0:
64,192,61058,1,0,0:0:0:0:
192,192,61058,1,0,0:0:0:0:
320,192,61058,1,0,0:0:0:0:
448,192,61058,1,0,0:0:0:0:
448,192,61158,1,0,0:0:0:0:
320,192,61158,1,0,0:0:0:0:
192,192,61158,1,0,0:0:0:0:
64,192,61158,1,0,0:0:0:0:
64,192,61258,1,0,0:0:0:0:
192,192,61258,1,0,0:0:0:0:
320,192,61258,1,0,0:0:0:0:
448,192,61258,1,0,0:0:0:0:
448,192,61358,1,0,0:0:0:0:
320,192,61358,1,0,0:0:0:0:
192,192,61358,1,0,0:0:0:0:
64,192,61358,1,0,0:0:0:0:
64,192,61458,1,0,0:0:0:0:
448,192,61458,1,0,0:0:0:0:
192,192,61524,1,0,0:0:0:0:
320,192,61591,1,0,0:0:0:0:
64,192,61658,1,0,0:0:0:0:
448,192,61658,1,0,0:0:0:0:
192,192,61724,1,0,0:0:0:0:
320,192,61791,1,0,0:0:0:0:
64,192,61858,1,0,0:0:0:0:
448,192,61858,1,0,0:0:0:0:
192,192,62058,1,0,0:0:0:0:
448,192,62058,1,0,0:0:0:0:
320,192,62158,1,0,0:0:0:0:
192,192,62258,1,0,0:0:0:0:
64,192,62258,1,0,0:0:0:0:
320,192,62324,1,0,0:0:0:0:
448,192,62391,1,0,0:0:0:0:
64,192,62458,1,0,0:0:0:0:
192,192,62524,1,0,0:0:0:0:
320,192,62591,1,0,0:0:0:0:
448,192,62658,1,0,0:0:0:0:
64,192,62658,1,0,0:0:0:0:
192,192,62658,1,0,0:0:0:0:
320,192,62758,1,0,0:0:0:0:
64,192,62858,1,0,0:0:0:0:
192,192,62858,1,0,0:0:0:0:
448,192,62958,1,0,0:0:0:0:
448,192,63058,1,0,0:0:0:0:
320,192,63058,1,0,0:0:0:0:
192,192,63058,1,0,0:0:0:0:
64,192,63158,1,0,0:0:0:0:
448,192,63258,1,0,0:0:0:0:
320,192,63258,1,0,0:0:0:0:
192,192,63358,1,0,0:0:0:0:
64,192,63458,1,0,0:0:0:0:
192,192,63458,1,0,0:0:0:0:
448,192,63458,1,0,0:0:0:0:
320,192,63558,1,0,0:0:0:0:
192,192,63658,1,0,0:0:0:0:
64,192,63758,1,0,0:0:0:0:
448,192,63758,1,0,0:0:0:0:
320,192,63858,1,0,0:0:0:0:
192,192,63858,1,0,0:0:0:0:
448,192,63858,1,0,0:0:0:0:
64,192,63958,1,0,0:0:0:0:
448,192,64058,1,0,0:0:0:0:
320,192,64058,1,0,0:0:0:0:
192,192,64158,1,0,0:0:0:0:
64,192,64258,1,0,0:0:0:0:
192,192,64258,1,0,0:0:0:0:
320,192,64258,1,0,0:0:0:0:
448,192,64358,1,0,0:0:0:0:
64,192,64458,1,0,0:0:0:0:
320,192,64458,1,0,0:0:0:0:
192,192,64558,1,0,0:0:0:0:
448,192,64658,1,0,0:0:0:0:
320,192,64658,1,0,0:0:0:0:
192,192,64658,1,0,0:0:0:0:
64,192,64758,1,0,0:0:0:0:
448,192,64858,1,0,0:0:0:0:
320,192,64858,1,0,0:0:0:0:
192,192,64958,1,0,0:0:0:0:
64,192,65058,1,0,0:0:0:0:
192,192,65058,1,0,0:0:0:0:
448,192,65058,1,0,0:0:0:0:
320,192,65158,1,0,0:0:0:0:
64,192,65258,1,0,0:0:0:0:
192,192,65358,1,0,0:0:0:0:
320,192,65358,1,0,0:0:0:0:
448,192,65458,1,0,0:0:0:0:
320,192,65458,1,0,0:0:0:0:
64,192,65458,1,0,0:0:0:0:
192,192,65558,1,0,0:0:0:0:
320,192,65658,1,0,0:0:0:0:
448,192,65658,1,0,0:0:0:0:
192,192,65758,1,0,0:0:0:0:
64,192,65858,1,0,0:0:0:0:
192,192,65858,1,0,0:0:0:0:
448,192,65858,1,0,0:0:0:0:
320,192,65958,1,0,0:0:0:0:
64,192,66058,1,0,0:0:0:0:
192,192,66058,1,0,0:0:0:0:
448,192,66158,1,0,0:0:0:0:
320,192,66258,1,0,0:0:0:0:
448,192,66258,1,0,0:0:0:0:
64,192,66258,1,0,0:0:0:0:
192,192,66358,1,0,0:0:0:0:
320,192,66458,1,0,0:0:0:0:
448,192,66458,1,0,0:0:0:0:
64,192,66558,1,0,0:0:0:0:
192,192,66658,1,0,0:0:0:0:
320,192,66658,1,0,0:0:0:0:
64,192,66658,1,0,0:0:0:0:
448,192,66758,1,0,0:0:0:0:
320,192,66858,1,0,0:0:0:0:
64,192,66958,1,0,0:0:0:0:
192,192,66958,1,0,0:0:0:0:
448,192,67058,1,0,0:0:0:0:
320,192,67058,1,0,0:0:0:0:
64,192,67058,1,0,0:0:0:0:
192,192,67158,1,0,0:0:0:0:
320,192,67258,1,0,0:0:0:0:
448,192,67258,1,0,0:0:0:0:
64,192,67358,1,0,0:0:0:0:
192,192,67458,1,0,0:0:0:0:
448,192,67458,1,0,0:0:0:0:
64,192,67458,1,0,0:0:0:0:
192,192,67558,1,0,0:0:0:0:
448,192,67558,1,0,0:0:0:0:
320,192,67658,1,0,0:0:0:0:
64,192,67758,1,0,0:0:0:0:
320,192,67758,1,0,0:0:0:0:
64,192,67858,1,0,0:0:0:0:
320,192,67858,1,0,0:0:0:0:
192,192,67958,1,0,0:0:0:0:
192,192,68058,1,0,0:0:0:0:
448,192,68058,1,0,0:0:0:0:
192,192,68158,1,0,0:0:0:0:
448,192,68158,1,0,0:0:0:0:
64,192,68258,1,0,0:0:0:0:
192,192,68258,1,0,0:0:0:0:
320,192,68258,1,0,0:0:0:0:
448,192,68258,1,0,0:0:0:0:
64,192,68358,1,0,0:0:0:0:
320,192,68358,1,0,0:0:0:0:
192,192,68458,1,0,0:0:0:0:
448,192,68458,1,0,0:0:0:0:
192,192,68558,1,0,0:0:0:0:
448,192,68558,1,0,0:0:0:0:
64,192,68658,1,0,0:0:0:0:
192,192,68658,1,0,0:0:0:0:
64,192,68758,1,0,0:0:0:0:
192,192,68758,1,0,0:0:0:0:
320,192,68858,1,0,0:0:0:0:
448,192,68858,1,0,0:0:0:0:
320,192,68958,1,0,0:0:0:0:
448,192,68958,1,0,0:0:0:0:
64,192,69058,1,0,0:0:0:0:
192,192,69058,1,0,0:0:0:0:
448,192,69058,1,0,0:0:0:0:
320,192,69058,1,0,0:0:0:0:
64,192,69158,1,0,0:0:0:0:
192,192,69258,1,0,0:0:0:0:
320,192,69258,1,0,0:0:0:0:
448,192,69358,1,0,0:0:0:0:
192,192,69458,1,0,0:0:0:0:
64,192,69458,1,0,0:0:0:0:
448,192,69458,1,0,0:0:0:0:
320,192,69558,1,0,0:0:0:0:
448,192,69658,1,0,0:0:0:0:
64,192,69658,1,0,0:0:0:0:
192,192,69758,1,0,0:0:0:0:
320,192,69858,1,0,0:0:0:0:
448,192,69858,1,0,0:0:0:0:
192,192,69858,1,0,0:0:0:0:
64,192,69958,1,0,0:0:0:0:
448,192,70058,1,0,0:0:0:0:
64,192,70158,1,0,0:0:0:0:
192,192,70158,1,0,0:0:0:0:
448,192,70258,1,0,0:0:0:0:
320,192,70258,1,0,0:0:0:0:
64,192,70258,1,0,0:0:0:0:
192,192,70358,1,0,0:0:0:0:
64,192,70458,1,0,0:0:0:0:
448,192,70458,1,0,0:0:0:0:
320,192,70558,1,0,0:0:0:0:
64,192,70658,1,0,0:0:0:0:
192,192,70658,1,0,0:0:0:0:
320,192,70658,1,0,0:0:0:0:
448,192,70658,1,0,0:0:0:0:
192,192,70758,1,0,0:0:0:0:
64,192,70858,1,0,0:0:0:0:
448,192,70858,1,0,0:0:0:0:
320,192,70958,1,0,0:0:0:0:
64,192,71058,1,0,0:0:0:0:
192,192,71058,1,0,0:0:0:0:
320,192,71058,1,0,0:0:0:0:
448,192,71158,1,0,0:0:0:0:
64,192,71258,1,0,0:0:0:0:
192,192,71258,1,0,0:0:0:0:
320,192,71358,1,0,0:0:0:0:
192,192,71458,1,0,0:0:0:0:
64,192,71458,1,0,0:0:0:0:
320,192,71458,1,0,0:0:0:0:
448,192,71558,1,0,0:0:0:0:
64,192,71658,1,0,0:0:0:0:
320,192,71658,1,0,0:0:0:0:
192,192,71758,1,0,0:0:0:0:
64,192,71858,1,0,0:0:0:0:
192,192,71858,1,0,0:0:0:0:
448,192,71858,1,0,0:0:0:0:
320,192,71958,1,0,0:0:0:0:
192,192,72058,1,0,0:0:0:0:
64,192,72058,1,0,0:0:0:0:
320,192,72124,1,0,0:0:0:0:
448,192,72191,1,0,0:0:0:0:
64,192,72258,1,0,0:0:0:0:
192,192,72258,1,0,0:0:0:0:
320,192,72258,1,0,0:0:0:0:
64,192,72358,1,0,0:0:0:0:
448,192,72458,1,0,0:0:0:0:
320,192,72458,1,0,0:0:0:0:
448,192,72558,1,0,0:0:0:0:
64,192,72658,1,0,0:0:0:0:
192,192,72658,1,0,0:0:0:0:
192,192,72758,1,0,0:0:0:0:
320,192,72858,1,0,0:0:0:0:
448,192,72858,1,0,0:0:0:0:
320,192,72958,1,0,0:0:0:0:
64,192,73058,1,0,0:0:0:0:
192,192,73058,1,0,0:0:0:0:
448,192,73058,1,0,0:0:0:0:
64,192,73158,1,0,0:0:0:0:
448,192,73258,1,0,0:0:0:0:
320,192,73258,1,0,0:0:0:0:
320,192,73358,1,0,0:0:0:0:
64,192,73458,1,0,0:0:0:0:
192,192,73458,1,0,0:0:0:0:
192,192,73558,1,0,0:0:0:0:
448,192,73658,1,0,0:0:0:0:
320,192,73658,1,0,0:0:0:0:
448,192,73758,1,0,0:0:0:0:
64,192,73858,1,0,0:0:0:0:
192,192,73858,1,0,0:0:0:0:
192,192,73958,1,0,0:0:0:0:
320,192,73958,1,0,0:0:0:0:
448,192,74058,1,0,0:0:0:0:
320,192,74058,1,0,0:0:0:0:
64,192,74158,1,0,0:0:0:0:
448,192,74158,1,0,0:0:0:0:
64,192,74258,1,0,0:0:0:0:
192,192,74258,1,0,0:0:0:0:
192,192,74358,1,0,0:0:0:0:
448,192,74358,1,0,0:0:0:0:
320,192,74458,1,0,0:0:0:0:
448,192,74458,1,0,0:0:0:0:
64,192,74558,1,0,0:0:0:0:
320,192,74558,1,0,0:0:0:0:
64,192,74658,1,0,0:0:0:0:
192,192,74658,1,0,0:0:0:0:
320,192,74724,1,0,0:0:0:0:
448,192,74791,1,0,0:0:0:0:
192,192,74858,1,0,0:0:0:0:
320,192,74924,1,0,0:0:0:0:
64,192,74991,1,0,0:0:0:0:
320,192,75058,1,0,0:0:0:0:
448,192,75058,1,0,0:0:0:0:
192,192,75124,1,0,0:0:0:0:
64,192,75191,1,0,0:0:0:0:
320,192,75258,1,0,0:0:0:0:
192,192,75324,1,0,0:0:0:0:
448,192,75391,1,0,0:0:0:0:
320,192,75458,1,0,0:0:0:0:
192,192,75458,1,0,0:0:0:0:
64,192,75458,1,0,0:0:0:0:
192,192,78058,128,0,78258:0:0:0:0:
320,192,78258,128,0,78458:0:0:0:0:
448,192,78458,128,0,78658:0:0:0:0:
64,192,78658,128,0,78858:0:0:0:0:
192,192,78758,1,0,0:0:0:0:
320,192,78858,1,0,0:0:0:0:
448,192,78958,1,0,0:0:0:0:
320,192,79058,1,0,0:0:0:0:
192,192,79158,1,0,0:0:0:0:
64,192,79258,1,0,0:0:0:0:
192,192,79358,1,0,0:0:0:0:
320,192,79458,1,0,0:0:0:0:
192,192,79558,1,0,0:0:0:0:
448,192,79658,1,0,0:0:0:0:
192,192,79758,1,0,0:0:0:0:
320,192,79858,1,0,0:0:0:0:
64,192,79958,1,0,0:0:0:0:
320,192,80058,1,0,0:0:0:0:
192,192,80158,1,0,0:0:0:0:
448,192,80258,1,0,0:0:0:0:
320,192,80358,1,0,0:0:0:0:
192,192,80458,1,0,0:0:0:0:
64,192,80558,1,0,0:0:0:0:
192,192,80658,1,0,0:0:0:0:
320,192,80758,1,0,0:0:0:0:
448,192,80858,1,0,0:0:0:0:
320,192,80958,1,0,0:0:0:0:
64,192,81058,1,0,0:0:0:0:
448,192,81158,1,0,0:0:0:0:
192,192,81258,1,0,0:0:0:0:
448,192,81358,1,0,0:0:0:0:
64,192,81458,1,0,0:0:0:0:
320,192,81558,1,0,0:0:0:0:
64,192,81658,1,0,0:0:0:0:
448,192,81758,1,0,0:0:0:0:
64,192,81858,1,0,0:0:0:0:
192,192,81858,1,0,0:0:0:0:
320,192,81858,1,0,0:0:0:0:
448,192,81858,1,0,0:0:0:0:
448,192,81958,1,0,0:0:0:0:
192,192,82058,1,0,0:0:0:0:
320,192,82058,1,0,0:0:0:0:
64,192,82158,1,0,0:0:0:0:
192,192,82258,1,0,0:0:0:0:
64,192,82258,1,0,0:0:0:0:
448,192,82258,1,0,0:0:0:0:
320,192,82358,1,0,0:0:0:0:
64,192,82458,1,0,0:0:0:0:
448,192,82458,1,0,0:0:0:0:
192,192,82558,1,0,0:0:0:0:
192,192,82658,1,0,0:0:0:0:
320,192,82658,1,0,0:0:0:0:
448,192,82658,1,0,0:0:0:0:
64,192,82758,1,0,0:0:0:0:
448,192,82858,1,0,0:0:0:0:
192,192,82858,1,0,0:0:0:0:
320,192,82958,1,0,0:0:0:0:
64,192,83058,1,0,0:0:0:0:
448,192,83058,1,0,0:0:0:0:
320,192,83058,1,0,0:0:0:0:
192,192,83158,1,0,0:0:0:0:
64,192,83258,1,0,0:0:0:0:
320,192,83258,1,0,0:0:0:0:
448,192,83358,1,0,0:0:0:0:
448,192,83458,1,0,0:0:0:0:
320,192,83458,1,0,0:0:0:0:
192,192,83458,1,0,0:0:0:0:
64,192,83458,1,0,0:0:0:0:
64,192,83558,1,0,0:0:0:0:
192,192,83658,1,0,0:0:0:0:
320,192,83658,1,0,0:0:0:0:
448,192,83758,1,0,0:0:0:0:
64,192,83858,1,0,0:0:0:0:
320,192,83858,1,0,0:0:0:0:
448,192,83858,1,0,0:0:0:0:
192,192,83958,1,0,0:0:0:0:
320,192,84058,1,0,0:0:0:0:
448,192,84058,1,0,0:0:0:0:
64,192,84158,1,0,0:0:0:0:
64,192,84258,1,0,0:0:0:0:
192,192,84258,1,0,0:0:0:0:
320,192,84258,1,0,0:0:0:0:
448,192,84358,1,0,0:0:0:0:
192,192,84458,1,0,0:0:0:0:
320,192,84458,1,0,0:0:0:0:
64,192,84558,1,0,0:0:0:0:
64,192,84658,1,0,0:0:0:0:
192,192,84658,1,0,0:0:0:0:
448,192,84658,1,0,0:0:0:0:
320,192,84758,1,0,0:0:0:0:
64,192,84858,1,0,0:0:0:0:
192,192,84858,1,0,0:0:0:0:
320,192,84958,1,0,0:0:0:0:
64,192,85058,1,0,0:0:0:0:
192,192,85058,1,0,0:0:0:0:
448,192,85058,1,0,0:0:0:0:
320,192,85124,1,0,0:0:0:0:
192,192,85191,1,0,0:0:0:0:
64,192,85258,1,0,0:0:0:0:
320,192,85324,1,0,0:0:0:0:
192,192,85391,1,0,0:0:0:0:
448,192,85458,1,0,0:0:0:0:
320,192,85524,1,0,0:0:0:0:
192,192,85591,1,0,0:0:0:0:
64,192,85658,1,0,0:0:0:0:
320,192,85724,1,0,0:0:0:0:
192,192,85791,1,0,0:0:0:0:
448,192,85858,1,0,0:0:0:0:
64,192,85858,1,0,0:0:0:0:
320,192,85924,1,0,0:0:0:0:
192,192,85991,1,0,0:0:0:0:
64,192,86058,1,0,0:0:0:0:
320,192,86124,1,0,0:0:0:0:
192,192,86191,1,0,0:0:0:0:
448,192,86258,1,0,0:0:0:0:
320,192,86324,1,0,0:0:0:0:
192,192,86391,1,0,0:0:0:0:
64,192,86458,1,0,0:0:0:0:
320,192,86524,1,0,0:0:0:0:
192,192,86591,1,0,0:0:0:0:
64,192,86658,1,0,0:0:0:0:
448,192,86658,1,0,0:0:0:0:
448,192,86758,1,0,0:0:0:0:
192,192,86858,1,0,0:0:0:0:
192,192,86958,1,0,0:0:0:0:
320,192,87058,1,0,0:0:0:0:
320,192,87158,1,0,0:0:0:0:
64,192,87258,1,0,0:0:0:0:
64,192,87358,1,0,0:0:0:0:
448,192,87458,1,0,0:0:0:0:
192,192,87458,1,0,0:0:0:0:
192,192,87558,1,0,0:0:0:0:
448,192,87558,1,0,0:0:0:0:
64,192,87658,1,0,0:0:0:0:
320,192,87658,1,0,0:0:0:0:
64,192,87758,1,0,0:0:0:0:
320,192,87758,1,0,0:0:0:0:
448,192,87858,128,0,88158:0:0:0:0:
320,192,87958,128,0,88158:0:0:0:0:
192,192,88058,128,0,88158:0:0:0:0:
64,192,88158,1,0,0:0:0:0:
64,192,88258,1,0,0:0:0:0:
192,192,88258,1,0,0:0:0:0:
320,192,88258,1,0,0:0:0:0:
448,192,88258,1,0,0:0:0:0:
320,192,88358,1,0,0:0:0:0:
64,192,88458,1,0,0:0:0:0:
192,192,88458,1,0,0:0:0:0:
448,192,88558,1,0,0:0:0:0:
64,192,88658,1,0,0:0:0:0:
192,192,88658,1,0,0:0:0:0:
320,192,88658,1,0,0:0:0:0:
448,192,88658,1,0,0:0:0:0:
192,192,88758,1,0,0:0:0:0:
64,192,88858,1,0,0:0:0:0:
448,192,88858,1,0,0:0:0:0:
320,192,88958,1,0,0:0:0:0:
64,192,89058,1,0,0:0:0:0:
192,192,89058,1,0,0:0:0:0:
320,192,89058,1,0,0:0:0:0:
192,192,89158,1,0,0:0:0:0:
448,192,89258,1,0,0:0:0:0:
320,192,89258,1,0,0:0:0:0:
64,192,89358,1,0,0:0:0:0:
320,192,89458,1,0,0:0:0:0:
448,192,89458,1,0,0:0:0:0:
64,192,89458,1,0,0:0:0:0:
320,192,89558,1,0,0:0:0:0:
64,192,89658,1,0,0:0:0:0:
192,192,89658,1,0,0:0:0:0:
448,192,89758,1,0,0:0:0:0:
64,192,89858,1,0,0:0:0:0:
192,192,89858,1,0,0:0:0:0:
448,192,89858,1,0,0:0:0:0:
64,192,89958,1,0,0:0:0:0:
192,192,90058,1,0,0:0:0:0:
448,192,90058,1,0,0:0:0:0:
320,192,90158,1,0,0:0:0:0:
64,192,90258,1,0,0:0:0:0:
192,192,90258,1,0,0:0:0:0:
320,192,90258,1,0,0:0:0:0:
64,192,90358,1,0,0:0:0:0:
448,192,90458,1,0,0:0:0:0:
192,192,90458,1,0,0:0:0:0:
320,192,90558,1,0,0:0:0:0:
192,192,90658,1,0,0:0:0:0:
320,192,90658,1,0,0:0:0:0:
448,192,90658,1,0,0:0:0:0:
192,192,90758,1,0,0:0:0:0:
64,192,90858,1,0,0:0:0:0:
448,192,90858,1,0,0:0:0:0:
320,192,90958,1,0,0:0:0:0:
192,192,91058,1,0,0:0:0:0:
320,192,91058,1,0,0:0:0:0:
64,192,91058,1,0,0:0:0:0:
64,192,91158,1,0,0:0:0:0:
448,192,91258,1,0,0:0:0:0:
320,192,91258,1,0,0:0:0:0:
192,192,91358,1,0,0:0:0:0:
64,192,91458,1,0,0:0:0:0:
192,192,91458,1,0,0:0:0:0:
448,192,91458,1,0,0:0:0:0:
320,192,91458,1,0,0:0:0:0:
448,192,91558,1,0,0:0:0:0:
64,192,91658,1,0,0:0:0:0:
192,192,91658,1,0,0:0:0:0:
320,192,91758,1,0,0:0:0:0:
320,192,91858,1,0,0:0:0:0:
448,192,91858,1,0,0:0:0:0:
64,192,91858,1,0,0:0:0:0:
64,192,91958,1,0,0:0:0:0:
192,192,92058,1,0,0:0:0:0:
320,192,92058,1,0,0:0:0:0:
448,192,92158,1,0,0:0:0:0:
64,192,92258,1,0,0:0:0:0:
192,192,92258,1,0,0:0:0:0:
320,192,92258,1,0,0:0:0:0:
64,192,92358,1,0,0:0:0:0:
448,192,92458,1,0,0:0:0:0:
320,192,92458,1,0,0:0:0:0:
448,192,92558,1,0,0:0:0:0:
64,192,92658,1,0,0:0:0:0:
192,192,92658,1,0,0:0:0:0:
320,192,92658,1,0,0:0:0:0:
192,192,92758,1,0,0:0:0:0:
320,192,92858,1,0,0:0:0:0:
448,192,92858,1,0,0:0:0:0:
64,192,92858,1,0,0:0:0:0:
320,192,92958,1,0,0:0:0:0:
64,192,93058,1,0,0:0:0:0:
192,192,93058,1,0,0:0:0:0:
320,192,93058,1,0,0:0:0:0:
448,192,93058,1,0,0:0:0:0:
64,192,93258,1,0,0:0:0:0:
192,192,93258,1,0,0:0:0:0:
320,192,93258,1,0,0:0:0:0:
448,192,93258,1,0,0:0:0:0:
448,192,93458,1,0,0:0:0:0:
320,192,93458,1,0,0:0:0:0:
192,192,93458,1,0,0:0:0:0:
64,192,93458,1,0,0:0:0:0:
64,192,93558,1,0,0:0:0:0:
192,192,93558,1,0,0:0:0:0:
320,192,93558,1,0,0:0:0:0:
448,192,93558,1,0,0:0:0:0:
448,192,93658,1,0,0:0:0:0:
320,192,93658,1,0,0:0:0:0:
192,192,93658,1,0,0:0:0:0:
64,192,93658,1,0,0:0:0:0:
64,192,93858,1,0,0:0:0:0:
448,192,93858,1,0,0:0:0:0:
64,192,93958,1,0,0:0:0:0:
448,192,93958,1,0,0:0:0:0:
320,192,94058,1,0,0:0:0:0:
64,192,94058,1,0,0:0:0:0:
64,192,94158,1,0,0:0:0:0:
320,192,94158,1,0,0:0:0:0:
320,192,94258,1,0,0:0:0:0:
192,192,94258,1,0,0:0:0:0:
192,192,94358,1,0,0:0:0:0:
320,192,94358,1,0,0:0:0:0:
448,192,94458,1,0,0:0:0:0:
192,192,94458,1,0,0:0:0:0:
192,192,94558,1,0,0:0:0:0:
448,192,94558,1,0,0:0:0:0:
64,192,94658,1,0,0:0:0:0:
320,192,94658,1,0,0:0:0:0:
448,192,94658,1,0,0:0:0:0:
192,192,94758,1,0,0:0:0:0:
64,192,94858,1,0,0:0:0:0:
448,192,94858,1,0,0:0:0:0:
320,192,94958,1,0,0:0:0:0:
64,192,95058,1,0,0:0:0:0:
192,192,95058,1,0,0:0:0:0:
320,192,95058,1,0,0:0:0:0:
192,192,95158,1,0,0:0:0:0:
448,192,95258,1,0,0:0:0:0:
320,192,95258,1,0,0:0:0:0:
64,192,95358,1,0,0:0:0:0:
64,192,95458,1,0,0:0:0:0:
192,192,95458,1,0,0:0:0:0:
320,192,95458,1,0,0:0:0:0:
448,192,95558,1,0,0:0:0:0:
192,192,95658,1,0,0:0:0:0:
320,192,95658,1,0,0:0:0:0:
64,192,95758,1,0,0:0:0:0:
64,192,95858,1,0,0:0:0:0:
320,192,95858,1,0,0:0:0:0:
448,192,95858,1,0,0:0:0:0:
448,192,95958,1,0,0:0:0:0:
192,192,96058,1,0,0:0:0:0:
64,192,96058,1,0,0:0:0:0:
320,192,96158,1,0,0:0:0:0:
448,192,96258,1,0,0:0:0:0:
64,192,96258,1,0,0:0:0:0:
192,192,96258,1,0,0:0:0:0:
320,192,96258,1,0,0:0:0:0:
192,192,96358,1,0,0:0:0:0:
320,192,96458,1,0,0:0:0:0:
448,192,96458,1,0,0:0:0:0:
64,192,96558,1,0,0:0:0:0:
320,192,96658,1,0,0:0:0:0:
448,192,96658,1,0,0:0:0:0:
64,192,96658,1,0,0:0:0:0:
320,192,96758,1,0,0:0:0:0:
192,192,96858,1,0,0:0:0:0:
64,192,96858,1,0,0:0:0:0:
320,192,96958,1,0,0:0:0:0:
64,192,97058,1,0,0:0:0:0:
192,192,97058,1,0,0:0:0:0:
320,192,97058,1,0,0:0:0:0:
64,192,97158,1,0,0:0:0:0:
192,192,97258,1,0,0:0:0:0:
448,192,97258,1,0,0:0:0:0:
320,192,97358,1,0,0:0:0:0:
64,192,97458,1,0,0:0:0:0:
448,192,97458,1,0,0:0:0:0:
320,192,97458,1,0,0:0:0:0:
192,192,97458,1,0,0:0:0:0:
64,192,97558,1,0,0:0:0:0:
448,192,97658,1,0,0:0:0:0:
192,192,97658,1,0,0:0:0:0:
320,192,97758,1,0,0:0:0:0:
64,192,97858,1,0,0:0:0:0:
448,192,97858,1,0,0:0:0:0:
192,192,97883,1,0,0:0:0:0:
320,192,97908,1,0,0:0:0:0:
448,192,97933,1,0,0:0:0:0:
64,192,97958,1,0,0:0:0:0:
192,192,97983,1,0,0:0:0:0:
320,192,98008,1,0,0:0:0:0:
448,192,98033,1,0,0:0:0:0:
64,192,98058,1,0,0:0:0:0:
192,192,98058,1,0,0:0:0:0:
320,192,98158,1,0,0:0:0:0:
448,192,98258,1,0,0:0:0:0:
64,192,98258,1,0,0:0:0:0:
320,192,98283,1,0,0:0:0:0:
192,192,98308,1,0,0:0:0:0:
64,192,98333,1,0,0:0:0:0:
448,192,98358,1,0,0:0:0:0:
320,192,98383,1,0,0:0:0:0:
192,192,98408,1,0,0:0:0:0:
64,192,98433,1,0,0:0:0:0:
320,192,98458,1,0,0:0:0:0:
448,192,98458,1,0,0:0:0:0:
192,192,98558,1,0,0:0:0:0:
64,192,98658,1,0,0:0:0:0:
320,192,98658,1,0,0:0:0:0:
320,192,98758,1,0,0:0:0:0:
192,192,98858,1,0,0:0:0:0:
448,192,98858,1,0,0:0:0:0:
192,192,98958,1,0,0:0:0:0:
64,192,99058,1,0,0:0:0:0:
448,192,99058,1,0,0:0:0:0:
320,192,99091,1,0,0:0:0:0:
192,192,99124,1,0,0:0:0:0:
448,192,99158,1,0,0:0:0:0:
320,192,99191,1,0,0:0:0:0:
192,192,99224,1,0,0:0:0:0:
448,192,99258,1,0,0:0:0:0:
320,192,99291,1,0,0:0:0:0:
192,192,99324,1,0,0:0:0:0:
448,192,99358,1,0,0:0:0:0:
320,192,99391,1,0,0:0:0:0:
192,192,99424,1,0,0:0:0:0:
320,192,99458,1,0,0:0:0:0:
448,192,99458,1,0,0:0:0:0:
64,192,99524,1,0,0:0:0:0:
192,192,99591,1,0,0:0:0:0:
320,192,99658,1,0,0:0:0:0:
448,192,99658,1,0,0:0:0:0:
192,192,99724,1,0,0:0:0:0:
64,192,99791,1,0,0:0:0:0:
320,192,99858,1,0,0:0:0:0:
448,192,99858,1,0,0:0:0:0:
192,192,99924,1,0,0:0:0:0:
64,192,99991,1,0,0:0:0:0:
320,192,100058,1,0,0:0:0:0:
448,192,100058,1,0,0:0:0:0:
64,192,100124,1,0,0:0:0:0:
192,192,100191,1,0,0:0:0:0:
320,192,100258,1,0,0:0:0:0:
448,192,100258,1,0,0:0:0:0:
192,192,100358,1,0,0:0:0:0:
448,192,100458,1,0,0:0:0:0:
64,192,100458,1,0,0:0:0:0:
64,192,100558,1,0,0:0:0:0:
448,192,100558,1,0,0:0:0:0:
320,192,100658,1,0,0:0:0:0:
192,192,100758,1,0,0:0:0:0:
64,192,100758,1,0,0:0:0:0:
64,192,100858,1,0,0:0:0:0:
192,192,100858,1,0,0:0:0:0:
448,192,100958,1,0,0:0:0:0:
64,192,101058,1,0,0:0:0:0:
192,192,101058,1,0,0:0:0:0:
320,192,101058,1,0,0:0:0:0:
448,192,101058,1,0,0:0:0:0:
