osu file format v14

[General]
AudioFilename: audio.mp3
AudioLeadIn: 0
PreviewTime: 4228
Countdown: 0
SampleSet: None
StackLeniency: 0.5
Mode: 0
LetterboxInBreaks: 0
WidescreenStoryboard: 1

[Editor]
DistanceSpacing: 0.8
BeatDivisor: 4
GridSize: 16
TimelineZoom: 1

[Metadata]
Title:KAIROS IN THE SPACE TIME
TitleUnicode:KAIROS IN THE SPACE TIME
Artist:L.E.D.
ArtistUnicode:L.E.D.
Creator:Suzuki_1112
Version:INSANE
Source:beatmania IIDX 22 PENDUAL
Tags:TALISMAN ORIGINAL SOUNDTRACK VOL.2 BEMANI KONAMI FUTURE SYSTEM BGM TECHINO Back to chronos
BeatmapID:1382464
BeatmapSetID:651953

[Difficulty]
HPDrainRate:5.3
CircleSize:4
OverallDifficulty:7
ApproachRate:8.5
SliderMultiplier:1.6
SliderTickRate:1

[Events]
//Background and Video events
0,0,"bg.jpg",0,0
//Break Periods
//Storyboard Layer 0 (Background)
//Storyboard Layer 1 (Fail)
//Storyboard Layer 2 (Pass)
//Storyboard Layer 3 (Foreground)
//Storyboard Sound Samples

[TimingPoints]
1028,400,4,2,1,100,1,0
4228,-83.3333333333333,4,2,1,100,0,1
16628,-66.6666666666667,4,2,1,100,0,1
16828,-66.6666666666667,4,2,1,100,0,0
17028,-83.3333333333333,4,2,1,100,0,1
29428,-66.6666666666667,4,2,1,100,0,1
29628,-66.6666666666667,4,2,1,100,0,0
29828,-83.3333333333333,4,2,1,100,0,1
41028,-100,4,2,1,100,0,0
49028,-83.3333333333333,4,2,1,100,0,1
55028,-66.6666666666667,4,2,1,100,0,1
55428,-100,4,2,1,100,0,0

[Colours]
Combo1 : 251,224,132
Combo2 : 255,128,128
Combo3 : 128,128,192
Combo4 : 253,185,130

[HitObjects]
71,128,2728,6,0,L|64:73,2,40,0|0|0,0:0|0:0|0:0,0:0:0:0:
139,213,3128,1,0,0:0:0:0:
136,244,3228,1,0,0:0:0:0:
133,275,3328,1,0,0:0:0:0:
131,306,3428,6,0,L|164:295,4,26.6666666666667,0|0|0|0|0,0:0|0:0|0:0|0:0|0:0,0:0:0:0:
199,359,3828,1,0,0:0:0:0:
251,355,3928,1,0,0:0:0:0:
301,351,4028,1,0,0:0:0:0:
351,347,4128,1,0,0:0:0:0:
401,340,4228,6,0,P|410:279|390:220,1,95.9999970703126,12|0,0:0|0:0,0:0:0:0:
392,219,4528,1,0,0:0:0:0:
379,193,4628,2,0,L|295:201,1,47.9999985351563,8|0,0:0|0:0,0:0:0:0:
251,128,4828,2,0,L|316:122,1,47.9999985351563,0|0,0:0|0:0,0:0:0:0:
380,68,5028,6,0,P|335:32|265:29,1,95.9999970703126,8|0,0:0|0:0,0:0:0:0:
176,32,5328,1,0,0:0:0:0:
176,32,5428,2,0,L|181:108,1,47.9999985351563,8|0,0:0|0:0,0:0:0:0:
104,146,5628,2,0,L|96:70,1,47.9999985351563,0|0,0:0|0:0,0:0:0:0:
19,42,5828,6,0,B|3:78|3:78|11:144,1,95.9999970703126,12|0,0:0|0:0,0:0:0:0:
17,232,6128,1,0,0:0:0:0:
17,232,6228,2,0,L|85:225,1,47.9999985351563,8|0,0:0|0:0,0:0:0:0:
138,285,6428,2,0,L|199:278,1,47.9999985351563,0|0,0:0|0:0,0:0:0:0:
277,332,6628,6,0,P|291:284|266:221,1,95.9999970703126,8|0,0:0|0:0,0:0:0:0:
262,214,6928,1,0,0:0:0:0:
244,190,7028,2,0,L|311:178,1,47.9999985351563,8|0,0:0|0:0,0:0:0:0:
365,222,7228,2,0,L|422:213,1,47.9999985351563,0|0,0:0|0:0,0:0:0:0:
494,108,7428,6,0,P|430:94|371:126,1,95.9999970703126,8|0,0:0|0:0,0:0:0:0:
381,115,7728,1,0,0:0:0:0:
361,132,7828,2,0,L|344:68,1,47.9999985351563,8|0,0:0|0:0,0:0:0:0:
251,30,8028,2,0,L|271:90,1,47.9999985351563,0|0,0:0|0:0,0:0:0:0:
200,129,8228,6,0,B|166:123|166:123|143:108|143:108|92:99,1,95.9999970703126,8|0,0:0|0:0,0:0:0:0:
23,92,8528,1,0,0:0:0:0:
23,92,8628,2,0,L|31:154,1,47.9999985351563,8|0,0:0|0:0,0:0:0:0:
89,221,8828,2,0,L|86:288,1,47.9999985351563,0|0,0:0|0:0,0:0:0:0:
34,347,9028,6,0,P|85:324|140:323,1,95.9999970703126,8|0,0:0|0:0,0:0:0:0:
206,360,9328,1,0,0:0:0:0:
206,360,9428,2,0,L|296:349,1,47.9999985351563,8|0,0:0|0:0,0:0:0:0:
334,292,9628,2,0,L|396:284,1,47.9999985351563,0|0,0:0|0:0,0:0:0:0:
468,327,9828,6,0,B|486:294|486:294|473:211,1,95.9999970703126,8|0,0:0|0:0,0:0:0:0:
453,138,10128,1,0,0:0:0:0:
453,138,10228,2,0,P|415:131|385:128,1,47.9999985351563,8|0,0:0|0:0,0:0:0:0:
341,193,10428,2,0,P|312:205|276:211,1,47.9999985351563,0|0,0:0|0:0,0:0:0:0:
196,258,10628,6,0,P|181:197|228:121,1,143.999995605469,12|0,0:0|0:0,0:0:0:0:
217,128,11028,2,0,P|152:138|100:120,1,95.9999970703126,8|0,0:0|0:0,0:0:0:0:
29,79,11428,6,0,B|8:112|8:112|18:188,1,95.9999970703126,8|0,0:0|0:0,0:0:0:0:
29,252,11728,1,0,0:0:0:0:
29,252,11828,2,0,L|90:244,1,47.9999985351563,8|0,0:0|0:0,0:0:0:0:
178,288,12028,2,0,L|120:299,1,47.9999985351563,0|0,0:0|0:0,0:0:0:0:
72,333,12228,6,0,P|127:335|181:368,1,95.9999970703126,12|0,0:0|0:0,0:0:0:0:
244,373,12528,1,0,0:0:0:0:
244,373,12628,2,0,L|327:363,1,47.9999985351563,8|0,0:0|0:0,0:0:0:0:
354,302,12828,2,0,L|421:293,1,47.9999985351563,0|0,0:0|0:0,0:0:0:0:
477,340,13028,6,0,B|498:311|498:311|488:225,1,95.9999970703126,8|0,0:0|0:0,0:0:0:0:
454,153,13328,1,0,0:0:0:0:
454,153,13428,2,0,L|387:153,1,47.9999985351563,8|0,0:0|0:0,0:0:0:0:
336,92,13628,2,0,L|265:86,1,47.9999985351563,0|0,0:0|0:0,0:0:0:0:
206,39,13828,6,0,P|146:52|114:91,1,95.9999970703126,8|0,0:0|0:0,0:0:0:0:
75,153,14128,1,0,0:0:0:0:
75,153,14228,2,0,P|86:188|86:215,1,47.9999985351563,8|0,0:0|0:0,0:0:0:0:
135,321,14428,2,0,P|142:278|153:247,1,47.9999985351563,0|0,0:0|0:0,0:0:0:0:
186,181,14628,2,0,B|277:149|241:210|327:188,1,143.999995605469,8|0,0:0|0:0,0:0:0:0:
324,189,15028,2,0,L|317:249,1,47.9999985351563,8|0,0:0|0:0,0:0:0:0:
396,348,15228,2,0,L|406:281,1,47.9999985351563,0|0,0:0|0:0,0:0:0:0:
429,175,15428,6,0,P|386:125|352:119,1,95.9999970703126,8|0,0:0|0:0,0:0:0:0:
359,119,15728,1,0,0:0:0:0:
359,119,15828,5,8,0:0:0:0:
327,97,15928,1,2,3:0:0:0:
281,87,16028,1,2,3:0:0:0:
237,87,16128,1,2,3:0:0:0:
166,138,16228,5,8,0:0:0:0:
121,152,16328,1,0,3:0:0:0:
81,159,16428,1,2,3:0:0:0:
41,158,16528,1,2,3:0:0:0:
6,149,16628,2,0,P|66:139|33:228,1,180.000006866455,8|0,0:0|0:0,0:0:0:0:
53,227,17028,6,0,P|116:219|156:218,1,95.9999970703126,12|0,0:0|0:0,0:0:0:0:
243,203,17328,1,0,0:0:0:0:
243,203,17428,2,0,L|241:270,1,47.9999985351563,8|0,0:0|0:0,0:0:0:0:
317,354,17628,2,0,L|317:283,1,47.9999985351563,0|0,0:0|0:0,0:0:0:0:
327,189,17828,6,0,B|363:186|363:186|383:193|383:193|446:188,1,95.9999970703126,8|0,0:0|0:0,0:0:0:0:
421,189,18128,1,0,0:0:0:0:
421,189,18228,2,0,L|422:125,1,47.9999985351563,8|0,0:0|0:0,0:0:0:0:
348,29,18428,2,0,L|353:102,1,47.9999985351563,0|0,0:0|0:0,0:0:0:0:
259,112,18628,6,0,P|202:101|136:136,1,95.9999970703126,12|0,0:0|0:0,0:0:0:0:
87,129,18928,1,0,0:0:0:0:
87,129,19028,2,0,P|96:166|100:194,1,47.9999985351563,8|0,0:0|0:0,0:0:0:0:
146,241,19228,2,0,P|144:277|150:310,1,47.9999985351563,0|0,0:0|0:0,0:0:0:0:
201,358,19428,6,0,P|246:327|312:333,1,95.9999970703126,8|0,0:0|0:0,0:0:0:0:
367,348,19728,1,0,0:0:0:0:
367,348,19828,2,0,L|357:285,1,47.9999985351563,8|0,0:0|0:0,0:0:0:0:
402,241,20028,2,0,L|407:178,1,47.9999985351563,0|0,0:0|0:0,0:0:0:0:
443,117,20228,6,0,P|375:143|334:129,1,95.9999970703126,8|0,0:0|0:0,0:0:0:0:
297,80,20528,1,0,0:0:0:0:
297,80,20628,2,0,L|223:90,1,47.9999985351563,8|0,0:0|0:0,0:0:0:0:
179,154,20828,2,0,L|105:143,1,47.9999985351563,0|0,0:0|0:0,0:0:0:0:
46,107,21028,6,0,B|21:142|21:142|39:234,1,95.9999970703126,8|0,0:0|0:0,0:0:0:0:
48,276,21328,1,0,0:0:0:0:
48,276,21428,2,0,L|115:269,1,47.9999985351563,8|0,0:0|0:0,0:0:0:0:
202,325,21628,2,0,L|136:333,1,47.9999985351563,0|0,0:0|0:0,0:0:0:0:
233,256,21828,6,0,P|273:298|267:364,1,95.9999970703126,8|0,0:0|0:0,0:0:0:0:
351,362,22128,1,0,0:0:0:0:
351,362,22228,2,0,P|395:355|408:345,1,47.9999985351563,8|0,0:0|0:0,0:0:0:0:
444,279,22428,2,0,L|442:217,1,47.9999985351563,0|0,0:0|0:0,0:0:0:0:
480,149,22628,6,0,P|417:180|367:165,1,95.9999970703126,8|0,0:0|0:0,0:0:0:0:
317,137,22928,1,0,0:0:0:0:
317,137,23028,2,0,L|323:204,1,47.9999985351563,8|0,0:0|0:0,0:0:0:0:
244,254,23228,2,0,L|239:184,1,47.9999985351563,0|0,0:0|0:0,0:0:0:0:
231,104,23428,6,0,P|175:122|151:181,1,95.9999970703126,12|0,0:0|0:0,0:0:0:0:
110,221,23728,1,0,0:0:0:0:
110,221,23828,2,0,L|36:213,1,47.9999985351563,8|0,0:0|0:0,0:0:0:0:
11,315,24028,2,0,L|69:303,1,47.9999985351563,0|0,0:0|0:0,0:0:0:0:
135,343,24228,6,0,B|174:339|174:339|195:348|195:348|257:342,1,95.9999970703126,8|0,0:0|0:0,0:0:0:0:
311,323,24528,1,0,0:0:0:0:
311,323,24628,2,0,L|301:253,1,47.9999985351563,8|0,0:0|0:0,0:0:0:0:
355,214,24828,2,0,L|362:159,1,47.9999985351563,0|0,0:0|0:0,0:0:0:0:
392,67,25028,6,0,P|317:73|275:107,1,95.9999970703126,12|0,0:0|0:0,0:0:0:0:
224,130,25328,1,0,0:0:0:0:
224,130,25428,2,0,L|165:124,1,47.9999985351563,8|0,0:0|0:0,0:0:0:0:
85,212,25628,2,0,L|142:200,1,47.9999985351563,0|0,0:0|0:0,0:0:0:0:
222,204,25828,6,0,P|238:245|225:310,1,95.9999970703126,8|0,0:0|0:0,0:0:0:0:
158,349,26128,1,0,0:0:0:0:
158,349,26228,2,0,L|92:347,1,47.9999985351563,8|0,0:0|0:0,0:0:0:0:
43,316,26428,2,0,P|36:282|36:256,1,47.9999985351563,0|0,0:0|0:0,0:0:0:0:
46,173,26628,6,0,P|96:204|140:199,1,95.9999970703126,8|0,0:0|0:0,0:0:0:0:
184,140,26928,1,0,0:0:0:0:
184,140,27028,2,0,L|171:73,1,47.9999985351563,8|0,0:0|0:0,0:0:0:0:
256,17,27228,2,0,L|256:78,1,47.9999985351563,0|0,0:0|0:0,0:0:0:0:
287,143,27428,6,0,B|325:124|325:124|438:134,1,143.999995605469,8|0,0:0|0:0,0:0:0:0:
426,132,27828,2,0,L|431:187,1,47.9999985351563,8|0,0:0|0:0,0:0:0:0:
376,280,28028,2,0,L|367:217,1,47.9999985351563,0|0,0:0|0:0,0:0:0:0:
295,216,28228,6,0,P|229:187|188:198,1,95.9999970703126,8|0,0:0|0:0,0:0:0:0:
207,190,28528,1,0,0:0:0:0:
207,190,28628,5,8,0:0:0:0:
224,227,28728,1,2,3:0:0:0:
227,259,28828,1,2,3:0:0:0:
223,291,28928,1,2,3:0:0:0:
151,368,29028,5,8,0:0:0:0:
134,337,29128,1,2,3:0:0:0:
131,305,29228,1,2,3:0:0:0:
136,272,29328,1,2,3:0:0:0:
149,242,29428,2,0,B|108:218|53:239|53:239|98:217|107:173,1,180.000006866455,8|0,0:0|0:0,0:0:0:0:
124,99,29828,6,0,B|185:92|185:92|223:107,1,95.9999970703126,12|2,0:0|0:0,0:0:0:0:
344,168,30228,2,0,L|332:288,1,95.9999970703126,8|2,0:0|0:0,0:0:0:0:
277,379,30528,1,0,0:0:0:0:
277,379,30628,2,0,P|234:328|236:281,1,95.9999970703126,8|2,0:0|0:0,0:0:0:0:
243,184,30928,1,0,0:0:0:0:
243,184,31028,2,0,L|169:188,1,47.9999985351563,8|0,0:0|0:0,0:0:0:0:
104,185,31228,1,2,0:0:0:0:
74,53,31428,6,0,P|116:47|169:84,1,95.9999970703126,12|2,0:0|0:0,0:0:0:0:
195,186,31828,2,0,L|307:182,1,95.9999970703126,8|2,0:0|0:0,0:0:0:0:
378,249,32128,1,0,0:0:0:0:
378,249,32228,2,0,P|385:304|355:361,1,95.9999970703126,8|2,0:0|0:0,0:0:0:0:
251,358,32528,1,0,0:0:0:0:
251,358,32628,2,0,L|172:353,1,47.9999985351563,8|0,0:0|0:0,0:0:0:0:
121,319,32828,1,2,0:0:0:0:
33,204,33028,6,0,P|17:136|35:86,1,95.9999970703126,8|2,0:0|0:0,0:0:0:0:
107,34,33428,2,0,L|218:22,1,95.9999970703126,8|2,0:0|0:0,0:0:0:0:
305,76,33728,1,0,0:0:0:0:
305,76,33828,2,0,L|415:67,1,95.9999970703126,8|2,0:0|0:0,0:0:0:0:
476,147,34128,1,0,0:0:0:0:
476,147,34228,2,0,L|467:214,1,47.9999985351563,8|0,0:0|0:0,0:0:0:0:
427,293,34428,1,2,0:0:0:0:
270,241,34628,6,0,P|347:216|397:240,1,95.9999970703126,8|2,0:0|0:0,0:0:0:0:
280,339,35028,2,0,L|180:324,1,95.9999970703126,8|2,0:0|0:0,0:0:0:0:
168,239,35328,1,0,0:0:0:0:
168,239,35428,2,0,L|67:250,1,95.9999970703126,8|2,0:0|0:0,0:0:0:0:
6,173,35728,1,0,0:0:0:0:
6,173,35828,2,0,P|5:125|13:102,1,47.9999985351563,8|0,0:0|0:0,0:0:0:0:
61,51,36028,1,2,0:0:0:0:
181,106,36228,6,0,B|251:101|251:101|212:138,1,95.9999970703126,12|2,0:0|0:0,0:0:0:0:
399,192,36628,2,0,B|329:197|329:197|347:179,1,95.9999970703126,8|2,0:0|0:0,0:0:0:0:
456,135,36928,1,0,0:0:0:0:
456,135,37028,2,0,P|479:191|459:238,1,95.9999970703126,8|2,0:0|0:0,0:0:0:0:
431,310,37328,1,0,0:0:0:0:
431,310,37428,2,0,L|361:299,1,47.9999985351563,8|0,0:0|0:0,0:0:0:0:
263,315,37628,1,2,0:0:0:0:
103,361,37828,6,0,P|95:303|111:239,1,95.9999970703126,12|2,0:0|0:0,0:0:0:0:
204,196,38228,2,0,P|209:139|199:97,1,95.9999970703126,8|2,0:0|0:0,0:0:0:0:
127,25,38528,1,0,0:0:0:0:
127,25,38628,2,0,L|247:12,1,95.9999970703126,8|2,0:0|0:0,0:0:0:0:
335,63,38928,1,0,0:0:0:0:
335,63,39028,2,0,L|324:130,1,47.9999985351563,8|0,0:0|0:0,0:0:0:0:
324,215,39228,1,2,0:0:0:0:
416,345,39428,6,0,B|383:342|383:342|355:328|355:328|283:325,1,95.9999970703126,8|2,0:0|0:0,0:0:0:0:
237,264,39828,2,0,P|188:261|135:281,1,95.9999970703126,8|2,0:0|0:0,0:0:0:0:
37,316,40128,1,0,0:0:0:0:
37,316,40228,2,0,P|28:259|36:206,1,95.9999970703126,8|2,0:0|0:0,0:0:0:0:
41,116,40528,1,0,0:0:0:0:
41,116,40628,2,0,L|128:107,1,47.9999985351563,8|0,0:0|0:0,0:0:0:0:
176,158,40828,2,0,L|247:150,1,47.9999985351563,2|0,0:0|0:0,0:0:0:0:
327,146,41028,6,0,P|264:125|215:167,1,120,0|0,0:0|0:0,0:0:0:0:
222,152,41428,5,0,0:0:0:0:
230,181,41528,1,0,0:0:0:0:
236,204,41628,1,2,0:0:0:0:
243,228,41728,1,0,0:0:0:0:
302,290,41828,5,0,0:0:0:0:
308,267,41928,1,0,0:0:0:0:
316,243,42028,1,2,0:0:0:0:
323,220,42128,1,0,0:0:0:0:
382,155,42228,5,0,0:0:0:0:
390,184,42328,1,0,0:0:0:0:
398,210,42428,1,2,0:0:0:0:
406,238,42528,1,0,0:0:0:0:
415,266,42628,5,4,0:0:0:0:
346,357,42928,1,0,0:0:0:0:
346,357,43028,6,0,L|281:348,3,40,0|0|2|0,0:0|0:0|0:0|0:0,0:0:0:0:
180,289,43728,1,0,0:0:0:0:
180,289,43828,6,0,L|126:296,3,40,0|0|2|0,0:0|0:0|0:0|0:0,0:0:0:0:
32,210,44528,1,0,0:0:0:0:
32,210,44628,6,0,L|18:151,3,40,0|0|2|0,0:0|0:0|0:0|0:0,0:0:0:0:
100,73,45328,1,0,0:0:0:0:
100,73,45428,6,0,L|109:25,3,40,0|0|2|0,0:0|0:0|0:0|0:0,0:0:0:0:
208,103,46128,1,0,0:0:0:0:
208,103,46228,6,0,L|266:97,3,40,0|0|2|0,0:0|0:0|0:0|0:0,0:0:0:0:
354,169,46928,1,0,0:0:0:0:
354,169,47028,6,0,L|301:162,3,40,0|0|2|0,0:0|0:0|0:0|0:0,0:0:0:0:
435,245,47728,1,0,0:0:0:0:
435,245,47828,6,0,L|488:233,3,40,0|0|2|0,0:0|0:0|0:0|0:0,0:0:0:0:
355,348,48428,2,0,B|322:327|316:297|316:297|282:275|244:292|244:292|229:330|169:334,1,200,0|0,0:0|0:0,0:0:0:0:
91,347,49028,6,0,P|76:278|91:244,1,95.9999970703126,12|2,0:0|0:0,0:0:0:0:
129,170,49328,1,0,0:0:0:0:
129,170,49428,2,0,L|196:164,1,47.9999985351563,8|0,0:0|0:0,0:0:0:0:
305,209,49628,2,0,L|257:209,1,47.9999985351563,2|0,0:0|0:0,0:0:0:0:
286,118,49828,6,0,P|325:117|391:185,1,95.9999970703126,8|2,0:0|0:0,0:0:0:0:
438,236,50128,1,0,0:0:0:0:
438,236,50228,2,0,L|436:185,1,47.9999985351563,8|0,0:0|0:0,0:0:0:0:
487,102,50428,2,0,L|493:36,1,47.9999985351563,2|0,0:0|0:0,0:0:0:0:
369,32,50628,6,0,L|256:40,1,95.9999970703126,12|2,0:0|0:0,0:0:0:0:
193,112,50928,1,0,0:0:0:0:
193,112,51028,2,0,P|162:112|141:107,1,47.9999985351563,8|0,0:0|0:0,0:0:0:0:
46,190,51228,2,0,P|81:177|111:174,1,47.9999985351563,2|0,0:0|0:0,0:0:0:0:
183,217,51428,6,0,L|179:341,1,95.9999970703126,8|2,0:0|0:0,0:0:0:0:
261,363,51728,1,0,0:0:0:0:
261,363,51828,2,0,P|305:363|341:351,1,47.9999985351563,8|0,0:0|0:0,0:0:0:0:
401,323,52028,2,0,L|410:269,1,47.9999985351563,2|0,0:0|0:0,0:0:0:0:
483,196,52228,6,0,P|493:143|471:87,1,95.9999970703126,8|2,0:0|0:0,0:0:0:0:
411,32,52528,1,0,0:0:0:0:
411,32,52628,2,0,L|343:42,1,47.9999985351563,8|0,0:0|0:0,0:0:0:0:
296,121,52828,2,0,L|237:110,1,47.9999985351563,2|0,0:0|0:0,0:0:0:0:
179,27,53028,6,0,L|77:44,1,95.9999970703126,8|2,0:0|0:0,0:0:0:0:
14,108,53328,1,0,0:0:0:0:
14,108,53428,2,0,P|11:155|20:179,1,47.9999985351563,8|0,0:0|0:0,0:0:0:0:
107,201,53628,2,0,L|176:191,1,47.9999985351563,2|0,0:0|0:0,0:0:0:0:
248,112,53828,6,0,B|253:149|253:149|260:155|260:155|255:163|255:163|257:188|257:188|254:198|254:198|260:207|260:207|267:252,1,143.999995605469,8|0,0:0|0:0,0:0:0:0:
266,248,54228,5,8,0:0:0:0:
233,245,54328,1,2,3:0:0:0:
199,249,54428,1,2,0:0:0:0:
170,265,54528,1,2,3:0:0:0:
180,348,54628,5,8,0:0:0:0:
213,351,54728,1,2,3:0:0:0:
247,347,54828,1,2,0:0:0:0:
276,331,54928,1,2,3:0:0:0:
301,316,55028,2,0,B|192:281|248:364|105:318,1,180.000006866455,8|0,0:0|0:0,0:0:0:0:
45,283,55428,5,4,0:0:0:0:
256,192,55528,12,0,60828,0:0:0:0:
