osu file format v14

[General]
AudioFilename: audio.mp3
AudioLeadIn: 0
PreviewTime: 4228
Countdown: 0
SampleSet: Soft
StackLeniency: 0.7
Mode: 0
LetterboxInBreaks: 0
WidescreenStoryboard: 1

[Editor]
DistanceSpacing: 1.5
BeatDivisor: 4
GridSize: 16
TimelineZoom: 1

[Metadata]
Title:KAIROS IN THE SPACE TIME
TitleUnicode:KAIROS IN THE SPACE TIME
Artist:L.E.D.
ArtistUnicode:L.E.D.
Creator:Suzuki_1112
Version:HYPER
Source:beatmania IIDX 22 PENDUAL
Tags:TALISMAN ORIGINAL SOUNDTRACK VOL.2 BEMANI KONAMI FUTURE SYSTEM BGM TECHINO Back to chronos
BeatmapID:1382463
BeatmapSetID:651953

[Difficulty]
HPDrainRate:5
CircleSize:4
OverallDifficulty:6
ApproachRate:7.5
SliderMultiplier:1.4
SliderTickRate:1

[Events]
//Background and Video events
0,0,"bg.jpg",0,0
//Break Periods
//Storyboard Layer 0 (Background)
//Storyboard Layer 1 (Fail)
//Storyboard Layer 2 (Pass)
//Storyboard Layer 3 (Foreground)
//Storyboard Sound Samples

[TimingPoints]
1028,400,4,2,1,100,1,0
4228,-100,4,2,1,100,0,1
16828,-100,4,2,1,100,0,0
17028,-100,4,2,1,100,0,1
29628,-100,4,2,1,100,0,0
29828,-100,4,2,1,100,0,1
41028,-100,4,2,1,100,0,0
49028,-83.3333333333333,4,2,1,100,0,1
55428,-100,4,2,1,100,0,0

[Colours]
Combo1 : 251,224,132
Combo2 : 255,128,128
Combo3 : 128,128,192
Combo4 : 253,185,130

[HitObjects]
256,192,1028,12,0,3828,0:0:0:0:
48,45,4228,6,0,P|60:102|57:133,1,70,12|0,0:0|0:0,0:0:0:0:
125,217,4628,2,0,P|132:175|144:141,1,70,8|0,0:0|0:0,0:0:0:0:
140,149,4928,1,0,0:0:0:0:
140,149,5028,2,0,L|216:143,1,70,8|0,0:0|0:0,0:0:0:0:
235,154,5328,1,0,0:0:0:0:
259,163,5428,2,0,L|341:154,1,70,8|0,0:0|0:0,0:0:0:0:
415,101,5828,6,0,B|429:122|429:122|421:199,1,70,12|0,0:0|0:0,0:0:0:0:
419,188,6128,1,0,0:0:0:0:
406,208,6228,2,0,L|411:288,1,70,8|0,0:0|0:0,0:0:0:0:
297,282,6628,2,0,P|253:274|217:278,2,70,8|0|8,0:0|0:0|0:0,0:0:0:0:
246,356,7228,1,0,0:0:0:0:
215,362,7328,1,0,0:0:0:0:
188,368,7428,6,0,L|102:357,1,70,8|0,0:0|0:0,0:0:0:0:
94,354,7728,1,0,0:0:0:0:
74,348,7828,2,0,P|64:304|71:263,1,70,8|0,0:0|0:0,0:0:0:0:
106,194,8228,1,8,0:0:0:0:
77,108,8428,1,0,0:0:0:0:
105,24,8628,2,0,L|164:26,1,35,8|0,0:0|0:0,0:0:0:0:
171,54,8828,2,0,L|221:57,1,35,0|0,0:0|0:0,0:0:0:0:
235,81,9028,6,0,P|289:65|320:64,2,70,8|0|8,0:0|0:0|0:0,0:0:0:0:
221,170,9628,1,0,0:0:0:0:
221,170,9728,1,0,0:0:0:0:
221,170,9828,2,0,L|216:247,1,70,8|0,0:0|0:0,0:0:0:0:
227,260,10128,1,0,0:0:0:0:
237,278,10228,2,0,L|299:273,1,35,8|0,0:0|0:0,0:0:0:0:
312,292,10428,2,0,L|361:284,1,35,0|0,0:0|0:0,0:0:0:0:
379,300,10628,6,0,B|396:264|396:264|391:175,1,105,12|0,0:0|0:0,0:0:0:0:
396,160,11028,2,0,L|307:158,1,70,8|0,0:0|0:0,0:0:0:0:
296,71,11428,2,0,L|219:61,1,70,8|0,0:0|0:0,0:0:0:0:
201,61,11728,1,0,0:0:0:0:
178,58,11828,2,0,P|190:102|194:135,1,70,8|0,0:0|0:0,0:0:0:0:
190,151,12128,1,0,0:0:0:0:
185,172,12228,6,0,L|98:165,2,70,12|0|8,0:0|0:0|0:0,0:0:0:0:
189,264,12828,1,0,0:0:0:0:
189,264,12928,1,0,0:0:0:0:
189,264,13028,2,0,L|190:360,1,70,8|0,0:0|0:0,0:0:0:0:
207,353,13328,1,0,0:0:0:0:
223,380,13428,2,0,P|275:358|318:362,1,70,8|0,0:0|0:0,0:0:0:0:
359,312,13828,6,0,L|439:307,1,70,8|0,0:0|0:0,0:0:0:0:
446,293,14128,1,0,0:0:0:0:
461,275,14228,2,0,L|466:227,1,35,8|0,0:0|0:0,0:0:0:0:
449,211,14428,2,0,L|442:161,1,35,0|0,0:0|0:0,0:0:0:0:
464,144,14628,2,0,P|416:158|385:153,1,70,8|0,0:0|0:0,0:0:0:0:
320,70,15028,2,0,L|233:72,1,70,8|0,0:0|0:0,0:0:0:0:
154,28,15428,6,0,B|144:57|144:57|157:119,1,70,8|0,0:0|0:0,0:0:0:0:
152,95,15728,1,0,0:0:0:0:
152,95,15828,2,0,L|111:88,3,35,8|2|2|2,0:0|3:0|3:0|3:0,0:0:0:0:
171,134,16228,2,0,L|212:127,3,35,8|0|2|2,0:0|3:0|3:0|3:0,0:0:0:0:
111,194,16628,2,0,P|161:181|217:213,1,105,8|0,0:0|0:0,0:0:0:0:
207,202,17028,6,0,L|203:289,1,70,12|0,0:0|0:0,0:0:0:0:
315,374,17428,2,0,L|320:287,1,70,8|0,0:0|0:0,0:0:0:0:
319,304,17728,1,0,0:0:0:0:
319,304,17828,2,0,P|356:311|398:304,1,70,8|0,0:0|0:0,0:0:0:0:
473,214,18228,2,0,L|470:166,1,35,8|0,0:0|0:0,0:0:0:0:
491,160,18428,2,0,L|488:118,1,35,0|0,0:0|0:0,0:0:0:0:
496,95,18628,6,0,P|445:82|400:89,1,70,12|0,0:0|0:0,0:0:0:0:
343,151,19028,2,0,P|298:154|255:143,1,70,8|0,0:0|0:0,0:0:0:0:
274,150,19328,1,0,0:0:0:0:
274,150,19428,2,0,L|279:231,1,70,8|0,0:0|0:0,0:0:0:0:
172,278,19828,2,0,P|162:229|175:197,1,70,8|0,0:0|0:0,0:0:0:0:
274,150,20228,6,0,P|334:120|398:142,1,105,8|0,0:0|0:0,0:0:0:0:
391,145,20628,2,0,P|389:92|399:61,1,70,8|0,0:0|0:0,0:0:0:0:
376,52,20928,1,0,0:0:0:0:
360,32,21028,2,0,L|284:44,1,70,8|0,0:0|0:0,0:0:0:0:
267,45,21328,1,0,0:0:0:0:
247,47,21428,1,8,0:0:0:0:
138,34,21628,2,0,L|146:83,1,35,0|0,0:0|0:0,0:0:0:0:
100,106,21828,6,0,P|131:97|178:107,2,70,8|0|8,0:0|0:0|0:0,0:0:0:0:
17,212,22428,1,0,0:0:0:0:
17,212,22528,1,0,0:0:0:0:
17,212,22628,2,0,L|22:272,1,35,8|0,0:0|0:0,0:0:0:0:
38,275,22828,2,0,L|35:326,1,35,0|0,0:0|0:0,0:0:0:0:
20,341,23028,2,0,P|67:319|97:323,1,70,8|0,0:0|0:0,0:0:0:0:
183,339,23428,6,0,B|258:343|258:343|295:332,1,105,12|0,0:0|0:0,0:0:0:0:
310,314,23828,2,0,L|400:303,1,70,8|0,0:0|0:0,0:0:0:0:
379,305,24128,1,0,0:0:0:0:
379,305,24228,2,0,L|467:293,2,70,8|0|8,0:0|0:0|0:0,0:0:0:0:
277,221,24828,2,0,P|277:196|281:171,1,35,0|0,0:0|0:0,0:0:0:0:
283,158,25028,6,0,P|336:162|362:170,1,70,12|0,0:0|0:0,0:0:0:0:
465,56,25428,2,0,P|423:71|385:71,1,70,8|0,0:0|0:0,0:0:0:0:
397,72,25728,1,0,0:0:0:0:
397,72,25828,2,0,L|356:69,1,35,8|0,0:0|0:0,0:0:0:0:
331,84,26028,2,0,L|281:77,1,35,0|0,0:0|0:0,0:0:0:0:
267,92,26228,2,0,B|211:86|211:86|176:97,1,70,8|0,0:0|0:0,0:0:0:0:
54,138,26628,6,0,P|63:198|64:224,1,70,8|0,0:0|0:0,0:0:0:0:
63,207,26928,1,0,0:0:0:0:
63,207,27028,2,0,L|147:200,1,70,8|0,0:0|0:0,0:0:0:0:
262,202,27428,2,0,L|253:253,1,35,8|0,0:0|0:0,0:0:0:0:
271,261,27628,2,0,L|280:306,1,35,0|0,0:0|0:0,0:0:0:0:
266,320,27828,2,0,P|309:302|340:300,1,70,8|0,0:0|0:0,0:0:0:0:
483,302,28228,6,0,B|476:260|476:260|480:217,1,70,8|0,0:0|0:0,0:0:0:0:
478,232,28528,1,0,0:0:0:0:
478,232,28628,2,0,L|531:242,3,35,8|2|2|2,0:0|3:0|3:0|3:0,0:0:0:0:
428,137,29028,2,0,L|376:148,3,35,8|2|2|2,0:0|3:0|3:0|3:0,0:0:0:0:
503,83,29428,2,0,P|471:54|386:63,1,105,8|0,0:0|0:0,0:0:0:0:
395,61,29828,6,0,L|307:52,1,70,12|2,0:0|0:0,0:0:0:0:
182,124,30228,2,0,L|264:119,1,70,8|2,0:0|0:0,0:0:0:0:
60,91,30628,2,0,P|52:132|67:173,1,70,8|2,0:0|0:0,0:0:0:0:
65,173,30928,1,0,0:0:0:0:
71,188,31028,2,0,L|60:245,1,35,8|0,0:0|0:0,0:0:0:0:
75,245,31228,2,0,L|78:290,1,35,2|0,0:0|0:0,0:0:0:0:
83,302,31428,6,0,P|128:284|155:283,1,70,12|2,0:0|0:0,0:0:0:0:
173,287,31728,1,0,0:0:0:0:
191,295,31828,2,0,P|228:309|258:306,1,70,8|2,0:0|0:0,0:0:0:0:
370,327,32228,2,0,L|364:252,1,70,8|2,0:0|0:0,0:0:0:0:
381,262,32528,1,0,0:0:0:0:
396,265,32628,2,0,L|386:178,1,70,8|2,0:0|0:0,0:0:0:0:
417,77,33028,6,0,P|372:78|337:98,1,70,8|2,0:0|0:0,0:0:0:0:
331,114,33328,1,0,0:0:0:0:
309,133,33428,2,0,P|262:119|239:95,1,70,8|2,0:0|0:0,0:0:0:0:
234,91,33728,1,0,0:0:0:0:
220,78,33828,2,0,L|232:161,1,70,8|2,0:0|0:0,0:0:0:0:
131,232,34228,2,0,P|121:193|126:138,1,70,8|2,0:0|0:0,0:0:0:0:
126,141,34528,1,0,0:0:0:0:
132,124,34628,6,0,L|51:133,1,70,8|2,0:0|0:0,0:0:0:0:
41,138,34928,1,0,0:0:0:0:
23,141,35028,2,0,L|32:206,1,35,8|0,0:0|0:0,0:0:0:0:
49,203,35228,2,0,L|50:258,1,35,2|0,0:0|0:0,0:0:0:0:
34,260,35428,6,0,P|51:303|49:358,1,70,8|2,0:0|0:0,0:0:0:0:
51,344,35728,1,0,0:0:0:0:
49,361,35828,2,0,L|143:350,1,70,8|2,0:0|0:0,0:0:0:0:
212,334,36228,6,0,B|277:344|277:344|317:337,1,105,12|0,0:0|0:0,0:0:0:0:
337,328,36628,2,0,L|348:245,1,70,8|2,0:0|0:0,0:0:0:0:
430,198,37028,2,0,P|421:145|424:106,1,70,8|2,0:0|0:0,0:0:0:0:
427,107,37328,1,0,0:0:0:0:
436,87,37428,2,0,L|387:92,1,35,8|0,0:0|0:0,0:0:0:0:
374,73,37628,2,0,L|325:76,1,35,2|0,0:0|0:0,0:0:0:0:
320,92,37828,6,0,P|276:80|235:83,1,70,12|2,0:0|0:0,0:0:0:0:
239,107,38128,1,0,0:0:0:0:
228,132,38228,2,0,P|180:148|147:143,1,70,8|2,0:0|0:0,0:0:0:0:
34,135,38628,1,8,0:0:0:0:
36,157,38728,1,0,0:0:0:0:
38,178,38828,2,0,L|35:227,1,35,2|0,0:0|0:0,0:0:0:0:
24,252,39028,2,0,L|29:298,2,35,8|0|2,0:0|0:0|0:0,0:0:0:0:
143,308,39428,6,0,B|180:320|180:320|252:309,1,105,8|0,0:0|0:0,0:0:0:0:
268,300,39828,2,0,L|260:388,1,70,8|2,0:0|0:0,0:0:0:0:
284,365,40128,1,0,0:0:0:0:
313,359,40228,2,0,L|351:356,1,35,8|0,0:0|0:0,0:0:0:0:
372,370,40428,2,0,L|417:367,1,35,2|0,0:0|0:0,0:0:0:0:
428,375,40628,2,0,L|476:369,3,35,8|0|2|0,0:0|0:0|0:0|0:0,0:0:0:0:
492,357,41028,6,0,P|501:298|491:276,1,70,0|2,0:0|0:0,0:0:0:0:
491,267,41328,1,0,0:0:0:0:
480,247,41428,2,0,L|389:258,1,70,0|2,0:0|0:0,0:0:0:0:
396,273,41728,1,0,0:0:0:0:
378,295,41828,2,0,L|339:299,3,35,0|0|2|0,0:0|0:0|0:0|0:0,0:0:0:0:
276,226,42228,2,0,L|310:229,3,35,0|0|2|0,0:0|0:0|0:0|0:0,0:0:0:0:
327,157,42628,5,4,0:0:0:0:
277,63,42928,1,0,0:0:0:0:
277,63,43028,2,0,P|232:51|199:52,1,70,0|2,0:0|0:0,0:0:0:0:
189,56,43328,1,0,0:0:0:0:
54,83,43728,1,0,0:0:0:0:
54,83,43828,2,0,L|61:174,1,70,0|2,0:0|0:0,0:0:0:0:
56,178,44128,1,0,0:0:0:0:
65,305,44528,5,0,0:0:0:0:
65,305,44628,2,0,B|91:303|91:303|112:310|112:310|145:304,1,70,0|2,0:0|0:0,0:0:0:0:
152,304,44928,1,0,0:0:0:0:
285,340,45328,1,0,0:0:0:0:
285,340,45428,2,0,P|326:319|361:323,1,70,0|2,0:0|0:0,0:0:0:0:
366,327,45728,1,0,0:0:0:0:
455,232,46128,5,0,0:0:0:0:
455,232,46228,2,0,B|467:201|467:201|455:138,1,70,0|2,0:0|0:0,0:0:0:0:
453,142,46528,1,0,0:0:0:0:
367,40,46928,1,0,0:0:0:0:
367,40,47028,2,0,P|307:42|281:59,1,70,0|2,0:0|0:0,0:0:0:0:
281,57,47328,1,0,0:0:0:0:
172,112,47728,5,0,0:0:0:0:
172,112,47828,2,0,B|145:129|145:129|78:125,1,70,0|2,0:0|0:0,0:0:0:0:
85,126,48128,1,0,0:0:0:0:
19,233,48528,1,0,0:0:0:0:
19,233,48628,2,0,P|30:274|22:327,1,70,0|0,0:0|0:0,0:0:0:0:
26,327,48928,1,0,0:0:0:0:
26,349,49028,6,0,P|97:331|139:330,1,83.9999974365235,12|2,0:0|0:0,0:0:0:0:
126,335,49328,1,0,0:0:0:0:
144,342,49428,2,0,L|235:332,1,83.9999974365235,8|2,0:0|0:0,0:0:0:0:
251,342,49728,1,0,0:0:0:0:
277,352,49828,2,0,B|291:321|291:321|286:249,1,83.9999974365235,8|2,0:0|0:0,0:0:0:0:
270,250,50128,1,0,0:0:0:0:
255,231,50228,2,0,L|248:174,1,41.9999987182618,8|0,0:0|0:0,0:0:0:0:
271,165,50428,2,0,L|266:108,1,41.9999987182618,2|0,0:0|0:0,0:0:0:0:
277,92,50628,6,0,P|233:86|180:99,1,83.9999974365235,12|2,0:0|0:0,0:0:0:0:
178,109,50928,1,0,0:0:0:0:
163,125,51028,2,0,L|56:114,1,83.9999974365235,8|2,0:0|0:0,0:0:0:0:
15,235,51428,2,0,P|7:273|22:333,1,83.9999974365235,8|2,0:0|0:0,0:0:0:0:
27,339,51728,1,0,0:0:0:0:
37,356,51828,2,0,L|95:348,1,41.9999987182618,8|0,0:0|0:0,0:0:0:0:
115,333,52028,2,0,L|173:323,1,41.9999987182618,2|0,0:0|0:0,0:0:0:0:
193,331,52228,6,0,B|240:323|240:323|270:339|270:339|339:329,1,125.999996154785,8|0,0:0|0:0,0:0:0:0:
348,324,52628,2,0,L|356:229,1,83.9999974365235,8|2,0:0|0:0,0:0:0:0:
422,127,53028,2,0,P|409:80|380:51,1,83.9999974365235,8|2,0:0|0:0,0:0:0:0:
368,40,53328,1,0,0:0:0:0:
353,27,53428,2,0,L|290:32,1,41.9999987182618,8|0,0:0|0:0,0:0:0:0:
289,59,53628,2,0,L|238:55,1,41.9999987182618,2|0,0:0|0:0,0:0:0:0:
222,42,53828,6,0,L|230:136,1,83.9999974365235,8|2,0:0|0:0,0:0:0:0:
214,147,54128,1,0,0:0:0:0:
195,168,54228,2,0,L|144:160,3,41.9999987182618,8|2|2|2,0:0|3:0|0:0|3:0,0:0:0:0:
217,243,54628,2,0,L|271:232,3,41.9999987182618,8|2|2|2,0:0|3:0|0:0|3:0,0:0:0:0:
130,286,55028,2,0,P|186:277|257:315,1,125.999996154785,8|0,0:0|0:0,0:0:0:0:
319,381,55428,5,4,0:0:0:0:
256,192,55528,12,0,60828,0:0:0:0:
