osu file format v14

[General]
AudioFilename: Confiserie.mp3
AudioLeadIn: 0
PreviewTime: 53621
Countdown: 0
SampleSet: Normal
StackLeniency: 0.7
Mode: 3
LetterboxInBreaks: 0
SpecialStyle: 0
WidescreenStoryboard: 1

[Editor]
Bookmarks: 33026
DistanceSpacing: 1.5
BeatDivisor: 2
GridSize: 32
TimelineZoom: 0.9999999

[Metadata]
Title:Confiserie
TitleUnicode:Confiserie
Artist:L.E.D vs S-C-U
ArtistUnicode:L.E.D vs S-C-U
Creator:Level 51
Version:Easy
Source:
Tags:
BeatmapID:867346
BeatmapSetID:398906

[Difficulty]
HPDrainRate:7
CircleSize:7
OverallDifficulty:6.4
ApproachRate:5
SliderMultiplier:1.4
SliderTickRate:1

[Events]
//Background and Video events
0,0,"gummi bg.jpg",0,0
//Break Periods
//Storyboard Layer 0 (Background)
//Storyboard Layer 1 (Fail)
//Storyboard Layer 2 (Pass)
//Storyboard Layer 3 (Foreground)
//Storyboard Layer 4 (Overlay)
//Storyboard Sound Samples

[TimingPoints]
594,324.324324324324,4,1,0,0,1,0
53783,-100,4,1,0,0,0,1
77134,-100,4,1,0,0,0,0
90107,-100,4,1,0,0,0,1
95215,-100,4,1,0,0,0,0
95296,-100,4,1,0,0,0,1
100485,-100,4,1,0,0,0,0

[HitObjects]
36,192,594,5,0,0:0:0:0:
182,192,756,1,0,0:0:0:0:
329,192,918,1,0,0:0:0:0:
475,192,1080,1,0,0:0:0:0:
109,192,1242,1,0,0:0:0:0:
402,192,1404,1,0,0:0:0:0:
256,192,1566,128,0,1891:0:0:0:0:
36,192,1891,1,0,0:0:0:0:
182,192,2215,1,0,0:0:0:0:
109,192,2215,1,0,0:0:0:0:
475,192,2539,1,0,0:0:0:0:
329,192,2864,1,0,0:0:0:0:
402,192,2864,1,0,0:0:0:0:
36,192,3188,1,0,0:0:0:0:
182,192,3512,1,0,0:0:0:0:
109,192,3512,1,0,0:0:0:0:
475,192,3837,1,0,0:0:0:0:
329,192,4161,1,0,0:0:0:0:
402,192,4161,1,0,0:0:0:0:
182,192,4485,1,0,0:0:0:0:
36,192,4810,1,0,0:0:0:0:
109,192,4810,1,0,0:0:0:0:
329,192,5134,1,0,0:0:0:0:
402,192,5458,1,0,0:0:0:0:
475,192,5458,1,0,0:0:0:0:
36,192,5783,1,0,0:0:0:0:
109,192,6107,1,0,0:0:0:0:
182,192,6431,1,0,0:0:0:0:
329,192,6593,128,0,7080:0:0:0:0:
36,192,7080,1,0,0:0:0:0:
475,192,7080,1,0,0:0:0:0:
109,192,7729,1,0,0:0:0:0:
402,192,7729,1,0,0:0:0:0:
36,192,8377,1,0,0:0:0:0:
475,192,8377,1,0,0:0:0:0:
109,192,8702,1,0,0:0:0:0:
402,192,8702,1,0,0:0:0:0:
182,192,9026,1,0,0:0:0:0:
329,192,9026,1,0,0:0:0:0:
36,192,9675,1,0,0:0:0:0:
182,192,9999,1,0,0:0:0:0:
329,192,10323,1,0,0:0:0:0:
475,192,10648,1,0,0:0:0:0:
182,192,10972,1,0,0:0:0:0:
329,192,10972,1,0,0:0:0:0:
109,192,11621,1,0,0:0:0:0:
402,192,11621,1,0,0:0:0:0:
36,192,12269,1,0,0:0:0:0:
109,192,12593,1,0,0:0:0:0:
182,192,12918,1,0,0:0:0:0:
256,192,13242,1,0,0:0:0:0:
475,192,13566,1,0,0:0:0:0:
402,192,13891,1,0,0:0:0:0:
329,192,14215,1,0,0:0:0:0:
256,192,14539,1,0,0:0:0:0:
36,192,14864,1,0,0:0:0:0:
182,192,15188,1,0,0:0:0:0:
329,192,15512,1,0,0:0:0:0:
475,192,15837,1,0,0:0:0:0:
475,192,16161,1,0,0:0:0:0:
329,192,16485,1,0,0:0:0:0:
182,192,16810,1,0,0:0:0:0:
36,192,17134,1,0,0:0:0:0:
256,192,17296,1,0,0:0:0:0:
475,192,17458,1,0,0:0:0:0:
402,192,17783,1,0,0:0:0:0:
329,192,18107,1,0,0:0:0:0:
256,192,18431,1,0,0:0:0:0:
36,192,18756,1,0,0:0:0:0:
109,192,19080,1,0,0:0:0:0:
182,192,19404,1,0,0:0:0:0:
256,192,19729,1,0,0:0:0:0:
475,192,20053,1,0,0:0:0:0:
36,192,20377,1,0,0:0:0:0:
402,192,20702,1,0,0:0:0:0:
109,192,21026,1,0,0:0:0:0:
329,192,21350,1,0,0:0:0:0:
182,192,21675,1,0,0:0:0:0:
256,192,21999,1,0,0:0:0:0:
402,192,22648,1,0,0:0:0:0:
329,192,22972,1,0,0:0:0:0:
256,192,23296,1,0,0:0:0:0:
182,192,23621,1,0,0:0:0:0:
329,192,23945,1,0,0:0:0:0:
256,192,24269,1,0,0:0:0:0:
182,192,24593,1,0,0:0:0:0:
109,192,24918,1,0,0:0:0:0:
475,192,25242,1,0,0:0:0:0:
329,192,25566,1,0,0:0:0:0:
182,192,25891,1,0,0:0:0:0:
36,192,26215,1,0,0:0:0:0:
36,192,26539,1,0,0:0:0:0:
182,192,26864,1,0,0:0:0:0:
329,192,27188,1,0,0:0:0:0:
475,192,27512,1,0,0:0:0:0:
402,192,27837,1,0,0:0:0:0:
329,192,28161,1,0,0:0:0:0:
256,192,28485,1,0,0:0:0:0:
182,192,28810,1,0,0:0:0:0:
36,192,28972,1,0,0:0:0:0:
475,192,29134,1,0,0:0:0:0:
36,192,29458,1,0,0:0:0:0:
402,192,29783,1,0,0:0:0:0:
109,192,30107,1,0,0:0:0:0:
329,192,30431,1,0,0:0:0:0:
182,192,30756,1,0,0:0:0:0:
402,192,31080,1,0,0:0:0:0:
109,192,31404,1,0,0:0:0:0:
475,192,31729,1,0,0:0:0:0:
36,192,32053,1,0,0:0:0:0:
109,192,32377,128,0,33026:0:0:0:0:
475,192,33026,1,0,0:0:0:0:
329,192,33269,1,0,0:0:0:0:
182,192,33512,1,0,0:0:0:0:
329,192,34323,1,0,0:0:0:0:
109,192,34566,1,0,0:0:0:0:
475,192,34810,1,0,0:0:0:0:
36,192,35621,1,0,0:0:0:0:
475,192,35864,1,0,0:0:0:0:
256,192,36107,1,0,0:0:0:0:
402,192,36431,1,0,0:0:0:0:
256,192,36593,1,0,0:0:0:0:
109,192,36756,128,0,38215:0:0:0:0:
475,192,38215,1,0,0:0:0:0:
182,192,38458,1,0,0:0:0:0:
256,192,38702,1,0,0:0:0:0:
402,192,39512,1,0,0:0:0:0:
36,192,39756,1,0,0:0:0:0:
256,192,39999,1,0,0:0:0:0:
402,192,40810,1,0,0:0:0:0:
402,192,41053,1,0,0:0:0:0:
256,192,41296,1,0,0:0:0:0:
475,192,41621,1,0,0:0:0:0:
329,192,41783,1,0,0:0:0:0:
182,192,41945,128,0,43404:0:0:0:0:
475,192,43404,1,0,0:0:0:0:
329,192,43648,1,0,0:0:0:0:
36,192,43891,1,0,0:0:0:0:
256,192,44702,1,0,0:0:0:0:
109,192,44945,1,0,0:0:0:0:
475,192,45188,1,0,0:0:0:0:
256,192,45999,1,0,0:0:0:0:
475,192,46242,1,0,0:0:0:0:
109,192,46485,1,0,0:0:0:0:
402,192,46810,1,0,0:0:0:0:
256,192,46972,1,0,0:0:0:0:
109,192,47134,128,0,48593:0:0:0:0:
475,192,48593,1,0,0:0:0:0:
36,192,48593,1,0,0:0:0:0:
182,192,48918,1,0,0:0:0:0:
329,192,48918,1,0,0:0:0:0:
109,192,49242,1,0,0:0:0:0:
402,192,49242,1,0,0:0:0:0:
36,192,49566,1,0,0:0:0:0:
475,192,49566,1,0,0:0:0:0:
109,192,49891,1,0,0:0:0:0:
182,192,49891,1,0,0:0:0:0:
329,192,50215,1,0,0:0:0:0:
402,192,50215,1,0,0:0:0:0:
109,192,50539,1,0,0:0:0:0:
182,192,50539,1,0,0:0:0:0:
329,192,50864,1,0,0:0:0:0:
402,192,50864,1,0,0:0:0:0:
182,192,51188,1,0,0:0:0:0:
182,192,51431,1,0,0:0:0:0:
402,192,51675,1,0,0:0:0:0:
329,192,51837,1,0,0:0:0:0:
109,192,52080,1,0,0:0:0:0:
475,192,52323,1,0,0:0:0:0:
475,192,53783,1,0,0:0:0:0:
109,192,54107,1,0,0:0:0:0:
402,192,54431,1,0,0:0:0:0:
36,192,54756,1,0,0:0:0:0:
109,192,55080,1,0,0:0:0:0:
475,192,55404,1,0,0:0:0:0:
36,192,55729,1,0,0:0:0:0:
402,192,56053,1,0,0:0:0:0:
329,192,56377,1,0,0:0:0:0:
256,192,56702,1,0,0:0:0:0:
182,192,57026,1,0,0:0:0:0:
109,192,57350,1,0,0:0:0:0:
402,192,57675,1,0,0:0:0:0:
329,192,57999,1,0,0:0:0:0:
256,192,58323,1,0,0:0:0:0:
182,192,58648,1,0,0:0:0:0:
36,192,58972,1,0,0:0:0:0:
475,192,58972,1,0,0:0:0:0:
256,192,59296,1,0,0:0:0:0:
109,192,59621,1,0,0:0:0:0:
402,192,59621,1,0,0:0:0:0:
256,192,59945,1,0,0:0:0:0:
36,192,60269,1,0,0:0:0:0:
402,192,60512,1,0,0:0:0:0:
109,192,60756,1,0,0:0:0:0:
256,192,60918,1,0,0:0:0:0:
36,192,61242,1,0,0:0:0:0:
182,192,61404,128,0,61566:0:0:0:0:
475,192,61566,1,0,0:0:0:0:
402,192,61729,1,0,0:0:0:0:
329,192,61891,1,0,0:0:0:0:
256,192,62053,1,0,0:0:0:0:
36,192,62215,1,0,0:0:0:0:
109,192,62377,1,0,0:0:0:0:
182,192,62539,1,0,0:0:0:0:
256,192,62702,1,0,0:0:0:0:
475,192,62864,1,0,0:0:0:0:
36,192,63107,1,0,0:0:0:0:
182,192,63350,1,0,0:0:0:0:
402,192,63512,1,0,0:0:0:0:
182,192,63837,128,0,64161:0:0:0:0:
475,192,64161,1,0,0:0:0:0:
329,192,64485,1,0,0:0:0:0:
182,192,64810,1,0,0:0:0:0:
36,192,65134,1,0,0:0:0:0:
256,192,65296,1,0,0:0:0:0:
402,192,65458,1,0,0:0:0:0:
256,192,65783,1,0,0:0:0:0:
109,192,66107,1,0,0:0:0:0:
182,192,66431,1,0,0:0:0:0:
475,192,66756,128,0,67080:0:0:0:0:
329,192,67080,128,0,67404:0:0:0:0:
182,192,67404,128,0,67729:0:0:0:0:
36,192,67729,128,0,68053:0:0:0:0:
256,192,68053,128,0,69350:0:0:0:0:
475,192,69350,1,0,0:0:0:0:
36,192,69675,1,0,0:0:0:0:
402,192,69999,1,0,0:0:0:0:
109,192,70323,1,0,0:0:0:0:
256,192,70648,1,0,0:0:0:0:
475,192,70891,1,0,0:0:0:0:
36,192,71134,1,0,0:0:0:0:
256,192,71296,128,0,71945:0:0:0:0:
36,192,71945,1,0,0:0:0:0:
182,192,72188,1,0,0:0:0:0:
329,192,72431,1,0,0:0:0:0:
109,192,72593,1,0,0:0:0:0:
256,192,72837,1,0,0:0:0:0:
402,192,72999,1,0,0:0:0:0:
36,192,73242,1,0,0:0:0:0:
182,192,73566,5,0,0:0:0:0:
329,192,73891,1,0,0:0:0:0:
475,192,74215,1,0,0:0:0:0:
402,192,74539,128,0,75837:0:0:0:0:
36,192,75837,128,0,76648:0:0:0:0:
475,192,76648,1,0,0:0:0:0:
329,192,76810,1,0,0:0:0:0:
182,192,76972,1,0,0:0:0:0:
402,192,77134,1,0,0:0:0:0:
256,192,77377,1,0,0:0:0:0:
36,192,77621,1,0,0:0:0:0:
109,192,77945,1,0,0:0:0:0:
182,192,78107,1,0,0:0:0:0:
256,192,78269,1,0,0:0:0:0:
329,192,78431,1,0,0:0:0:0:
109,192,78675,1,0,0:0:0:0:
475,192,78918,1,0,0:0:0:0:
329,192,79242,1,0,0:0:0:0:
256,192,79404,1,0,0:0:0:0:
182,192,79566,1,0,0:0:0:0:
109,192,79729,1,0,0:0:0:0:
402,192,79972,1,0,0:0:0:0:
182,192,80215,1,0,0:0:0:0:
475,192,80539,1,0,0:0:0:0:
256,192,80702,1,0,0:0:0:0:
36,192,80864,128,0,81350:0:0:0:0:
109,192,81512,1,0,0:0:0:0:
329,192,81675,1,0,0:0:0:0:
109,192,81837,1,0,0:0:0:0:
329,192,81999,1,0,0:0:0:0:
402,192,82161,1,0,0:0:0:0:
475,192,82323,1,0,0:0:0:0:
36,192,82323,1,0,0:0:0:0:
109,192,82648,1,0,0:0:0:0:
402,192,82648,1,0,0:0:0:0:
182,192,82972,1,0,0:0:0:0:
329,192,82972,1,0,0:0:0:0:
36,192,83296,1,0,0:0:0:0:
475,192,83296,1,0,0:0:0:0:
109,192,83621,1,0,0:0:0:0:
182,192,83621,1,0,0:0:0:0:
402,192,83945,1,0,0:0:0:0:
329,192,83945,1,0,0:0:0:0:
182,192,84269,1,0,0:0:0:0:
109,192,84269,1,0,0:0:0:0:
402,192,84593,1,0,0:0:0:0:
329,192,84593,1,0,0:0:0:0:
182,192,84918,1,0,0:0:0:0:
182,192,85161,1,0,0:0:0:0:
402,192,85404,1,0,0:0:0:0:
329,192,85566,1,0,0:0:0:0:
109,192,85810,1,0,0:0:0:0:
475,192,86053,1,0,0:0:0:0:
329,192,87512,1,0,0:0:0:0:
329,192,87756,1,0,0:0:0:0:
109,192,87999,1,0,0:0:0:0:
182,192,88161,1,0,0:0:0:0:
402,192,88404,1,0,0:0:0:0:
475,192,88648,1,0,0:0:0:0:
36,192,89458,1,0,0:0:0:0:
182,192,89621,1,0,0:0:0:0:
329,192,89783,128,0,90107:0:0:0:0:
475,192,90107,1,0,0:0:0:0:
36,192,90431,1,0,0:0:0:0:
402,192,90756,1,0,0:0:0:0:
109,192,91080,1,0,0:0:0:0:
256,192,91404,1,0,0:0:0:0:
36,192,91729,1,0,0:0:0:0:
182,192,92053,1,0,0:0:0:0:
329,192,92377,1,0,0:0:0:0:
475,192,92702,1,0,0:0:0:0:
402,192,93026,1,0,0:0:0:0:
329,192,93350,1,0,0:0:0:0:
256,192,93675,1,0,0:0:0:0:
182,192,93999,128,0,95296:0:0:0:0:
402,192,95296,1,0,0:0:0:0:
36,192,95621,1,0,0:0:0:0:
329,192,95945,1,0,0:0:0:0:
109,192,96269,1,0,0:0:0:0:
182,192,96593,1,0,0:0:0:0:
402,192,96837,1,0,0:0:0:0:
36,192,97080,1,0,0:0:0:0:
256,192,97242,1,0,0:0:0:0:
329,192,97566,128,0,97891:0:0:0:0:
36,192,97891,1,0,0:0:0:0:
182,192,98134,1,0,0:0:0:0:
329,192,98377,1,0,0:0:0:0:
109,192,98539,1,0,0:0:0:0:
256,192,98783,1,0,0:0:0:0:
402,192,99026,1,0,0:0:0:0:
475,192,99188,1,0,0:0:0:0:
329,192,99512,1,0,0:0:0:0:
256,192,99837,1,0,0:0:0:0:
182,192,100161,1,0,0:0:0:0:
36,192,100485,1,0,0:0:0:0:
475,192,100485,1,0,0:0:0:0:
109,192,100810,1,0,0:0:0:0:
402,192,100810,1,0,0:0:0:0:
182,192,101134,1,0,0:0:0:0:
329,192,101134,1,0,0:0:0:0:
36,192,101458,1,0,0:0:0:0:
475,192,101458,1,0,0:0:0:0:
402,192,101783,1,0,0:0:0:0:
329,192,101945,1,0,0:0:0:0:
256,192,102107,1,0,0:0:0:0:
182,192,102269,1,0,0:0:0:0:
109,192,102431,1,0,0:0:0:0:
402,192,102756,1,0,0:0:0:0:
36,192,103404,1,0,0:0:0:0:
475,192,103404,1,0,0:0:0:0:
182,192,103891,1,0,0:0:0:0:
329,192,103891,1,0,0:0:0:0:
36,192,104377,1,0,0:0:0:0:
109,192,104539,1,0,0:0:0:0:
182,192,104702,1,0,0:0:0:0:
475,192,104864,1,0,0:0:0:0:
402,192,104864,1,0,0:0:0:0:
