osu file format v14

[General]
AudioFilename: audio.mp3
AudioLeadIn: 0
PreviewTime: 132507
Countdown: 0
SampleSet: Soft
StackLeniency: 0.7
Mode: 0
LetterboxInBreaks: 0
WidescreenStoryboard: 1

[Editor]
DistanceSpacing: 1.1
BeatDivisor: 4
GridSize: 32
TimelineZoom: 2.4

[Metadata]
Title:I'm Alive (Helsinki II)
TitleUnicode:I'm Alive (Helsinki II)
Artist:L.A.O.S.
ArtistUnicode:L.A.O.S.
Creator:capr
Version:Asphyxia's Hard
Source:
Tags:english electronic laos high tea music rush hour liquicity yearmix 2017 featured artist fa dnb drum and bass 228 sanch-kk asphyxia celektus
BeatmapID:4506146
BeatmapSetID:2131861

[Difficulty]
HPDrainRate:4.5
CircleSize:3.8
OverallDifficulty:7.5
ApproachRate:8
SliderMultiplier:1.5
SliderTickRate:1

[Events]
//Background and Video events
0,0,"bg.png",0,0
//Break Periods
2,88655,107016
2,176931,178395
//Storyboard Layer 0 (Background)
//Storyboard Layer 1 (Fail)
//Storyboard Layer 2 (Pass)
//Storyboard Layer 3 (Foreground)
//Storyboard Layer 4 (Overlay)
//Storyboard Sound Samples

[TimingPoints]
180,344.827586206897,4,2,1,40,1,0
11214,-100,4,2,1,50,0,0
20869,-100,4,2,1,60,0,0
21386,-100,4,2,1,50,0,0
21731,-100,4,2,1,50,0,0
22248,-100,4,2,1,60,0,0
37421,-100,4,2,1,50,0,0
38800,-111.111111111111,4,2,1,40,0,0
39145,-111.111111111111,4,2,1,40,0,0
40180,-125,4,2,1,30,0,0
41559,-142.857142857143,4,2,1,20,0,0
42248,-142.857142857143,4,2,1,20,0,0
42421,-142.857142857143,4,2,1,20,0,0
42938,-142.857142857143,4,2,1,10,0,0
43455,-142.857142857143,4,2,1,10,0,0
43800,-142.857142857143,4,2,1,10,0,0
44145,-142.857142857143,4,2,1,10,0,0
44231,-142.857142857143,4,2,1,10,0,0
44317,-100,4,2,1,65,0,0
66386,-86.9565217391304,4,2,2,80,0,1
70869,-86.9565217391304,4,2,1,80,0,1
71904,-86.9565217391304,4,2,2,80,0,1
81904,-86.9565217391304,4,2,1,80,0,1
82938,-86.9565217391304,4,2,2,80,0,1
88455,-100,4,2,2,45,0,0
99490,-100,4,2,1,45,0,0
100869,-100,4,2,1,45,0,0
101559,-100,4,2,1,45,0,0
102162,-100,4,2,1,45,0,0
102248,-100,4,2,1,45,0,0
103628,-100,4,2,1,45,0,0
104317,-100,4,2,1,45,0,0
104921,-100,4,2,1,45,0,0
105007,-100,4,2,1,45,0,0
106386,-100,4,2,1,45,0,0
107076,-100,4,2,1,45,0,0
107766,-100,4,2,1,45,0,0
108455,-100,4,2,1,45,0,0
109145,-100,4,2,1,45,0,0
109835,-100,4,2,1,45,0,0
110524,-142.857142857143,4,2,2,55,0,0
111042,-142.857142857143,4,2,2,55,0,0
111559,-142.857142857143,4,2,2,55,0,0
112076,-142.857142857143,4,2,2,55,0,0
113283,-142.857142857143,4,2,2,55,0,0
113800,-142.857142857143,4,2,2,55,0,0
124317,-166.666666666667,4,2,2,55,0,0
127076,-200,4,2,2,55,0,0
131214,-100,4,2,1,65,0,0
131731,-86.9565217391304,4,2,1,70,0,1
132593,-86.9565217391304,4,2,2,80,0,1
137076,-86.9565217391304,4,2,1,80,0,1
138111,-86.9565217391304,4,2,2,80,0,1
148111,-86.9565217391304,4,2,1,80,0,1
149145,-86.9565217391304,4,2,2,80,0,1
154662,-100,4,2,2,70,0,0
155007,-100,4,2,1,70,0,0
168455,-100,4,2,2,70,0,0
170007,-100,4,2,2,70,0,0
170352,-100,4,2,2,70,0,0
171214,-125,4,2,2,60,0,0
172248,-100,4,2,2,60,0,0
172593,-142.857142857143,4,2,2,50,0,0
173973,-142.857142857143,4,2,2,50,0,0
175352,-142.857142857143,4,2,1,40,0,0
175524,-100,4,2,1,40,0,0
175697,-100,4,2,1,50,0,0
176042,-100,4,2,1,60,0,0
176386,-100,4,2,1,70,0,0
176731,-100,4,2,2,70,0,0
179490,-86.9565217391304,4,2,2,80,0,1
181214,-86.9565217391304,4,2,1,80,0,1
182248,-86.9565217391304,4,2,2,80,0,1
192248,-86.9565217391304,4,2,1,80,0,1
193283,-86.9565217391304,4,2,2,80,0,1
197421,-86.9565217391304,4,2,2,80,0,1
198800,-86.9565217391304,4,2,2,80,0,1
203283,-86.9565217391304,4,2,1,80,0,1
204317,-86.9565217391304,4,2,2,80,0,1
214317,-86.9565217391304,4,2,1,80,0,1
215352,-86.9565217391304,4,2,2,80,0,1
220869,-86.9565217391304,4,2,2,70,0,0
231904,-100,4,2,2,60,0,0
234662,-100,4,2,2,60,0,0
237421,-125,4,2,2,50,0,0
240180,-125,4,2,2,50,0,0

[Colours]
Combo1 : 244,179,191
Combo2 : 180,105,216
Combo3 : 158,104,95
Combo4 : 179,142,166
Combo5 : 105,108,216

[HitObjects]
37,319,180,5,0,1:1:0:0:
91,155,524,2,0,L|104:233,1,75,8|0,2:2|0:0,0:0:0:0:
103,228,783,1,0,0:0:0:0:
103,228,869,1,0,0:0:0:0:
186,193,1042,1,0,1:1:0:0:
253,252,1214,2,0,L|336:240,1,75,8|0,2:2|0:0,0:0:0:0:
403,191,1559,6,0,P|421:232|412:270,2,75,0|0|8,1:1|0:0|2:2,0:0:0:0:
350,117,2076,2,0,L|357:80,2,37.5
277,170,2421,1,0,1:1:0:0:
205,115,2593,2,0,L|212:79,2,37.5,8|0|0,2:2|0:0|0:0,0:0:0:0:
127,85,2938,5,0,1:1:0:0:
59,236,3283,2,0,L|137:249,1,75,8|0,2:2|0:0,0:0:0:0:
132,248,3542,1,0,0:0:0:0:
132,248,3628,1,0,0:0:0:0:
89,326,3800,1,0,1:1:0:0:
177,343,3973,2,0,L|251:331,1,75,8|0,2:2|0:0,0:0:0:0:
332,294,4317,6,0,L|414:309,2,75,0|0|8,1:1|0:0|2:2,0:0:0:0:
339,211,4835,2,0,L|303:204,2,37.5
397,152,5180,1,0,1:1:0:0:
462,204,5352,2,0,L|469:240,2,37.5,8|0|0,2:2|0:0|0:0,0:0:0:0:
484,124,5697,5,0,1:1:0:0:
324,20,6042,2,0,L|335:96,1,75,8|0,2:2|0:0,0:0:0:0:
334,94,6300,1,0,0:0:0:0:
334,94,6386,1,0,0:0:0:0:
256,160,6559,1,0,1:1:0:0:
176,95,6731,2,0,L|189:22,1,75,8|0,2:2|0:0,0:0:0:0:
108,3,7076,5,0,1:1:0:0:
55,159,7421,1,8,2:2:0:0:
99,232,7593,2,0,L|159:214,2,37.5
51,308,7938,1,0,1:1:0:0:
128,353,8111,2,0,P|173:344|200:323,1,75,8|0,2:2|0:0,0:0:0:0:
195,327,8369,1,0,0:0:0:0:
195,327,8455,1,0,1:1:0:0:
256,258,8628,5,0,0:0:0:0:
315,327,8800,2,0,P|347:347|384:353,1,75,8|0,2:2|0:0,0:0:0:0:
383,352,9059,1,0,0:0:0:0:
383,352,9145,1,0,0:0:0:0:
378,262,9317,1,0,1:1:0:0:
468,260,9490,2,0,P|459:223|437:192,1,75,8|0,2:2|0:0,0:0:0:0:
356,153,9835,6,0,P|348:82|410:36,1,150,0|8,1:1|2:2,0:0:0:0:
486,76,10352,2,0,P|494:147|432:193,1,150,0|8,1:1|2:2,0:0:0:0:
356,153,10869,2,0,P|305:141|258:135,1,75
209,190,11214,6,0,B|112:193|157:232|62:237,1,150,0|8,1:1|2:2,0:0:0:0:
77,153,11731,1,0,0:0:0:0:
77,153,11817,1,0,0:0:0:0:
77,153,11904,2,0,L|95:65,1,75,0|0,0:0|1:1,0:0:0:0:
12,46,12248,2,0,L|-6:134,1,75,8|0,2:2|0:0,0:0:0:0:
69,236,12593,6,0,B|157:232|112:193|209:190,1,150,0|8,1:1|2:2,0:0:0:0:
293,224,13111,2,0,L|345:237,2,37.5
223,282,13455,1,0,1:1:0:0:
297,333,13628,2,0,L|349:320,2,37.5,8|0|0,2:2|0:0|0:0,0:0:0:0:
223,282,13973,5,0,1:1:0:0:
168,353,14145,2,0,L|88:340,1,75,0|8,0:0|2:2,0:0:0:0:
61,256,14490,2,0,L|134:268,1,75
190,197,14835,2,0,B|201:161|201:161|187:118,2,75,0|8|0,1:1|2:2|0:0,0:0:0:0:
266,73,15352,6,0,B|291:151|291:151|357:193,1,150,0|8,1:1|2:2,0:0:0:0:
432,152,15869,2,0,L|482:140,2,37.5
349,188,16214,1,0,1:1:0:0:
361,276,16386,2,0,L|373:326,2,37.5,8|0|0,2:2|0:0|0:0,0:0:0:0:
277,254,16731,1,0,1:1:0:0:
277,254,16904,6,0,L|255:338,1,75,0|8,0:0|2:2,0:0:0:0:
217,185,17248,2,0,L|142:228,1,75
216,104,17593,1,0,1:1:0:0:
216,104,17680,1,0,0:0:0:0:
216,104,17766,2,0,P|264:116|287:142,1,75,8|0,2:2|0:0,0:0:0:0:
83,156,18111,6,0,P|81:81|149:35,1,150,0|8,1:1|2:2,0:0:0:0:
221,11,18628,2,0,L|257:19,2,37.5
326,68,18973,1,0,1:1:0:0:
216,104,19145,2,0,L|179:112,2,37.5,8|0|0,2:2|0:0|0:0,0:0:0:0:
288,157,19490,5,0,1:1:0:0:
368,197,19662,2,0,L|442:208,1,75,0|8,0:0|2:2,0:0:0:0:
296,254,20007,2,0,L|221:265,1,75
372,304,20352,2,0,L|446:315,1,75,0|8,1:1|2:2,0:0:0:0:
296,254,20697,2,0,L|221:242,2,75,0|0|0,0:0|1:1|0:0,0:0:0:0:
288,157,21214,1,8,2:2:0:0:
140,131,21386,6,0,L|312:161,1,150,0|8,1:1|2:2,0:0:0:0:
148,229,21904,2,0,L|233:244,1,75,2|2,2:2|2:2,0:0:0:0:
364,195,22248,6,0,P|372:139|303:70,1,150,4|8,1:2|2:2,0:0:0:0:
231,112,22766,1,0,0:0:0:0:
183,203,22938,2,0,L|256:190,2,75,0|0|8,0:0|1:1|2:2,0:0:0:0:
139,273,23455,1,0,0:0:0:0:
189,345,23628,1,0,1:1:0:0:
189,345,23800,2,0,L|262:357,1,75,0|8,0:0|2:2,0:0:0:0:
351,376,24145,2,0,L|344:339,2,37.5
444,384,24490,1,0,1:1:0:0:
444,384,24662,2,0,B|457:351|457:351|444:305,1,75,8|0,2:2|0:0,0:0:0:0:
444,222,25007,6,0,P|436:166|505:97,1,150,0|8,1:1|2:2,0:0:0:0:
414,61,25524,2,0,L|407:24,2,37.5
333,102,25869,1,0,1:1:0:0:
351,190,26042,2,0,P|304:187|269:166,1,75,8|0,2:2|0:0,0:0:0:0:
279,174,26300,1,0,0:0:0:0:
279,174,26386,5,0,1:1:0:0:
237,94,26559,1,0,0:0:0:0:
184,167,26731,2,0,L|116:198,1,75,8|0,2:2|0:0,0:0:0:0:
117,284,27076,1,0,0:0:0:0:
117,284,27248,2,0,L|91:354,2,75,0|8|0,1:1|2:2|0:0,0:0:0:0:
37,243,27766,6,0,B|7:180|7:180|53:99,1,150,0|8,1:1|2:2,0:0:0:0:
95,37,28283,1,0,0:0:0:0:
95,37,28369,1,0,0:0:0:0:
95,37,28455,1,0,0:0:0:0:
157,102,28628,1,0,1:1:0:0:
214,32,28800,2,0,L|284:58,1,75,8|0,2:2|0:0,0:0:0:0:
319,142,29145,6,0,P|372:93|366:21,1,150,0|8,1:1|2:2,0:0:0:0:
498,79,29662,2,0,P|442:125|445:197,1,150,0|0,0:0|1:1,0:0:0:0:
453,284,30180,2,0,P|410:279|370:244,1,75,8|0,2:2|0:0,0:0:0:0:
297,225,30524,6,0,P|243:274|250:346,1,150,0|8,1:1|2:2,0:0:0:0:
337,383,31042,2,0,P|390:333|383:261,1,150,0|0,0:0|1:1,0:0:0:0:
297,225,31559,1,8,2:2:0:0:
315,303,31731,1,0,0:0:0:0:
383,261,31904,6,0,P|431:233|475:230,1,75,0|0,1:1|0:0,0:0:0:0:
297,225,32248,1,8,2:2:0:0:
232,287,32421,2,0,P|178:272|145:243,1,75,0|0,1:1|0:0,0:0:0:0:
90,207,32766,1,8,2:2:0:0:
167,162,32938,1,0,0:0:0:0:
133,88,33111,1,0,0:0:0:0:
133,88,33197,1,0,0:0:0:0:
133,88,33283,6,0,P|226:103|249:149,1,150,0|8,1:1|2:2,0:0:0:0:
247,236,33800,2,0,P|306:162|357:166,1,150,0|0,0:0|1:1,0:0:0:0:
419,102,34317,2,0,P|440:132|444:169,1,75,8|0,2:2|0:0,0:0:0:0:
491,246,34662,6,0,B|394:249|439:288|344:293,1,150,0|8,1:1|2:2,0:0:0:0:
302,216,35180,2,0,P|260:274|287:357,1,150,0|0,0:0|1:1,0:0:0:0:
351,292,35697,2,0,P|395:277|435:282,1,75,8|0,2:2|0:0,0:0:0:0:
461,197,36042,2,0,P|434:170|419:136,1,75,0|0,1:1|0:0,0:0:0:0:
373,74,36386,1,8,2:2:0:0:
373,74,36559,2,0,L|327:66,2,37.5
316,147,36904,1,0,1:1:0:0:
236,104,37076,2,0,B|222:67|222:67|242:18,1,75,8|0,2:2|0:0,0:0:0:0:
235,34,37335,1,0,0:0:0:0:
235,34,37421,5,0,1:1:0:0:
146,43,37593,1,0,0:0:0:0:
56,33,37766,2,0,B|70:68|70:68|55:102,1,75,8|0,2:2|0:0,0:0:0:0:
90,182,38111,1,0,0:0:0:0:
90,182,38283,2,0,L|169:198,2,75,0|8|0,1:1|2:2|0:0,0:0:0:0:
9,180,38800,6,0,L|23:253,1,67.4999979400635,0|0,1:1|0:0,0:0:0:0:
6,326,39145,2,0,L|72:339,1,67.4999979400635,8|0,2:2|0:0,0:0:0:0:
157,337,39490,1,0,0:0:0:0:
157,337,39662,2,0,L|163:370,2,33.7499989700318,0|0|8,1:1|0:0|2:2,0:0:0:0:
214,279,40007,1,0,0:0:0:0:
283,312,40180,6,0,L|271:371,1,60,0|0,1:1|0:0,0:0:0:0:
357,339,40524,2,0,L|369:280,1,60,8|0,2:2|0:0,0:0:0:0:
330,216,40869,1,0,0:0:0:0:
330,216,41042,2,0,L|300:221,2,30,0|0|8,1:1|0:0|2:2,0:0:0:0:
358,134,41386,1,0,0:0:0:0:
303,78,41559,5,0,1:1:0:0:
303,78,41904,6,0,L|187:95,1,104.999996795654,8|0,2:2|0:0,0:0:0:0:
124,108,42421,1,0,1:1:0:0:
124,108,42593,1,8,2:2:0:0:
358,134,42938,5,0,1:1:0:0:
199,93,43283,1,8,2:2:0:0:
199,93,43455,2,0,L|216:209,2,104.999996795654,0|8|0,1:1|2:2|0:0,0:0:0:0:
179,17,44317,6,0,P|234:22|263:53,1,75,4|0,1:2|0:0,0:0:0:0:
285,115,44662,1,8,2:2:0:0:
357,63,44835,1,0,0:0:0:0:
357,63,44921,1,0,0:0:0:0:
357,63,45007,2,0,L|435:53,2,75,2|2|8,2:2|1:2|2:2,0:0:0:0:
285,115,45524,1,0,0:0:0:0:
362,161,45697,6,0,B|458:172|410:207|496:219,1,150,0|8,1:1|2:2,0:0:0:0:
484,304,46214,2,0,L|477:341,2,37.5,2|0|2,2:2|0:0|2:2,0:0:0:0:
392,344,46559,1,0,1:1:0:0:
337,282,46731,2,0,P|305:278|262:289,1,75,10|2,2:2|2:2,0:0:0:0:
209,362,47076,6,0,P|180:323|209:217,1,150,0|8,1:1|2:2,0:0:0:0:
281,197,47593,1,2,2:2:0:0:
281,197,47680,1,0,0:0:0:0:
281,197,47766,2,0,L|269:115,2,75,0|0|10,0:0|1:1|2:2,0:0:0:0:
267,286,48283,1,2,2:2:0:0:
196,228,48455,6,0,B|99:239|147:274|61:286,1,150,0|8,1:1|2:2,0:0:0:0:
53,195,48973,2,0,L|16:190,2,37.5
129,148,49317,1,0,1:1:0:0:
93,64,49490,2,0,L|19:74,1,75,8|0,2:2|0:0,0:0:0:0:
18,74,49748,1,0,0:0:0:0:
18,74,49835,1,0,1:1:0:0:
15,189,50007,5,0,0:0:0:0:
120,220,50180,2,0,P|132:183|123:134,1,75,8|0,2:2|0:0,0:0:0:0:
180,74,50524,1,2,2:2:0:0:
262,102,50697,1,2,1:2:0:0:
262,102,50869,2,0,L|336:112,1,75,8|2,2:2|2:2,0:0:0:0:
409,166,51214,6,0,L|435:348,1,150,2|8,1:2|2:2,0:0:0:0:
315,353,51731,2,0,L|293:204,1,150,2|0,2:2|1:1,0:0:0:0:
306,117,52248,2,0,P|254:125|228:144,1,75,10|0,2:2|0:0,0:0:0:0:
211,214,52593,5,2,1:2:0:0:
294,205,52766,1,0,0:0:0:0:
249,283,52938,2,0,L|335:299,1,75,8|2,2:2|2:2,0:0:0:0:
211,214,53283,2,0,L|125:230,1,75,0|0,0:0|1:1,0:0:0:0:
243,143,53628,1,10,2:2:0:0:
198,76,53800,1,2,2:2:0:0:
198,76,53886,1,0,0:0:0:0:
198,76,53973,6,0,P|247:38|346:56,1,150,0|8,1:1|2:2,0:0:0:0:
466,99,54490,2,0,P|417:137|318:119,1,150,0|8,1:1|2:2,0:0:0:0:
243,143,55007,2,0,L|227:229,1,75
229,216,55266,1,0,0:0:0:0:
229,216,55352,5,0,1:1:0:0:
306,262,55524,1,0,0:0:0:0:
311,347,55697,1,10,2:2:0:0:
311,347,55869,2,0,L|304:383,2,37.5,0|0|2,0:0|0:0|2:2,0:0:0:0:
231,307,56214,1,2,1:2:0:0:
163,366,56386,2,0,P|88:376|22:319,1,150,10|0,2:2|1:1,0:0:0:0:
88,265,56904,5,0,0:0:0:0:
22,203,57076,2,0,L|8:129,1,75,8|0,2:2|0:0,0:0:0:0:
96,67,57421,1,2,2:2:0:0:
96,67,57593,2,0,L|109:140,1,75,0|10,1:1|2:2,0:0:0:0:
184,90,57938,1,2,2:2:0:0:
262,141,58111,6,0,P|276:86|220:5,1,150,0|8,1:1|2:2,0:0:0:0:
189,181,58628,2,0,P|214:210|259:222,1,75,2|0,2:2|0:0,0:0:0:0:
355,122,58973,2,0,P|357:160|334:200,1,75,2|8,1:2|2:2,0:0:0:0:
333,288,59317,1,2,2:2:0:0:
333,288,59404,1,0,0:0:0:0:
333,288,59490,6,0,B|429:299|381:334|467:346,1,150,0|8,1:1|2:2,0:0:0:0:
465,255,60007,2,0,L|458:219,2,37.5,2|0|0,2:2|0:0|0:0,0:0:0:0:
484,134,60352,1,0,1:1:0:0:
484,134,60524,2,0,L|477:98,2,37.5,10|0|0,2:2|0:0|0:0,0:0:0:0:
396,152,60869,6,0,L|317:138,1,75,0|0,1:1|0:0,0:0:0:0:
264,42,61214,2,0,L|337:55,1,75,8|0,2:2|0:0,0:0:0:0:
243,153,61559,1,2,2:2:0:0:
243,153,61731,2,0,L|169:139,1,75,2|10,1:2|2:2,0:0:0:0:
99,94,62076,1,0,0:0:0:0:
116,15,62248,6,0,L|275:44,1,150,0|10,1:1|2:2,0:0:0:0:
300,124,62766,2,0,L|152:97,1,150,2|0,2:2|1:1,0:0:0:0:
63,84,63283,1,8,2:2:0:0:
93,168,63455,1,2,2:2:0:0:
93,168,63542,1,0,0:0:0:0:
93,168,63628,6,0,L|72:246,1,75,2|0,1:2|0:0,0:0:0:0:
163,236,63973,1,8,2:2:0:0:
227,311,64145,2,0,L|246:238,1,75,2|0,2:2|0:0,0:0:0:0:
341,205,64490,2,0,L|321:277,1,75,2|8,1:2|2:2,0:0:0:0:
361,368,64835,1,2,2:2:0:0:
361,368,64921,1,0,0:0:0:0:
361,368,65007,6,0,P|422:365|468:277,1,150,0|8,1:1|2:2,0:0:0:0:
496,122,65524,2,0,P|433:158|424:230,1,150,0|8,1:1|2:2,0:0:0:0:
477,303,66042,2,0,P|509:263|509:222,1,75
511,240,66300,1,0,0:0:0:0:
511,240,66386,6,0,L|491:141,1,86.2500016450882,6|0,1:2|0:0,0:0:0:0:
423,229,66731,1,8,2:2:0:0:
324,99,66904,6,0,L|341:183,1,86.2500016450882,2|0,2:2|0:0,0:0:0:0:
313,274,67248,1,0,1:1:0:0:
212,233,67421,6,0,L|194:148,1,86.2500016450882,10|0,2:2|0:0,0:0:0:0:
194,148,67680,1,0,0:0:0:0:
194,148,67766,2,0,P|143:125|87:139,1,86.2500016450882,0|2,1:1|2:2,0:0:0:0:
65,55,68111,1,8,2:2:0:0:
2,180,68283,2,0,P|53:203|109:189,1,86.2500016450882
205,226,68628,1,0,1:1:0:0:
158,321,68800,2,0,P|106:297|50:311,1,86.2500016450882,8|0,2:2|0:0,0:0:0:0:
78,298,69059,1,0,0:0:0:0:
78,298,69145,6,0,L|-5:337,1,86.2500016450882,2|0,1:2|0:0,0:0:0:0:
82,200,69490,1,8,2:2:0:0:
124,91,69662,2,0,L|40:129,1,86.2500016450882,2|0,2:2|0:0,0:0:0:0:
193,144,70007,1,0,1:1:0:0:
326,172,70180,2,0,L|242:210,1,86.2500016450882,10|0,2:2|0:0,0:0:0:0:
254,301,70524,6,0,P|344:288|400:224,1,172.500003290176,0|10,1:1|2:2,0:0:0:0:
480,312,71042,1,2,2:2:0:0:
480,312,71128,1,2,2:2:0:0:
480,312,71214,2,0,L|491:358,2,43.1250008225441,2|2|2,2:2|2:2|1:2,0:0:0:0:
512,212,71559,2,0,L|499:159,2,43.1250008225441,10|2|2,2:2|2:2|2:2,0:0:0:0:
397,230,71904,6,0,B|384:188|384:188|407:133,1,86.2500016450882,2|0,1:2|0:0,0:0:0:0:
474,76,72248,1,8,2:2:0:0:
326,45,72421,6,0,B|339:87|339:87|316:142,1,86.2500016450882,2|0,2:2|0:0,0:0:0:0:
315,281,72766,1,0,1:1:0:0:
240,217,72938,6,0,B|227:175|227:175|250:120,1,86.2500016450882,10|0,2:2|0:0,0:0:0:0:
176,23,73283,2,0,P|86:36|30:100,1,172.500003290176,0|8,1:1|2:2,0:0:0:0:
0,227,73800,2,0,P|90:214|146:150,1,172.500003290176,0|0,0:0|1:1,0:0:0:0:
251,143,74317,2,0,L|335:181,1,86.2500016450882,8|0,2:2|0:0,0:0:0:0:
329,178,74576,1,0,0:0:0:0:
329,178,74662,6,0,P|380:174|419:148,1,86.2500016450882,2|0,1:2|0:0,0:0:0:0:
343,81,75007,1,8,2:2:0:0:
498,7,75180,6,0,P|447:11|408:37,1,86.2500016450882,2|0,2:2|0:0,0:0:0:0:
475,107,75525,1,0,1:1:0:0:
329,178,75697,2,0,L|291:262,1,86.2500016450882,10|0,2:2|0:0,0:0:0:0:
293,256,75955,1,0,0:0:0:0:
293,256,76042,1,0,1:1:0:0:
426,276,76214,2,0,L|456:356,1,86.2500016450882,2|8,2:2|2:2,0:0:0:0:
366,356,76559,6,0,B|296:341|296:341|263:318|263:318|200:306,1,172.500003290176,0|0,1:1|0:0,0:0:0:0:
258,223,77076,1,0,0:0:0:0:
146,361,77248,1,0,0:0:0:0:
146,361,77335,1,0,0:0:0:0:
146,361,77421,6,0,L|53:380,1,86.2500016450882,6|0,1:2|0:0,0:0:0:0:
102,287,77766,1,8,2:2:0:0:
173,205,77938,6,0,L|266:224,1,86.2500016450882,2|0,2:2|0:0,0:0:0:0:
348,185,78283,1,0,1:1:0:0:
267,88,78455,6,0,L|174:107,1,86.2500016450882,10|0,2:2|0:0,0:0:0:0:
182,105,78714,1,0,0:0:0:0:
182,105,78800,6,0,P|132:96|99:72,2,86.2500016450882,0|2|8,1:1|2:2|2:2,0:0:0:0:
297,68,79317,2,0,P|330:28|367:12,2,86.2500016450882,0|0|0,0:0|0:0|1:1,0:0:0:0:
262,201,79835,2,0,P|279:249|274:289,1,86.2500016450882,8|0,2:2|0:0,0:0:0:0:
276,283,80093,1,0,0:0:0:0:
276,283,80180,6,0,L|365:264,1,86.2500016450882,2|0,1:2|0:0,0:0:0:0:
437,250,80524,1,8,2:2:0:0:
383,344,80697,6,0,L|468:327,1,86.2500016450882,2|0,2:2|0:0,0:0:0:0:
512,233,81042,1,0,1:1:0:0:
388,185,81214,6,0,L|472:167,1,86.2500016450882,10|0,2:2|0:0,0:0:0:0:
472,167,81473,1,0,0:0:0:0:
472,167,81559,6,0,P|495:124|493:81,1,86.2500016450882,0|2,1:1|2:2,0:0:0:0:
451,14,81904,1,10,2:2:0:0:
371,89,82076,1,2,2:2:0:0:
371,89,82162,1,2,2:2:0:0:
371,89,82248,2,0,L|427:104,2,43.1250008225441,2|2|2,2:2|2:2|1:2,0:0:0:0:
264,53,82593,2,0,L|222:41,2,43.1250008225441,10|2|2,2:2|2:2|2:2,0:0:0:0:
136,24,82938,6,0,P|137:66|158:103,1,86.2500016450882,2|0,1:2|0:0,0:0:0:0:
120,174,83283,1,8,2:2:0:0:
18,168,83455,6,0,P|19:210|40:247,1,86.2500016450882,2|0,2:2|0:0,0:0:0:0:
8,327,83800,1,0,1:1:0:0:
127,182,83973,6,0,P|128:224|149:261,1,86.2500016450882,10|0,2:2|0:0,0:0:0:0:
149,261,84231,1,0,0:0:0:0:
149,261,84317,6,0,L|250:284,2,86.2500016450882,0|2|8,1:1|2:2|2:2,0:0:0:0:
296,219,84835,2,0,L|211:199,2,86.2500016450882,0|0|0,0:0|0:0|1:1,0:0:0:0:
366,293,85352,2,0,P|390:252|383:198,1,86.2500016450882,8|0,2:2|0:0,0:0:0:0:
389,214,85611,1,0,0:0:0:0:
389,214,85697,6,0,L|338:111,1,86.2500016450882,2|0,1:2|0:0,0:0:0:0:
437,96,86042,1,8,2:2:0:0:
302,77,86214,6,0,L|250:-27,1,86.2500016450882,2|0,2:2|0:0,0:0:0:0:
214,101,86559,1,0,1:1:0:0:
176,250,86731,6,0,L|124:146,1,86.2500016450882,10|0,2:2|0:0,0:0:0:0:
137,172,86990,1,0,0:0:0:0:
137,172,87076,6,0,P|73:157|39:130,1,86.2500016450882,0|2,1:1|1:2,0:0:0:0:
102,84,87421,2,0,P|138:96|155:97,3,43.1250008225441,8|0|0|0,1:2|1:1|1:1|1:1,0:0:0:0:
160,52,87766,2,0,P|138:47|119:39,3,43.1250008225441,0|0|0|0,1:1|1:1|1:1|1:1,0:0:0:0:
137,0,88111,2,0,P|156:8|177:12,3,43.1250008225441,8|0|0|0,1:2|1:1|1:1|1:1,0:0:0:0:
218,2,88455,1,4,1:2:0:0:
256,192,107766,12,0,110180,0:0:0:0:
256,192,110524,6,0,L|280:26,3,157.499995193482,6|2|2|2,2:2|2:2|2:2|2:2,0:0:0:0:
256,192,113283,6,0,L|280:26,3,157.499995193482,2|2|2|2,2:2|2:2|2:2|2:2,0:0:0:0:
256,192,116042,6,0,L|280:26,3,157.499995193482,2|2|2|2,2:2|2:2|2:2|2:2,0:0:0:0:
256,192,118800,5,2,2:2:0:0:
393,157,119317,1,2,2:2:0:0:
428,294,119835,1,2,2:2:0:0:
291,329,120352,1,2,2:2:0:0:
291,329,121559,6,0,L|123:303,1,157.499995193482,2|2,2:2|2:2,0:0:0:0:
51,186,122593,2,0,L|206:210,1,157.499995193482,2|2,2:2|2:2,0:0:0:0:
291,329,124317,6,0,L|149:307,1,134.999995880127,2|2,2:2|2:2,0:0:0:0:
83,203,125352,2,0,L|216:223,1,134.999995880127,2|2,2:2|2:2,0:0:0:0:
269,326,127076,6,0,L|155:308,1,112.5,2|2,2:2|2:2,0:0:0:0:
115,224,128111,2,0,L|226:241,1,112.5,2|2,2:2|2:2,0:0:0:0:
256,192,129835,12,0,130869,0:0:0:0:
441,119,131214,6,0,P|437:75|308:61,1,187.5,2|0,2:2|0:0,0:0:0:0:
330,86,131731,6,0,P|379:102|400:97,9,43.1250008225441,2|2|2|2|2|2|2|2|2|2,2:2|2:2|2:2|2:2|2:2|2:2|2:2|2:2|2:2|2:2,0:0:0:0:
404,84,132593,6,0,P|438:62|491:56,1,86.2500016450882,6|0,1:2|0:0,0:0:0:0:
414,176,132938,1,8,2:2:0:0:
512,243,133111,6,0,P|478:265|425:271,1,86.2500016450882,2|0,2:2|0:0,0:0:0:0:
486,143,133455,1,0,1:1:0:0:
332,199,133628,6,0,P|289:192|253:170,1,86.2500016450882,10|0,2:2|0:0,0:0:0:0:
253,170,133886,1,0,0:0:0:0:
253,170,133973,1,0,1:1:0:0:
202,42,134145,6,0,P|159:49|123:71,1,86.2500016450882,2|8,2:2|2:2,0:0:0:0:
101,163,134490,1,0,0:0:0:0:
30,100,134662,2,0,L|0:180,1,86.2500016450882,0|0,0:0|1:1,0:0:0:0:
33,320,135007,2,0,L|63:240,1,86.2500016450882,8|0,2:2|0:0,0:0:0:0:
63,239,135266,1,0,0:0:0:0:
63,239,135352,6,0,P|128:259|149:282,1,86.2500016450882,2|0,1:2|0:0,0:0:0:0:
166,362,135697,1,8,2:2:0:0:
247,286,135869,6,0,P|311:266|332:243,1,86.2500016450882,2|0,2:2|0:0,0:0:0:0:
355,164,136214,1,0,1:1:0:0:
432,271,136386,6,0,P|496:290|517:313,1,86.2500016450882,10|0,2:2|0:0,0:0:0:0:
509,302,136645,1,0,0:0:0:0:
509,302,136731,1,0,1:1:0:0:
443,384,136904,6,0,P|378:364|357:341,1,86.2500016450882,2|10,2:2|2:2,0:0:0:0:
384,208,137248,1,2,2:2:0:0:
384,208,137335,1,2,2:2:0:0:
384,208,137421,2,0,P|422:191|450:190,2,43.1250008225441,2|2|2,2:2|2:2|1:2,0:0:0:0:
333,99,137766,2,0,P|340:78|351:59,2,43.1250008225441,10|2|2,2:2|2:2|2:2,0:0:0:0:
504,92,138111,6,0,L|392:116,1,86.2500016450882,2|0,1:2|0:0,0:0:0:0:
333,99,138455,1,8,2:2:0:0:
423,190,138628,6,0,L|338:208,1,86.2500016450882,2|0,2:2|0:0,0:0:0:0:
271,262,138973,1,0,1:1:0:0:
236,150,139145,6,0,L|124:174,1,86.2500016450882,10|0,2:2|0:0,0:0:0:0:
151,168,139404,1,0,0:0:0:0:
151,168,139490,1,0,1:1:0:0:
71,116,139662,6,0,P|77:73|99:36,1,86.2500016450882,2|8,2:2|2:2,0:0:0:0:
190,66,140007,1,0,0:0:0:0:
236,150,140180,2,0,P|229:192|207:229,1,86.2500016450882,0|0,0:0|1:1,0:0:0:0:
190,66,140524,6,0,P|224:40|266:30,1,86.2500016450882,8|0,2:2|0:0,0:0:0:0:
266,30,140783,1,0,0:0:0:0:
265,30,140869,6,0,L|357:57,2,86.2500016450882,2|0|8,1:2|0:0|2:2,0:0:0:0:
377,144,141386,2,0,L|294:119,2,86.2500016450882,2|0|0,2:2|0:0|1:1,0:0:0:0:
443,194,141904,2,0,P|392:225|350:222,1,86.2500016450882,10|0,2:2|0:0,0:0:0:0:
366,225,142162,1,0,0:0:0:0:
366,225,142248,1,0,1:1:0:0:
296,304,142421,2,0,P|338:309|372:335,1,86.2500016450882,2|8,2:2|2:2,0:0:0:0:
236,364,142766,1,0,1:1:0:0:
219,272,142938,2,0,P|244:238|283:221,2,86.2500016450882,0|8|0,0:0|2:2|0:0,0:0:0:0:
236,364,143455,1,0,0:0:0:0:
236,364,143542,1,0,0:0:0:0:
236,364,143628,6,0,P|169:348|145:327,1,86.2500016450882,6|0,1:2|0:0,0:0:0:0:
144,235,143973,1,8,2:2:0:0:
33,326,144145,2,0,L|74:236,1,86.2500016450882,2|0,2:2|0:0,0:0:0:0:
107,162,144490,1,0,1:1:0:0:
0,115,144662,2,0,L|92:80,1,86.2500016450882,10|0,2:2|0:0,0:0:0:0:
80,84,144921,1,0,0:0:0:0:
80,84,145007,1,0,1:1:0:0:
153,10,145180,6,0,P|183:71|183:103,1,86.2500016450882,2|8,2:2|2:2,0:0:0:0:
222,174,145524,1,0,0:0:0:0:
312,153,145697,2,0,L|337:108,2,43.1250008225441,0|0|0,0:0|0:0|1:1,0:0:0:0:
343,243,146042,2,0,L|392:228,2,43.1250008225441,8|0|0,2:2|0:0|0:0,0:0:0:0:
312,332,146386,6,0,P|360:348|416:343,1,86.2500016450882,2|0,1:2|0:0,0:0:0:0:
486,319,146731,1,8,2:2:0:0:
343,243,146904,6,0,P|391:259|447:254,1,86.2500016450882,2|0,2:2|0:0,0:0:0:0:
477,178,147248,1,0,1:1:0:0:
353,84,147421,6,0,P|401:100|457:95,1,86.2500016450882,10|0,2:2|0:0,0:0:0:0:
437,100,147680,1,0,0:0:0:0:
437,100,147766,1,0,1:1:0:0:
383,6,147938,6,0,P|340:6|299:21,1,86.2500016450882,2|10,2:2|2:2,0:0:0:0:
211,52,148283,1,2,2:2:0:0:
211,52,148369,1,2,2:2:0:0:
211,52,148455,2,0,L|222:-7,2,43.1250008225441,2|2|2,2:2|2:2|1:2,0:0:0:0:
194,136,148800,2,0,L|186:178,2,43.1250008225441,10|2|2,2:2|2:2|2:2,0:0:0:0:
242,248,149145,6,0,P|201:262|158:263,1,86.2500016450882,2|0,1:2|0:0,0:0:0:0:
100,209,149490,1,8,2:2:0:0:
194,136,149662,6,0,P|236:136|277:151,1,86.2500016450882,2|0,2:2|0:0,0:0:0:0:
347,207,150007,1,0,1:1:0:0:
430,313,150180,6,0,P|387:312|346:297,1,86.2500016450882,10|0,2:2|0:0,0:0:0:0:
346,297,150438,1,0,0:0:0:0:
346,297,150524,1,0,1:1:0:0:
380,135,150697,6,0,P|420:120|463:119,1,86.2500016450882,2|8,2:2|2:2,0:0:0:0:
497,208,151042,1,0,0:0:0:0:
430,313,151214,2,0,P|387:312|346:297,1,86.2500016450882,0|0,0:0|1:1,0:0:0:0:
219,222,151559,2,0,L|255:310,1,86.2500016450882,8|0,2:2|0:0,0:0:0:0:
251,301,151817,1,0,0:0:0:0:
251,301,151904,6,0,P|210:316|167:316,1,86.2500016450882,2|0,1:2|0:0,0:0:0:0:
86,270,152248,1,8,2:2:0:0:
107,367,152421,6,0,P|64:366|23:351,1,86.2500016450882,2|0,2:2|0:0,0:0:0:0:
167,316,152766,1,0,1:1:0:0:
39,205,152938,6,0,P|79:190|122:189,1,86.2500016450882,10|0,2:2|0:0,0:0:0:0:
122,189,153197,1,0,0:0:0:0:
122,189,153283,6,0,L|179:116,1,86.2500016450882,0|2,1:1|1:2,0:0:0:0:
230,190,153628,6,0,L|203:224,3,43.1250008225441,8|0|0|0,1:2|1:1|1:1|1:1,0:0:0:0:
243,249,153973,2,0,L|269:214,3,43.1250008225441,0|0|0|0,1:1|1:1|1:1|1:1,0:0:0:0:
305,244,154317,2,0,L|278:278,3,43.1250008225441,8|0|0|0,1:2|1:1|1:1|1:1,0:0:0:0:
276,319,154662,6,0,P|319:304|371:306,1,75,4|0,1:2|0:0,0:0:0:0:
425,347,155007,1,10,2:2:0:0:
459,263,155180,1,2,2:2:0:0:
459,263,155266,1,0,0:0:0:0:
459,263,155352,2,0,L|479:175,1,75,2|2,2:2|1:2,0:0:0:0:
416,99,155697,2,0,L|399:172,1,75,10|0,2:2|0:0,0:0:0:0:
478,43,156042,6,0,P|434:9|323:15,1,150,0|10,1:1|2:2,0:0:0:0:
254,27,156559,1,2,2:2:0:0:
302,102,156731,1,2,2:2:0:0:
254,178,156904,2,0,P|216:174|181:161,1,75,2|10,1:2|2:2,0:0:0:0:
111,217,157248,1,0,0:0:0:0:
111,217,157335,1,0,0:0:0:0:
111,217,157421,6,0,P|86:133|47:70,1,150,2|8,1:2|2:2,0:0:0:0:
0,4,157938,2,0,P|77:45|149:62,1,150,2|0,2:2|1:1,0:0:0:0:
227,61,158455,1,10,2:2:0:0:
310,26,158628,1,0,0:0:0:0:
310,26,158800,6,0,L|339:97,1,75,0|0,1:1|0:0,0:0:0:0:
438,124,159145,2,0,L|409:54,1,75,8|0,2:2|0:0,0:0:0:0:
293,163,159490,2,0,L|307:197,2,37.5,0|0|0,0:0|0:0|1:1,0:0:0:0:
384,196,159835,2,0,P|418:209|456:212,1,75,8|0,2:2|0:0,0:0:0:0:
456,212,160093,1,0,0:0:0:0:
456,212,160180,1,0,1:1:0:0:
438,124,160352,5,0,0:0:0:0:
348,112,160524,2,0,L|377:42,1,75,10|2,2:2|2:2,0:0:0:0:
256,96,160869,1,2,2:2:0:0:
135,42,161042,2,0,L|164:112,1,75,2|10,1:2|2:2,0:0:0:0:
256,192,161386,1,0,0:0:0:0:
174,230,161559,6,0,P|101:226|34:182,1,150,0|8,1:1|2:2,0:0:0:0:
14,272,162076,2,0,L|0:306,2,37.5,0|0|2,0:0|0:0|2:2,0:0:0:0:
76,341,162421,1,0,1:1:0:0:
158,321,162593,2,0,P|195:318|230:305,1,75,8|2,2:2|2:2,0:0:0:0:
230,305,162852,1,0,0:0:0:0:
230,305,162938,1,0,1:1:0:0:
305,354,163111,1,0,0:0:0:0:
362,284,163283,6,0,L|429:318,1,75,8|0,2:2|0:0,0:0:0:0:
428,318,163542,1,0,0:0:0:0:
428,318,163628,1,2,2:2:0:0:
441,228,163800,2,0,L|513:205,2,75,0|8|0,1:1|2:2|0:0,0:0:0:0:
358,190,164317,6,0,B|372:132|372:132|391:109|391:109|404:49,1,150,0|8,1:1|2:2,0:0:0:0:
485,90,164835,2,0,L|499:124,2,37.5
482,0,165180,1,0,1:1:0:0:
411,57,165352,2,0,B|388:67|388:67|323:51,1,75,10|0,2:2|0:0,0:0:0:0:
339,55,165611,1,0,0:0:0:0:
339,55,165697,6,0,P|258:71|172:95,1,150,2|8,1:2|2:2,0:0:0:0:
47,124,166214,2,0,P|127:107|213:83,1,150,0|0,0:0|1:1,0:0:0:0:
246,162,166731,2,0,P|239:203|235:248,1,75,8|0,2:2|0:0,0:0:0:0:
162,285,167076,6,0,P|212:321|302:295,1,150,0|8,1:1|2:2,0:0:0:0:
425,320,167593,2,0,P|375:284|285:310,1,150,0|0,0:0|1:1,0:0:0:0:
235,236,168111,2,0,P|231:198|224:161,1,75,8|0,2:2|0:0,0:0:0:0:
292,85,168455,6,0,P|352:122|297:179,1,150,2|8,1:2|2:2,0:0:0:0:
139,182,168973,2,0,P|79:145|134:88,1,150,2|0,2:2|1:1,0:0:0:0:
224,161,169490,2,0,P|231:198|235:236,1,75,10|0,2:2|0:0,0:0:0:0:
235,236,169748,1,0,0:0:0:0:
235,236,169835,1,0,1:1:0:0:
313,289,170007,1,0,0:0:0:0:
228,322,170180,1,8,2:2:0:0:
313,289,170352,2,0,L|354:297,2,37.5
354,209,170697,2,0,L|317:201,2,37.5,0|0|8,1:1|0:0|2:2,0:0:0:0:
438,177,171042,1,0,0:0:0:0:
438,177,171128,1,0,0:0:0:0:
438,177,171214,6,0,P|448:126|472:61,1,120,2|8,1:2|2:2,0:0:0:0:
394,11,171731,2,0,P|384:62|360:127,1,120,2|0,2:2|1:1,0:0:0:0:
288,152,172248,1,10,2:2:0:0:
288,152,172593,6,0,P|235:157|168:176,1,104.999996795654,0|8,1:1|2:2,0:0:0:0:
160,254,173111,2,0,P|213:249|280:230,1,104.999996795654,0|0,0:0|1:1,0:0:0:0:
339,255,173628,1,8,2:2:0:0:
408,218,173800,1,0,0:0:0:0:
408,218,173886,1,0,0:0:0:0:
408,218,173973,6,0,B|410:171|388:125|354:95|316:83|277:80|208:96|183:169|183:169|146:144|96:158,1,419.999987182618,2|2,1:2|1:2,0:0:0:0:
256,192,175438,12,6,176731,1:2:0:0:
324,28,179145,6,0,P|342:75|344:108,1,75,8|0,2:2|0:0,0:0:0:0:
344,99,179404,1,0,0:0:0:0:
344,99,179490,6,0,P|325:146|323:186,1,86.2500016450882,2|0,1:2|0:0,0:0:0:0:
417,185,179835,1,8,2:2:0:0:
241,97,180007,6,0,P|222:144|220:184,1,86.2500016450882,2|0,2:2|0:0,0:0:0:0:
322,181,180352,1,0,1:1:0:0:
150,96,180524,6,0,P|131:143|129:183,1,86.2500016450882,10|0,2:2|0:0,0:0:0:0:
128,178,180783,1,0,0:0:0:0:
128,178,180869,2,0,L|28:138,1,86.2500016450882,0|2,1:1|2:2,0:0:0:0:
219,179,181214,1,10,2:2:0:0:
176,266,181386,1,2,2:2:0:0:
176,266,181473,1,2,2:2:0:0:
176,266,181559,2,0,L|121:278,2,43.1250008225441,2|2|2,2:2|2:2|1:2,0:0:0:0:
288,328,181904,2,0,L|245:318,2,43.1250008225441,10|2|2,2:2|2:2|2:2,0:0:0:0:
325,241,182248,6,0,L|430:263,1,86.2500016450882,2|0,1:2|0:0,0:0:0:0:
473,310,182593,1,8,2:2:0:0:
370,174,182766,6,0,L|475:196,1,86.2500016450882,2|0,2:2|0:0,0:0:0:0:
512,245,183111,1,0,1:1:0:0:
418,106,183283,6,0,L|523:128,1,86.2500016450882,10|0,2:2|0:0,0:0:0:0:
502,123,183542,1,0,0:0:0:0:
502,123,183628,1,0,1:1:0:0:
398,24,183800,6,0,P|363:48|337:83,1,86.2500016450882,2|8,2:2|2:2,0:0:0:0:
370,174,184145,2,0,L|437:189,2,43.1250008225441
275,145,184490,1,0,1:1:0:0:
196,83,184662,6,0,P|178:122|173:164,1,86.2500016450882,8|0,2:2|0:0,0:0:0:0:
173,164,184921,1,0,0:0:0:0:
173,164,185007,1,2,1:2:0:0:
230,239,185180,1,0,0:0:0:0:
137,258,185352,2,0,P|155:297|160:339,1,86.2500016450882,8|2,2:2|2:2,0:0:0:0:
159,339,185611,1,0,0:0:0:0:
159,339,185697,1,0,0:0:0:0:
34,309,185869,2,0,P|38:266|56:227,1,86.2500016450882,0|10,1:1|2:2,0:0:0:0:
130,167,186214,1,0,0:0:0:0:
86,82,186386,5,0,1:1:0:0:
168,34,186559,2,0,L|273:58,1,86.2500016450882,2|8,2:2|2:2,0:0:0:0:
331,17,186904,1,0,1:1:0:0:
304,142,187076,2,0,L|199:166,1,86.2500016450882,0|8,0:0|2:2,0:0:0:0:
269,242,187421,2,0,L|311:251,2,43.1250008225441
217,322,187766,6,0,P|255:340|298:344,1,86.2500016450882,6|0,1:2|0:0,0:0:0:0:
390,321,188111,1,8,2:2:0:0:
472,192,188283,6,0,P|429:196|390:214,1,86.2500016450882,2|0,2:2|0:0,0:0:0:0:
311,251,188628,1,0,1:1:0:0:
390,321,188800,6,0,P|433:317|472:299,1,86.2500016450882,10|0,2:2|0:0,0:0:0:0:
471,299,189059,1,0,0:0:0:0:
471,299,189145,1,0,1:1:0:0:
311,251,189317,6,0,P|283:284|268:324,1,86.2500016450882,2|8,2:2|2:2,0:0:0:0:
173,313,189662,2,0,L|182:355,2,43.1250008225441
81,286,190007,1,0,1:1:0:0:
152,222,190180,1,8,2:2:0:0:
76,164,190352,1,0,0:0:0:0:
76,164,190438,1,0,0:0:0:0:
76,164,190524,6,0,L|109:63,1,86.2500016450882,2|0,1:2|0:0,0:0:0:0:
52,1,190869,1,8,2:2:0:0:
200,42,191042,6,0,L|173:123,1,86.2500016450882,2|0,2:2|0:0,0:0:0:0:
223,203,191386,1,0,1:1:0:0:
314,107,191559,6,0,L|340:25,1,86.2500016450882,10|0,2:2|0:0,0:0:0:0:
340,24,191817,1,0,0:0:0:0:
340,24,191904,1,0,1:1:0:0:
419,133,192076,2,0,L|393:215,1,86.2500016450882,2|8,2:2|2:2,0:0:0:0:
469,269,192421,1,2,2:2:0:0:
469,269,192507,1,2,2:2:0:0:
469,269,192593,2,0,L|455:311,2,43.1250008225441,2|2|2,2:2|2:2|1:2,0:0:0:0:
375,335,192938,2,0,L|361:377,2,43.1250008225441,10|2|2,2:2|2:2|2:2,0:0:0:0:
309,275,193283,6,0,P|254:285|209:317,1,86.2500016450882,2|0,1:2|0:0,0:0:0:0:
174,378,193628,1,8,2:2:0:0:
115,272,193800,6,0,P|72:266|34:247,1,86.2500016450882,2|0,2:2|0:0,0:0:0:0:
8,155,194145,1,0,1:1:0:0:
74,88,194317,2,0,P|112:68|154:63,1,86.2500016450882,10|0,2:2|0:0,0:0:0:0:
154,63,194576,1,0,0:0:0:0:
154,63,194662,1,0,1:1:0:0:
232,7,194835,2,0,L|262:100,1,86.2500016450882,2|8,2:2|2:2,0:0:0:0:
291,178,195180,1,0,0:0:0:0:
210,227,195352,2,0,L|236:309,1,86.2500016450882,0|0,0:0|1:1,0:0:0:0:
145,353,195697,2,0,P|88:349|46:325,1,86.2500016450882,8|0,2:2|0:0,0:0:0:0:
62,336,195955,1,0,0:0:0:0:
62,336,196042,6,0,L|30:237,1,86.2500016450882,2|0,1:2|0:0,0:0:0:0:
120,244,196386,1,8,2:2:0:0:
236,309,196559,6,0,L|203:209,1,86.2500016450882,2|0,2:2|0:0,0:0:0:0:
259,145,196904,1,0,1:1:0:0:
398,272,197076,6,0,L|365:172,1,86.2500016450882,10|0,2:2|0:0,0:0:0:0:
371,189,197335,1,0,0:0:0:0:
371,189,197421,6,0,P|384:133|415:96,1,86.2500016450882,0|2,1:1|2:2,0:0:0:0:
442,24,197766,1,8,2:2:0:0:
511,126,197938,2,0,P|497:181|466:218,1,86.2500016450882,0|0,1:1|0:0,0:0:0:0:
391,264,198283,1,8,2:2:0:0:
469,317,198455,2,0,L|482:358,2,43.1250008225441
391,264,198800,6,0,L|369:359,1,86.2500016450882,6|0,1:2|0:0,0:0:0:0:
306,279,199145,1,8,2:2:0:0:
192,293,199317,2,0,P|196:250|215:212,1,86.2500016450882,2|0,2:2|0:0,0:0:0:0:
303,170,199662,1,0,1:1:0:0:
220,122,199835,6,0,L|201:38,1,86.2500016450882,10|0,2:2|0:0,0:0:0:0:
200,37,200093,1,0,0:0:0:0:
200,37,200180,1,0,1:1:0:0:
331,0,200352,2,0,P|333:42|322:83,1,86.2500016450882,2|8,2:2|2:2,0:0:0:0:
303,170,200697,1,0,0:0:0:0:
215,211,200869,2,0,L|174:198,2,43.1250008225441,0|0|0,0:0|0:0|1:1,0:0:0:0:
283,291,201214,1,8,2:2:0:0:
283,291,201300,1,0,0:0:0:0:
283,291,201386,1,0,0:0:0:0:
199,335,201559,6,0,L|105:354,1,86.2500016450882,2|0,1:2|0:0,0:0:0:0:
267,377,201904,1,8,2:2:0:0:
204,250,202076,6,0,L|110:269,1,86.2500016450882,2|0,2:2|0:0,0:0:0:0:
240,175,202421,1,0,1:1:0:0:
134,146,202593,6,0,L|40:165,1,86.2500016450882,10|0,2:2|0:0,0:0:0:0:
49,163,202852,1,0,0:0:0:0:
49,163,202938,1,0,1:1:0:0:
143,35,203111,2,0,L|49:54,1,86.2500016450882,2|10,2:2|2:2,0:0:0:0:
244,82,203455,1,2,2:2:0:0:
244,82,203542,1,2,2:2:0:0:
244,82,203628,2,0,L|191:92,2,43.1250008225441,2|2|2,2:2|2:2|1:2,0:0:0:0:
320,162,203973,2,0,L|267:172,2,43.1250008225441,10|2|2,2:2|2:2|2:2,0:0:0:0:
429,174,204317,6,0,B|443:217|443:217|426:257,1,86.2500016450882,2|0,1:2|0:0,0:0:0:0:
333,272,204662,1,8,2:2:0:0:
277,169,204835,6,0,B|263:126|263:126|280:86,1,86.2500016450882,2|0,2:2|0:0,0:0:0:0:
321,3,205180,1,0,1:1:0:0:
192,67,205352,2,0,L|94:44,1,86.2500016450882,10|0,2:2|0:0,0:0:0:0:
108,47,205611,1,0,0:0:0:0:
108,47,205697,5,0,1:1:0:0:
112,176,205869,2,0,L|195:156,1,86.2500016450882,2|8,2:2|2:2,0:0:0:0:
93,261,206214,1,0,0:0:0:0:
35,143,206386,2,0,L|-1:322,1,172.500003290176,0|8,0:0|2:2,0:0:0:0:
88,351,206904,1,0,0:0:0:0:
88,351,206990,1,0,0:0:0:0:
88,351,207076,6,0,P|133:338|167:309,1,86.2500016450882,2|0,1:2|0:0,0:0:0:0:
161,218,207421,1,8,2:2:0:0:
240,358,207593,6,0,P|281:346|315:320,1,86.2500016450882,2|0,2:2|0:0,0:0:0:0:
301,226,207938,1,0,1:1:0:0:
393,362,208111,6,0,P|434:350|468:324,1,86.2500016450882,10|0,2:2|0:0,0:0:0:0:
468,324,208369,1,0,0:0:0:0:
468,324,208455,1,0,1:1:0:0:
512,208,208628,6,0,P|478:181|436:170,1,86.2500016450882,2|8,2:2|2:2,0:0:0:0:
348,205,208973,1,0,1:1:0:0:
358,110,209145,1,0,0:0:0:0:
249,147,209317,2,0,L|259:197,2,43.1250008225441,8|0|0,2:2|0:0|0:0,0:0:0:0:
157,119,209662,1,0,0:0:0:0:
157,119,209748,1,0,0:0:0:0:
157,119,209835,6,0,L|180:31,1,86.2500016450882,6|0,1:2|0:0,0:0:0:0:
249,147,210180,1,8,2:2:0:0:
196,276,210352,6,0,L|173:188,1,86.2500016450882,2|0,2:2|0:0,0:0:0:0:
104,304,210697,1,0,1:1:0:0:
262,362,210869,6,0,L|285:274,1,86.2500016450882,10|0,2:2|0:0,0:0:0:0:
283,278,211128,1,0,0:0:0:0:
283,278,211214,1,0,1:1:0:0:
348,209,211386,2,0,P|372:244|380:286,1,86.2500016450882,2|8,2:2|2:2,0:0:0:0:
446,362,211731,1,0,0:0:0:0:
446,362,211904,2,0,L|454:319,2,43.1250008225441,0|0|0,0:0|0:0|1:1,0:0:0:0:
453,235,212248,2,0,L|461:192,2,43.1250008225441,8|0|0,2:2|0:0|0:0,0:0:0:0:
470,101,212593,6,0,P|427:108|392:132,1,86.2500016450882,2|0,1:2|0:0,0:0:0:0:
380,38,212938,1,8,2:2:0:0:
311,177,213111,6,0,P|268:169|233:145,1,86.2500016450882,2|0,2:2|0:0,0:0:0:0:
221,240,213456,1,0,1:1:0:0:
165,85,213628,6,0,P|122:92|87:116,1,86.2500016450882,10|0,2:2|0:0,0:0:0:0:
87,116,213886,1,0,0:0:0:0:
87,116,213973,5,0,1:1:0:0:
21,184,214145,2,0,P|56:208|98:216,1,86.2500016450882,2|10,2:2|2:2,0:0:0:0:
149,307,214490,1,2,2:2:0:0:
149,307,214576,1,2,2:2:0:0:
149,307,214662,2,0,P|123:319|105:340,2,43.1250008225441,2|2|2,2:2|2:2|1:2,0:0:0:0:
221,240,215007,2,0,P|244:255|272:261,2,43.1250008225441,10|2|2,2:2|2:2|2:2,0:0:0:0:
284,169,215352,6,0,L|379:194,1,86.2500016450882,2|0,1:2|0:0,0:0:0:0:
439,128,215697,1,8,2:2:0:0:
436,246,215869,2,0,P|401:270|359:278,1,86.2500016450882,2|0,2:2|0:0,0:0:0:0:
367,190,216214,1,0,1:1:0:0:
354,69,216386,6,0,L|437:47,1,86.2500016450882,10|0,2:2|0:0,0:0:0:0:
437,47,216645,1,0,0:0:0:0:
437,47,216731,1,0,1:1:0:0:
293,138,216904,2,0,P|250:130|215:106,1,86.2500016450882,2|8,2:2|2:2,0:0:0:0:
209,20,217248,1,0,0:0:0:0:
128,69,217421,2,0,L|98:245,1,172.500003290176,0|8,0:0|2:2,0:0:0:0:
177,293,217938,1,0,0:0:0:0:
177,293,218024,1,0,0:0:0:0:
177,293,218111,6,0,P|143:320|102:332,1,86.2500016450882,2|0,1:2|0:0,0:0:0:0:
99,239,218455,1,8,2:2:0:0:
180,190,218628,2,0,P|221:201|254:229,1,86.2500016450882,2|0,2:2|0:0,0:0:0:0:
281,320,218973,1,0,1:1:0:0:
363,274,219145,6,0,P|395:246|437:234,1,86.2500016450882,10|0,2:2|0:0,0:0:0:0:
437,234,219404,1,0,0:0:0:0:
437,234,219490,1,0,1:1:0:0:
512,179,219662,2,0,L|489:137,12,43.1250008225441,2|0|8|0|0|0|0|0|0|0|8|0|0,1:2|1:1|1:2|1:1|1:1|1:1|1:1|1:1|1:1|1:1|1:2|1:1|1:1,0:0:0:0:
511,55,220869,6,0,P|472:36|429:35,1,86.2500016450882,6|0,1:2|0:0,0:0:0:0:
365,93,221214,1,8,2:2:0:0:
381,177,221386,6,0,P|338:176|299:157,1,86.2500016450882,2|0,2:2|0:0,0:0:0:0:
299,157,221645,1,0,0:0:0:0:
299,157,221731,1,0,1:1:0:0:
231,104,221904,2,0,L|207:196,1,86.2500016450882,10|0,2:2|0:0,0:0:0:0:
143,131,222248,5,0,1:1:0:0:
77,188,222421,2,0,L|55:104,1,86.2500016450882,2|8,2:2|2:2,0:0:0:0:
123,52,222766,2,0,L|112:10,2,43.1250008225441
202,17,223111,1,0,1:1:0:0:
289,56,223283,2,0,L|373:78,1,86.2500016450882,8|0,2:2|0:0,0:0:0:0:
373,78,223542,1,0,0:0:0:0:
372,77,223628,6,0,P|415:76|454:57,1,86.2500016450882,2|0,1:2|0:0,0:0:0:0:
492,134,223973,1,8,2:2:0:0:
429,193,224145,2,0,P|386:192|347:173,1,86.2500016450882,2|0,2:2|0:0,0:0:0:0:
347,173,224404,1,0,0:0:0:0:
347,173,224490,1,0,1:1:0:0:
280,120,224662,2,0,L|258:204,1,86.2500016450882,10|0,2:2|0:0,0:0:0:0:
232,286,225007,5,0,1:1:0:0:
335,348,225180,2,0,L|313:264,1,86.2500016450882,2|8,2:2|2:2,0:0:0:0:
232,286,225524,2,0,L|221:328,2,43.1250008225441
149,260,225869,1,0,1:1:0:0:
73,218,226042,2,0,L|62:260,2,43.1250008225441,8|0|0,2:2|0:0|0:0,0:0:0:0:
13,155,226386,6,0,P|51:136|94:135,1,86.2500016450882,2|0,1:2|0:0,0:0:0:0:
170,177,226731,1,8,2:2:0:0:
214,251,226904,6,0,P|210:293|190:331,1,86.2500016450882,2|0,2:2|0:0,0:0:0:0:
190,331,227162,1,0,0:0:0:0:
190,331,227248,1,0,1:1:0:0:
277,376,227421,2,0,P|299:339|334:315,1,86.2500016450882,10|0,2:2|0:0,0:0:0:0:
419,333,227766,1,0,1:1:0:0:
400,248,227938,2,0,P|442:248|481:267,1,86.2500016450882,2|8,2:2|2:2,0:0:0:0:
419,333,228283,1,0,0:0:0:0:
334,314,228455,2,0,L|323:272,2,43.1250008225441,0|0|0,0:0|0:0|1:1,0:0:0:0:
253,237,228800,2,0,L|264:195,2,43.1250008225441,8|0|0,2:2|0:0|0:0,0:0:0:0:
344,168,229145,6,0,L|368:82,1,86.2500016450882,2|0,1:2|0:0,0:0:0:0:
336,4,229490,1,8,2:2:0:0:
262,97,229662,6,0,L|238:13,1,86.2500016450882,2|0,2:2|0:0,0:0:0:0:
238,14,229921,1,0,0:0:0:0:
238,14,230007,1,0,1:1:0:0:
168,86,230180,2,0,L|91:43,1,86.2500016450882,10|0,2:2|0:0,0:0:0:0:
53,120,230524,5,0,1:1:0:0:
28,202,230697,2,0,P|70:202|109:183,1,86.2500016450882,2|8,2:2|2:2,0:0:0:0:
168,86,231042,1,0,1:1:0:0:
194,167,231214,2,0,L|205:209,2,43.1250008225441,0|0|8,0:0|0:0|2:2,0:0:0:0:
295,240,231559,1,0,0:0:0:0:
295,240,231645,1,0,0:0:0:0:
295,240,231731,1,0,0:0:0:0:
377,245,231904,6,0,P|360:292|272:322,1,150,2|8,1:2|2:2,0:0:0:0:
295,240,232421,2,0,P|312:193|400:163,1,150,2|0,2:2|1:1,0:0:0:0:
476,195,232938,2,0,L|499:283,1,75,10|0,2:2|0:0,0:0:0:0:
494,267,233197,1,0,0:0:0:0:
494,267,233283,1,0,1:1:0:0:
389,319,233455,2,0,L|407:246,1,75,2|8,2:2|2:2,0:0:0:0:
468,352,233800,1,0,0:0:0:0:
389,319,233973,2,0,P|347:322|309:344,1,75,0|0,0:0|1:1,0:0:0:0:
236,329,234317,2,0,L|245:292,2,37.5,8|0|0,2:2|0:0|0:0,0:0:0:0:
153,330,234662,6,0,B|64:326|93:370|2:362,1,150,2|8,1:2|2:2,0:0:0:0:
26,280,235180,2,0,L|62:116,1,150,2|0,2:2|1:1,0:0:0:0:
140,133,235697,2,0,L|121:205,1,75,10|0,2:2|0:0,0:0:0:0:
121,205,235956,1,0,0:0:0:0:
121,205,236042,1,0,1:1:0:0:
203,202,236214,2,0,L|221:129,1,75,2|8,2:2|2:2,0:0:0:0:
248,50,236559,1,0,0:0:0:0:
308,106,236732,2,0,P|350:103|388:81,1,75,0|0,0:0|1:1,0:0:0:0:
450,46,237076,2,0,L|459:83,2,37.5,8|0|0,2:2|0:0|0:0,0:0:0:0:
378,88,237421,6,0,P|370:129|429:193,1,120,2|8,1:2|2:2,0:0:0:0:
487,160,237938,2,0,P|494:201|435:265,1,120,2|0,2:2|1:1,0:0:0:0:
372,260,238455,1,10,2:2:0:0:
304,219,238628,1,0,0:0:0:0:
262,284,238800,1,0,1:1:0:0:
262,284,238973,2,0,L|277:352,1,60,2|8,2:2|2:2,0:0:0:0:
197,352,239317,1,0,0:0:0:0:
179,275,239490,2,0,L|188:238,2,30,0|0|0,0:0|0:0|1:1,0:0:0:0:
120,326,239835,1,8,2:2:0:0:
88,254,240007,1,0,0:0:0:0:
34,311,240180,6,0,P|11:272|43:192,1,120,2|8,1:2|2:2,0:0:0:0:
98,167,240697,2,0,P|118:112|93:59,1,120,2|0,2:2|1:1,0:0:0:0:
17,39,241214,1,10,2:2:0:0:
39,118,241386,1,0,0:0:0:0:
39,118,241473,1,0,0:0:0:0:
39,118,241559,6,0,L|-4:132,16,30,0|0|2|0|8|0|0|0|0|0|0|0|8|0|0|0|4,1:1|1:1|1:2|1:1|1:2|1:1|1:1|1:1|1:1|1:1|1:1|1:1|1:2|1:1|1:1|1:1|1:2,0:0:0:0:
