osu file format v14

[General]
AudioFilename: audio.mp3
AudioLeadIn: 0
PreviewTime: 132507
Countdown: 0
SampleSet: None
StackLeniency: 0.7
Mode: 0
LetterboxInBreaks: 0
WidescreenStoryboard: 1

[Editor]
DistanceSpacing: 1
BeatDivisor: 4
GridSize: 8
TimelineZoom: 2.1

[Metadata]
Title:I'm Alive (Helsinki II)
TitleUnicode:I'm Alive (Helsinki II)
Artist:L.A.O.S.
ArtistUnicode:L.A.O.S.
Creator:capr
Version:228's Extra
Source:
Tags:english electronic laos high tea music rush hour liquicity yearmix 2017 featured artist fa dnb drum and bass 228 sanch-kk asphyxia celektus
BeatmapID:4537235
BeatmapSetID:2131861

[Difficulty]
HPDrainRate:5
CircleSize:4
OverallDifficulty:9
ApproachRate:9.4
SliderMultiplier:1.4
SliderTickRate:1

[Events]
//Background and Video events
0,0,"bg.png",0,0
//Break Periods
2,88655,98950
2,121559,130674
//Storyboard Layer 0 (Background)
//Storyboard Layer 1 (Fail)
//Storyboard Layer 2 (Pass)
//Storyboard Layer 3 (Foreground)
//Storyboard Layer 4 (Overlay)
//Storyboard Sound Samples

[TimingPoints]
180,344.827586206897,4,2,0,75,1,0
20869,-100,4,2,0,50,0,0
21386,-100,4,2,0,60,0,0
21731,-100,4,2,0,65,0,0
22248,-100,4,2,0,70,0,0
38800,-100,4,2,0,70,0,0
39145,-100,4,2,0,65,0,0
40180,-100,4,2,0,60,0,0
41559,-100,4,2,0,55,0,0
42248,-100,4,2,0,50,0,0
42421,-100,4,2,0,30,0,0
42938,-100,4,2,0,40,0,0
43455,-100,4,2,0,50,0,0
43800,-100,4,2,0,60,0,0
44145,-100,4,2,0,70,0,0
44231,-100,4,2,0,5,0,0
44317,-83.3333333333333,4,2,0,70,0,0
66386,-66.6666666666667,4,2,0,75,0,1
88455,-66.6666666666667,4,2,0,75,0,0
99490,-100,4,2,0,50,0,0
100869,-100,4,2,0,45,0,0
101559,-100,4,2,0,35,0,0
102162,-100,4,2,0,5,0,0
102248,-100,4,2,0,50,0,0
103628,-100,4,2,0,45,0,0
104317,-100,4,2,0,35,0,0
104921,-100,4,2,0,5,0,0
105007,-100,4,2,0,50,0,0
106386,-100,4,2,0,45,0,0
107076,-100,4,2,0,35,0,0
107766,-100,4,2,0,55,0,0
108455,-100,4,2,0,60,0,0
109145,-100,4,2,0,65,0,0
109835,-100,4,2,0,70,0,0
110524,-100,4,2,0,75,0,0
111042,-100,4,2,0,70,0,0
111559,-100,4,2,0,65,0,0
112076,-100,4,2,0,60,0,0
113283,-100,4,2,0,55,0,0
113800,-100,4,2,0,50,0,0
131300,-50,4,2,0,75,0,0
131731,-66.6666666666667,4,2,0,75,0,1
154662,-66.6666666666667,4,2,0,75,0,0
170007,-71.4285714285714,4,2,0,75,0,0
170352,-76.9230769230769,4,2,0,75,0,0
171214,-83.3333333333333,4,2,0,70,0,0
172248,-90.9090909090909,4,2,0,70,0,0
172593,-100,4,2,0,70,0,0
175524,-66.6666666666667,4,2,0,70,0,0
176731,-66.6666666666667,4,2,0,75,0,0
179490,-66.6666666666667,4,2,0,75,0,1
197421,-50,4,2,0,75,0,1
198800,-66.6666666666667,4,2,0,75,0,1
220869,-66.6666666666667,4,2,0,75,0,0
231904,-71.4285714285714,4,2,0,75,0,0
234662,-76.9230769230769,4,2,0,75,0,0
237421,-83.3333333333333,4,2,0,75,0,0
240180,-90.9090909090909,4,2,0,75,0,0

[Colours]
Combo1 : 244,179,191
Combo2 : 180,105,216
Combo3 : 122,80,104
Combo4 : 179,142,166
Combo5 : 101,103,167

[HitObjects]
256,192,20869,12,0,22076,3:0:0:0:
47,291,22248,6,0,P|107:280|211:271,1,140,4|8,1:2|0:0,0:0:0:0:
318,180,22766,1,2,0:0:0:0:
322,196,22852,1,0,0:0:0:0:
325,213,22938,1,2,3:2:0:0:
300,290,23111,1,0,1:0:0:0:
472,223,23283,2,0,L|379:241,1,70,8|0,0:0|0:0,0:0:0:0:
227,378,23628,6,0,P|207:328|218:215,1,140,0|8,1:0|0:0,0:0:0:0:
124,128,24145,1,2,0:0:0:0:
116,143,24231,1,0,0:0:0:0:
110,159,24317,1,2,3:2:0:0:
107,176,24404,1,0,0:0:0:0:
107,193,24490,1,0,1:0:0:0:
0,13,24662,2,0,L|17:91,1,70,8|0,0:0|0:0,0:0:0:0:
14,81,24921,1,0,0:0:0:0:
14,81,25007,6,0,L|90:60,1,70,0|0,1:0|3:0,0:0:0:0:
200,162,25352,1,8,0:0:0:0:
265,105,25524,1,2,0:0:0:0:
271,88,25611,1,0,0:0:0:0:
273,70,25697,1,2,3:2:0:0:
158,66,25869,2,0,L|209:78,1,35,0|0,1:0|0:0,0:0:0:0:
351,128,26042,2,0,L|441:108,1,70,8|0,0:0|0:0,0:0:0:0:
253,305,26386,6,0,L|237:237,1,70,0|0,1:0|3:0,0:0:0:0:
318,218,26731,1,8,0:0:0:0:
160,277,26904,1,2,0:0:0:0:
143,277,26990,1,0,0:0:0:0:
126,275,27076,1,2,3:2:0:0:
109,271,27162,1,0,0:0:0:0:
92,267,27248,1,0,1:0:0:0:
166,188,27421,1,8,0:0:0:0:
337,346,27593,1,0,3:0:0:0:
337,346,27680,1,0,0:0:0:0:
337,346,27766,6,0,L|428:332,1,70,4|0,1:0|3:0,0:0:0:0:
236,214,28111,2,0,L|145:200,1,70,8|2,0:0|3:2,0:0:0:0:
9,330,28455,2,0,P|54:315|164:302,1,140,2|0,3:2|0:0,0:0:0:0:
259,339,28973,1,0,3:0:0:0:
259,339,29059,1,0,3:0:0:0:
259,339,29145,5,6,1:2:0:0:
324,218,29317,1,0,3:0:0:0:
324,218,29490,2,0,L|341:306,1,70,8|0,0:0|0:0,0:0:0:0:
259,339,29835,1,6,3:2:0:0:
259,339,29921,1,0,3:0:0:0:
259,339,30007,1,0,1:2:0:0:
330,208,30180,2,0,L|347:296,1,70,8|0,0:0|0:0,0:0:0:0:
88,191,30524,6,0,P|81:138|80:92,1,70,4|0,1:0|3:0,0:0:0:0:
216,16,30869,2,0,B|237:52|237:52|208:103,1,70,8|2,0:0|3:2,0:0:0:0:
10,61,31214,2,0,P|64:43|155:65,1,140,2|0,3:2|0:0,0:0:0:0:
171,160,31731,1,2,3:2:0:0:
171,160,31817,1,0,3:0:0:0:
171,160,31904,5,6,1:2:0:0:
309,102,32076,1,0,3:0:0:0:
309,102,32248,1,8,0:0:0:0:
224,227,32421,2,0,L|243:316,1,70,6|0,1:2|3:0,0:0:0:0:
394,106,32766,2,0,L|379:37,1,70,10|0,0:0|3:0,0:0:0:0:
512,218,33111,1,0,3:0:0:0:
512,218,33197,1,0,3:0:0:0:
512,218,33283,6,0,P|462:203|360:189,1,140,4|8,1:0|0:0,0:0:0:0:
311,273,33800,1,2,0:0:0:0:
312,290,33886,1,0,0:0:0:0:
315,307,33973,1,2,3:2:0:0:
458,283,34145,1,0,1:0:0:0:
262,384,34317,2,0,P|209:371|175:367,1,70,8|0,0:0|3:0,0:0:0:0:
58,216,34662,6,0,L|42:296,1,70,0|0,1:0|3:0,0:0:0:0:
197,134,35007,2,0,L|210:204,1,70,8|2,0:0|3:2,0:0:0:0:
209,202,35266,1,0,0:0:0:0:
209,202,35352,1,2,0:0:0:0:
235,290,35524,1,0,1:0:0:0:
385,149,35697,2,0,L|364:240,1,70,8|0,0:0|3:0,0:0:0:0:
483,384,36042,6,0,P|479:333|458:232,1,140,0|8,1:0|0:0,0:0:0:0:
297,160,36559,1,2,0:0:0:0:
297,160,36645,1,0,0:0:0:0:
297,160,36731,1,2,3:2:0:0:
235,290,36904,1,0,1:0:0:0:
130,228,37076,2,0,L|119:287,1,35,10|0,0:0|0:0,0:0:0:0:
49,319,37248,2,0,L|42:271,1,35,2|0,3:2|0:0,0:0:0:0:
0,146,37421,6,0,L|82:165,1,70,0|0,1:0|3:0,0:0:0:0:
218,124,37766,1,8,0:0:0:0:
147,81,37938,1,2,0:0:0:0:
140,64,38024,1,0,0:0:0:0:
134,47,38111,1,2,3:2:0:0:
129,30,38197,1,0,0:0:0:0:
124,13,38283,1,0,1:0:0:0:
278,189,38455,1,2,0:0:0:0:
285,206,38541,1,0,0:0:0:0:
291,223,38628,1,2,3:2:0:0:
296,240,38714,1,0,0:0:0:0:
301,257,38800,6,0,P|354:258|460:283,1,140,4|8,1:0|0:0,0:0:0:0:
500,219,39317,1,0,3:0:0:0:
379,103,39490,2,0,L|370:181,1,70,2|0,0:0|1:2,0:0:0:0:
501,32,39835,2,0,B|519:67|519:67|500:114,1,70,8|0,0:0|3:0,0:0:0:0:
257,118,40180,6,0,B|222:179|222:179|262:257,1,140,4|0,1:2|3:0,0:0:0:0:
411,354,40869,1,2,0:0:0:0:
411,354,40955,1,0,0:0:0:0:
411,354,41042,1,2,3:2:0:0:
253,240,41214,1,0,3:0:0:0:
60,365,41559,6,0,L|45:288,1,70,0|0,1:0|0:0,0:0:0:0:
143,347,41904,2,0,L|128:270,1,70,0|2,3:0|0:0,0:0:0:0:
76,220,42248,1,2,0:0:0:0:
256,192,42421,12,0,44231,0:0:0:0:
39,192,44317,6,0,B|86:259|86:259|44:368,1,167.999994873047,4|8,1:1|0:0,0:0:0:0:
267,261,44835,1,2,0:0:0:0:
267,261,44921,1,0,0:0:0:0:
267,261,45007,1,2,0:0:0:0:
161,244,45180,1,0,3:0:0:0:
353,318,45352,2,0,L|368:223,1,83.9999974365235,8|0,0:0|3:0,0:0:0:0:
512,62,45697,6,0,P|497:115|366:139,1,167.999994873047,0|8,3:0|0:0,0:0:0:0:
329,86,46214,1,2,0:0:0:0:
317,104,46300,1,0,0:0:0:0:
310,124,46386,1,2,3:2:0:0:
305,145,46473,1,0,0:0:0:0:
304,166,46559,1,0,1:0:0:0:
433,288,46731,1,8,0:0:0:0:
266,342,46904,1,0,3:0:0:0:
101,175,47076,6,0,B|75:195|75:195|91:303,1,125.999996154785,0|0,1:0|0:0,0:0:0:0:
88,287,47421,1,10,0:0:0:0:
238,80,47593,2,0,L|204:242,1,125.999996154785,0|0,1:0|0:0,0:0:0:0:
254,264,47938,2,0,L|268:332,1,41.9999987182618,0|0,3:1|0:0,0:0:0:0:
472,214,48111,2,0,L|402:195,1,41.9999987182618,10|0,0:0|0:0,0:0:0:0:
344,234,48283,1,0,1:0:0:0:
150,112,48455,6,0,P|99:88|37:82,1,83.9999974365235,2|0,1:2|0:0,0:0:0:0:
343,342,48800,2,0,P|394:366|456:372,1,83.9999974365235,12|2,0:2|0:1,0:0:0:0:
418,285,49145,1,2,1:2:0:0:
418,285,49231,1,0,3:0:0:0:
418,285,49317,1,0,3:0:0:0:
85,170,49490,2,0,L|63:261,1,83.9999974365235,10|2,0:1|0:0,0:0:0:0:
472,214,49835,6,0,P|487:156|478:38,1,167.999994873047,4|8,1:0|0:0,0:0:0:0:
258,197,50352,1,2,3:2:0:0:
258,197,50438,1,0,3:0:0:0:
258,197,50524,1,2,3:2:0:0:
243,75,50697,2,0,L|262:112,1,41.9999987182618,2|0,3:0|0:0,0:0:0:0:
356,262,50869,2,0,L|314:260,1,41.9999987182618,8|0,0:0|0:0,0:0:0:0:
159,271,51042,2,0,L|181:235,1,41.9999987182618,2|0,3:0|0:0,0:0:0:0:
12,187,51214,6,0,P|8:133|18:76,2,83.9999974365235,0|0|8,3:0|0:0|0:0,0:0:0:0:
85,331,51731,2,0,P|139:317|283:306,1,167.999994873047,2|2,0:0|3:2,0:0:0:0:
157,117,52248,2,0,P|129:175|93:207,1,83.9999974365235,8|0,0:0|0:0,0:0:0:0:
394,382,52593,6,0,P|348:338|328:218,1,167.999994873047,0|8,3:0|0:0,0:0:0:0:
383,166,53111,1,2,0:0:0:0:
383,166,53197,1,0,0:0:0:0:
383,166,53283,1,2,3:2:0:0:
230,224,53455,2,0,L|221:173,1,41.9999987182618,0|0,3:0|0:0,0:0:0:0:
74,117,53628,2,0,L|65:66,1,41.9999987182618,8|0,0:0|0:0,0:0:0:0:
148,40,53800,1,0,3:0:0:0:
64,237,53973,6,0,B|49:276|49:276|74:325,1,83.9999974365235,2|0,1:0|0:0,0:0:0:0:
151,148,54317,1,8,0:0:0:0:
271,379,54490,2,0,L|307:238,1,125.999996154785,2|0,1:0|0:0,0:0:0:0:
363,212,54835,2,0,P|418:221|460:213,1,83.9999974365235,8|2,0:0|0:1,0:0:0:0:
165,384,55180,1,0,3:1:0:0:
165,384,55266,1,0,3:0:0:0:
165,384,55352,6,0,P|95:363|-8:353,1,167.999994873047,4|8,1:0|0:0,0:0:0:0:
158,256,55869,1,2,0:0:0:0:
332,324,56042,1,2,3:2:0:0:
297,177,56214,1,0,3:0:0:0:
396,125,56386,2,0,P|407:72|411:27,1,83.9999974365235,8|0,0:0|0:0,0:0:0:0:
486,325,56731,6,0,P|465:273|341:225,1,167.999994873047,0|8,3:0|0:0,0:0:0:0:
247,243,57248,1,2,0:0:0:0:
247,243,57335,1,0,0:0:0:0:
247,243,57421,1,2,3:2:0:0:
177,190,57593,1,0,3:0:0:0:
436,63,57766,2,0,L|407:171,1,83.9999974365235,8|0,0:0|0:0,0:0:0:0:
122,248,58111,6,0,B|91:217|91:217|102:160,1,83.9999974365235,0|0,1:0|0:0,0:0:0:0:
194,87,58455,1,8,0:0:0:0:
18,43,58628,2,0,P|24:84|35:140,1,83.9999974365235,2|2,1:2|3:2,0:0:0:0:
268,332,58973,2,0,P|261:291|254:250,1,83.9999974365235,0|8,3:0|0:0,0:0:0:0:
71,384,59317,1,2,3:2:0:0:
251,148,59490,5,0,1:0:0:0:
187,305,59662,1,2,3:2:0:0:
187,305,59748,1,0,3:0:0:0:
187,305,59835,1,10,0:0:0:0:
325,184,60007,2,0,B|343:140|343:140|319:97,1,83.9999974365235,2|0,0:1|0:0,0:0:0:0:
398,260,60352,1,0,3:0:0:0:
278,0,60524,2,0,P|268:37|179:79,1,125.999996154785,10|0,0:1|0:0,0:0:0:0:
114,109,60869,6,0,B|104:162|104:162|123:208|123:208|103:305,1,167.999994873047,4|8,3:1|0:0,0:0:0:0:
253,384,61386,1,2,0:0:0:0:
253,384,61473,1,0,0:0:0:0:
253,384,61559,1,2,3:2:0:0:
322,258,61731,1,0,0:0:0:0:
201,284,61904,1,8,0:0:0:0:
343,370,62076,1,0,3:0:0:0:
478,246,62248,6,0,P|495:188|500:141,1,83.9999974365235,0|0,3:0|0:0,0:0:0:0:
423,341,62593,1,8,0:0:0:0:
277,186,62766,2,0,P|265:111|272:-6,1,167.999994873047,2|0,0:0|3:0,0:0:0:0:
439,107,63283,1,8,0:0:0:0:
439,107,63369,1,0,0:0:0:0:
439,107,63455,1,0,3:0:0:0:
464,9,63628,5,4,1:2:0:0:
389,23,63800,1,0,3:0:0:0:
346,84,63973,1,8,0:0:0:0:
512,177,64145,6,4,L|501:228,1,41.9999987182618,2|0,1:2|0:0,0:0:0:0:
435,247,64317,1,0,3:2:0:0:
273,303,64490,6,4,L|264:261,1,41.9999987182618,6|0,1:2|0:0,0:0:0:0:
196,233,64662,1,8,3:2:0:0:
271,113,64835,1,0,3:0:0:0:
58,301,65007,6,0,P|49:352|49:396,1,83.9999974365235,6|0,3:1|0:0,0:0:0:0:
0,193,65352,1,8,0:0:0:0:
214,357,65524,2,0,L|107:337,1,83.9999974365235,2|0,3:1|0:0,0:0:0:0:
0,193,65869,1,8,0:0:0:0:
178,0,66042,1,0,1:0:0:0:
167,44,66128,1,0,3:0:0:0:
185,86,66214,1,2,3:0:0:0:
224,109,66300,1,0,3:0:0:0:
261,112,66386,6,0,L|284:257,1,105.000004005432,6|0,1:0|0:0,0:0:0:0:
277,215,66731,1,8,0:0:0:0:
496,146,66904,2,0,L|519:1,1,105.000004005432,2|0,1:0|0:0,0:0:0:0:
512,42,67249,1,0,3:0:0:0:
91,210,67421,2,0,L|68:355,1,105.000004005432,10|0,0:1|0:0,0:0:0:0:
74,313,67766,1,0,1:0:0:0:
374,298,67938,6,0,B|388:244|388:244|355:180,1,105.000004005432,2|0,1:1|0:0,0:0:0:0:
3,132,68283,2,0,B|-11:186|-11:186|22:250,1,105.000004005432,2|0,1:1|0:0,0:0:0:0:
142,384,68628,5,0,1:0:0:0:
228,67,68800,1,8,0:0:0:0:
269,98,68886,1,0,3:0:0:0:
318,116,68973,1,8,3:0:0:0:
369,126,69059,1,0,3:0:0:0:
421,120,69145,6,0,L|442:5,1,105.000004005432,6|0,1:0|0:0,0:0:0:0:
439,16,69490,1,8,0:0:0:0:
243,265,69662,2,0,L|222:150,1,105.000004005432,2|0,1:0|0:0,0:0:0:0:
224,161,70007,1,0,3:0:0:0:
0,177,70180,2,0,L|21:62,1,105.000004005432,2|0,1:0|0:0,0:0:0:0:
19,73,70525,1,0,1:0:0:0:
156,307,70697,6,2,B|211:297|211:297|258:326|258:326|347:320,1,157.500006008148,10|0,1:3|0:0,1:1:0:0:
360,276,71042,1,2,3:1:0:0:
356,266,71128,1,2,3:2:0:0:
373,246,71214,1,2,3:1:0:0:
355,207,71300,1,2,3:2:0:0:
378,154,71386,1,4,1:2:0:0:
57,262,71559,1,10,1:1:0:0:
80,315,71645,1,2,3:2:0:0:
62,354,71731,1,4,1:3:0:0:
79,374,71817,1,2,3:2:0:0:
75,384,71904,6,0,B|14:358|14:358|-3:189,1,210.000008010865,6|8,1:0|0:0,0:0:0:0:
412,344,72421,2,0,B|439:330|439:330|455:220,1,105.000004005432,2|0,1:0|0:0,0:0:0:0:
449,256,72766,1,0,1:0:0:0:
151,258,72938,2,0,B|124:244|124:244|108:134,1,105.000004005432,10|0,1:0|0:0,0:0:0:0:
113,170,73283,1,0,1:0:0:0:
486,102,73455,6,0,L|458:-24,1,105.000004005432,2|8,1:0|0:0,0:0:0:0:
257,176,73800,2,2,B|226:427,1,210.000008010865,2|0,1:2|1:0,1:0:0:0:
94,87,74317,1,8,0:0:0:0:
94,87,74404,1,0,0:0:0:0:
94,87,74490,1,0,3:0:0:0:
32,350,74662,6,0,L|139:330,1,105.000004005432,2|0,1:0|0:0,0:0:0:0:
135,330,75007,1,8,0:0:0:0:
413,189,75180,2,0,L|306:169,1,105.000004005432,2|0,1:0|0:0,0:0:0:0:
309,169,75525,1,0,1:0:0:0:
20,25,75697,2,0,L|-3:143,1,105.000004005432,10|0,1:0|0:0,0:0:0:0:
0,128,76042,1,0,1:0:0:0:
459,78,76214,6,0,B|479:143|479:143|510:170,1,105.000004005432,2|8,1:0|0:0,0:0:0:0:
262,0,76559,2,2,L|216:240,1,210.000008010865,2|0,3:2|1:0,1:0:0:0:
408,384,77076,1,8,3:2:0:0:
403,326,77162,1,0,3:0:0:0:
362,284,77248,1,4,3:2:0:0:
305,268,77335,1,0,3:0:0:0:
252,291,77421,6,0,L|131:272,1,105.000004005432,6|0,1:0|0:0,0:0:0:0:
83,318,77766,1,8,0:0:0:0:
405,212,77938,2,0,L|430:89,1,105.000004005432,2|0,1:0|0:0,0:0:0:0:
467,276,78283,1,0,3:0:0:0:
239,103,78455,2,0,L|216:223,1,105.000004005432,10|0,1:0|0:0,0:0:0:0:
142,86,78800,1,0,1:0:0:0:
337,377,78973,6,0,B|320:302|320:302|342:256,1,105.000004005432,2|8,1:0|0:0,3:0:0:0:
36,299,79317,2,2,B|90:148|90:148|47:78,1,210.000008010865,2|0,1:2|1:0,1:0:0:0:
321,0,79835,2,0,L|350:119,1,105.000004005432,8|0,0:0|3:0,0:0:0:0:
500,279,80180,6,0,P|443:313|382:309,1,105.000004005432,2|0,1:0|0:0,0:0:0:0:
494,384,80524,1,8,0:0:0:0:
186,126,80697,2,0,P|173:189|135:235,1,105.000004005432,2|0,1:0|0:0,0:0:0:0:
72,235,81042,1,0,1:0:0:0:
324,384,81214,2,0,P|323:294|368:193,1,157.500006008148,10|0,1:0|0:0,0:0:0:0:
399,172,81559,2,0,L|323:143,1,52.5000020027161,4|0,1:0|0:0,0:0:0:0:
22,297,81731,6,0,B|11:324|11:324|33:366,1,52.5000020027161,2|0,1:1|0:0,0:0:0:0:
223,252,81904,2,0,B|234:225|234:225|212:183,1,52.5000020027161,10|0,1:2|0:0,0:0:0:0:
50,60,82076,1,2,3:1:0:0:
60,72,82162,1,0,3:0:0:0:
88,60,82248,1,2,3:1:0:0:
122,93,82335,1,0,3:0:0:0:
184,93,82421,1,4,1:2:0:0:
396,312,82593,1,10,3:1:0:0:
334,312,82679,1,0,3:0:0:0:
300,345,82766,1,4,3:0:0:0:
272,333,82852,1,0,3:0:0:0:
262,345,82938,6,0,B|184:326|184:326|149:275|149:275|53:245,1,210.000008010865,6|8,1:0|0:0,0:0:0:0:
447,81,83455,2,0,L|466:203,1,105.000004005432,2|0,1:0|3:0,0:0:0:0:
370,237,83800,1,0,1:0:0:0:
245,0,83973,2,0,L|222:120,1,105.000004005432,10|0,1:0|3:0,0:0:0:0:
262,180,84317,1,0,1:0:0:0:
104,31,84490,6,0,P|55:10|-23:-2,1,105.000004005432,2|8,1:0|0:0,0:0:0:0:
314,300,84835,2,2,P|412:342|563:366,1,210.000008010865,2|0,1:2|1:0,1:0:0:0:
311,114,85352,1,10,0:0:0:0:
311,114,85438,1,0,0:0:0:0:
311,114,85524,1,0,3:0:0:0:
184,281,85697,6,0,L|205:398,1,105.000004005432,2|0,1:0|0:0,0:0:0:0:
107,343,86042,1,8,0:0:0:0:
396,131,86214,2,0,L|375:248,1,105.000004005432,2|0,1:0|0:0,0:0:0:0:
473,193,86559,1,0,1:0:0:0:
143,205,86731,2,0,L|64:191,1,52.5000020027161,10|0,0:1|0:0,0:0:0:0:
403,333,86904,2,0,L|419:409,1,52.5000020027161,0|0,3:0|0:0,0:0:0:0:
368,11,87076,5,4,1:2:0:0:
315,10,87162,1,0,3:0:0:0:
263,21,87248,1,2,3:0:0:0:
221,53,87335,1,0,3:0:0:0:
197,99,87421,1,8,3:2:0:0:
196,151,87507,1,0,3:0:0:0:
214,200,87593,1,2,3:2:0:0:
252,236,87680,1,0,3:0:0:0:
302,248,87766,1,2,3:2:0:0:
352,234,87852,1,0,3:0:0:0:
387,195,87938,1,2,1:3:0:0:
399,144,88024,1,0,3:0:0:0:
390,91,88111,1,12,3:2:0:0:
429,125,88197,1,0,3:0:0:0:
480,116,88283,1,4,3:0:0:0:
512,77,88369,1,0,3:0:0:0:
504,25,88455,5,6,1:0:0:0:
29,132,99490,5,0,3:0:0:0:
84,80,99662,1,2,0:0:0:0:
159,66,99835,1,0,3:0:0:0:
235,79,100007,1,2,0:0:0:0:
314,207,100180,5,2,0:3:0:0:
256,192,100266,12,0,102162,0:0:0:0:
483,252,102248,5,0,3:0:0:0:
428,304,102420,1,2,0:0:0:0:
353,318,102593,1,0,3:0:0:0:
277,305,102765,1,2,0:0:0:0:
189,142,102938,5,2,0:3:0:0:
256,192,103024,12,0,104921,0:0:0:0:
56,370,105007,5,0,3:0:0:0:
117,321,105180,1,2,0:0:0:0:
78,254,105352,1,0,3:0:0:0:
133,203,105524,1,2,0:0:0:0:
82,24,105697,5,2,0:3:0:0:
256,192,105783,12,2,107766,0:0:0:0:
256,192,107852,12,6,110524,1:0:0:0:
31,235,111042,5,2,0:0:0:0:
457,95,111559,5,2,0:0:0:0:
424,361,112076,5,2,1:2:0:0:
424,361,112593,1,0,0:0:0:0:
118,23,113283,5,2,0:1:0:0:
227,352,113800,5,2,0:0:0:0:
471,166,114317,5,0,1:0:0:0:
471,166,114835,1,2,0:0:0:0:
405,204,115007,1,0,0:0:0:0:
313,151,115180,2,0,L|340:291,2,140,0|0|0,3:0|0:0|3:0,0:0:0:0:
254,3,116042,5,2,0:1:0:0:
255,384,116559,5,2,0:1:0:0:
254,3,117076,5,2,1:1:0:0:
152,345,117593,5,2,0:0:0:0:
91,297,117766,1,0,0:0:0:0:
175,231,117938,2,0,L|27:207,1,140,0|0,3:0|0:0,0:0:0:0:
241,147,118455,2,0,L|260:232,1,70,0|0,3:0|0:0,0:0:0:0:
255,384,118800,5,2,0:1:0:0:
254,3,119317,5,2,0:1:0:0:
255,384,119835,5,2,1:1:0:0:
405,307,120007,2,0,P|368:253|351:164,2,140,0|2|0,3:0|0:0|0:0,0:0:0:0:
0,91,131214,5,0,3:0:0:0:
0,91,131300,2,2,B|23:87|23:87|116:155|116:155|156:35|156:35|202:0,1,280,0|0,1:0|0:0,1:2:0:0:
243,23,131731,1,2,3:0:0:0:
226,77,131817,1,0,3:0:0:0:
255,121,131904,1,2,3:2:0:0:
249,167,131990,1,2,3:0:0:0:
272,202,132076,1,2,3:2:0:0:
268,238,132162,1,0,3:0:0:0:
284,264,132248,1,2,3:0:0:0:
282,290,132335,1,0,3:0:0:0:
292,307,132421,1,2,3:2:0:0:
293,322,132507,1,2,3:0:0:0:
311,355,132593,6,0,P|379:342|407:284,1,105.000004005432,6|0,1:0|0:0,0:0:0:0:
399,316,132852,1,0,3:0:0:0:
399,316,132938,1,8,0:0:0:0:
89,296,133111,2,0,P|21:283|-7:225,1,105.000004005432,2|0,1:0|0:0,0:0:0:0:
0,257,133369,1,0,3:0:0:0:
0,257,133455,1,0,1:0:0:0:
376,141,133628,2,0,L|357:253,1,105.000004005432,10|0,1:0|0:0,0:0:0:0:
358,244,133886,1,0,3:0:0:0:
358,244,133973,1,0,1:0:0:0:
499,102,134145,6,0,B|485:34|485:34|498:-24,1,105.000004005432,2|8,1:0|0:0,0:0:0:0:
121,177,134490,2,0,P|104:246|82:413,1,210.000008010865,2|0,1:2|1:0,1:0:0:0:
512,251,135007,1,8,3:2:0:0:
477,204,135093,1,0,3:0:0:0:
425,177,135180,1,8,3:0:0:0:
368,166,135266,1,0,3:0:0:0:
312,182,135352,6,0,B|288:134|288:134|305:54,1,105.000004005432,2|0,1:0|0:0,0:0:0:0:
298,83,135611,1,0,3:0:0:0:
298,83,135697,1,8,0:0:0:0:
452,380,135869,2,0,L|427:262,1,105.000004005432,2|0,1:0|0:0,0:0:0:0:
430,277,136128,1,0,3:0:0:0:
430,277,136214,1,0,1:0:0:0:
185,234,136386,2,0,B|204:179|204:179|182:120,1,105.000004005432,10|0,1:0|3:0,0:0:0:0:
187,135,136645,1,0,3:0:0:0:
187,135,136731,1,0,1:0:0:0:
0,13,136904,6,2,B|12:64|12:64|62:90|62:90|84:164,1,157.500006008148,10|0,1:3|0:0,1:2:0:0:
104,211,137248,1,2,3:1:0:0:
119,225,137335,1,0,3:0:0:0:
150,206,137421,1,2,3:1:0:0:
198,226,137507,1,0,3:0:0:0:
258,193,137593,1,4,1:2:0:0:
484,33,137766,1,10,3:1:0:0:
424,0,137852,1,0,3:0:0:0:
376,20,137938,1,4,3:3:0:0:
345,1,138024,1,0,3:0:0:0:
331,16,138111,6,0,L|359:143,1,105.000004005432,6|0,1:0|0:0,0:0:0:0:
353,118,138369,1,0,3:0:0:0:
353,118,138455,1,8,0:0:0:0:
174,328,138628,2,0,L|202:206,1,105.000004005432,2|0,1:0|0:0,0:0:0:0:
197,225,138886,1,0,3:0:0:0:
196,224,138973,1,0,1:0:0:0:
387,378,139145,2,0,P|327:335|278:321,1,105.000004005432,10|0,1:0|3:0,0:0:0:0:
299,325,139404,1,0,3:0:0:0:
299,325,139490,1,0,0:0:0:0:
0,277,139662,6,0,P|63:277|101:244,1,105.000004005432,2|8,1:0|0:0,0:0:0:0:
350,207,140007,2,0,P|255:165|235:58,1,210.000008010865,2|0,1:2|1:0,1:0:0:0:
290,16,140524,1,10,0:0:0:0:
290,16,140611,1,0,3:0:0:0:
290,16,140697,1,0,3:0:0:0:
60,182,140869,6,0,P|51:142|2:78,1,105.000004005432,2|0,1:0|0:0,0:0:0:0:
15,89,141128,1,0,3:0:0:0:
15,89,141214,1,8,0:0:0:0:
388,280,141386,2,0,P|397:240|446:176,1,105.000004005432,2|0,1:0|0:0,0:0:0:0:
432,187,141645,1,0,3:0:0:0:
432,187,141731,1,0,1:0:0:0:
169,0,141904,2,0,L|147:117,1,105.000004005432,10|0,1:0|3:0,0:0:0:0:
326,361,142248,5,4,1:2:0:0:
501,267,142421,2,0,L|379:292,1,105.000004005432,10|0,1:0|1:0,0:0:0:0:
105,384,142766,2,2,B|115:316|115:316|162:279|162:279|179:184,1,210.000008010865,6|8,1:2|0:0,0:1:0:0:
369,0,143283,1,8,3:2:0:0:
363,57,143369,1,0,3:0:0:0:
358,114,143455,1,2,3:0:0:0:
353,172,143542,1,0,3:0:0:0:
349,229,143628,5,6,1:0:0:0:
257,263,143800,1,0,3:0:0:0:
257,263,143886,1,0,3:0:0:0:
257,263,143973,1,8,0:0:0:0:
512,102,144145,2,0,P|465:140|394:143,1,105.000004005432,2|0,1:0|0:0,0:0:0:0:
358,114,144404,1,0,3:0:0:0:
358,114,144490,1,0,1:0:0:0:
231,369,144662,2,0,P|175:328|161:259,1,105.000004005432,10|0,1:0|0:0,0:0:0:0:
184,226,144921,1,0,3:0:0:0:
184,226,145007,5,0,1:0:0:0:
323,305,145180,1,2,3:1:0:0:
435,69,145352,1,10,0:0:0:0:
274,183,145524,1,2,3:2:0:0:
242,145,145611,1,0,3:0:0:0:
226,100,145697,1,2,3:2:0:0:
224,53,145783,1,0,3:0:0:0:
235,1,145869,1,2,1:3:0:0:
422,147,146042,1,10,0:0:0:0:
454,185,146129,1,0,3:0:0:0:
470,230,146214,1,2,3:2:0:0:
472,277,146301,1,0,3:0:0:0:
461,329,146386,6,0,P|411:343|357:385,1,105.000004005432,6|0,1:0|0:0,0:0:0:0:
295,381,146645,1,0,3:0:0:0:
295,381,146731,1,8,0:0:0:0:
133,291,146904,2,0,P|158:245|166:177,1,105.000004005432,2|0,1:0|0:0,0:0:0:0:
214,137,147163,1,0,3:0:0:0:
214,137,147249,1,0,1:0:0:0:
0,0,147421,2,0,P|29:42|44:93,1,105.000004005432,10|0,1:0|3:0,0:0:0:0:
0,167,147766,1,0,1:0:0:0:
313,203,147938,6,0,L|229:223,1,52.5000020027161,2|0,1:0|0:0,0:0:0:0:
119,51,148111,2,0,L|199:72,1,52.5000020027161,10|0,3:2|0:0,0:0:0:0:
79,294,148283,1,2,3:1:0:0:
93,279,148369,1,0,3:0:0:0:
91,242,148455,1,2,3:1:0:0:
128,204,148542,1,0,3:0:0:0:
113,137,148628,1,4,1:2:0:0:
374,70,148800,1,10,3:1:0:0:
359,137,148886,1,0,3:0:0:0:
396,175,148973,1,4,3:0:0:0:
394,212,149059,1,0,3:0:0:0:
408,227,149145,6,0,L|521:245,1,105.000004005432,6|0,1:0|3:0,0:0:0:0:
503,320,149404,1,0,3:0:0:0:
503,320,149490,1,8,0:0:0:0:
232,137,149662,2,0,L|119:155,1,105.000004005432,2|0,1:0|3:0,0:0:0:0:
114,79,149921,1,0,3:0:0:0:
114,79,150007,1,0,1:0:0:0:
349,282,150180,2,0,L|372:396,1,105.000004005432,10|0,1:1|0:0,0:0:0:0:
512,243,150524,5,0,1:0:0:0:
454,384,150697,1,2,1:0:0:0:
229,317,150869,1,8,0:0:0:0:
309,183,151042,1,2,3:2:0:0:
318,136,151128,1,0,3:0:0:0:
304,90,151214,1,2,3:2:0:0:
267,60,151300,1,0,3:0:0:0:
219,59,151386,1,0,1:0:0:0:
99,246,151559,1,10,3:2:0:0:
51,245,151645,1,0,3:0:0:0:
14,215,151731,1,2,3:2:0:0:
0,169,151817,1,0,3:0:0:0:
9,122,151904,6,0,P|67:113|129:91,1,105.000004005432,6|0,1:0|0:0,0:0:0:0:
148,34,152162,1,0,3:0:0:0:
148,34,152248,1,8,0:0:0:0:
195,336,152421,2,0,P|229:288|257:229,1,105.000004005432,2|0,1:0|0:0,0:0:0:0:
231,175,152680,1,0,3:0:0:0:
231,175,152766,1,0,1:0:0:0:
469,384,152938,2,0,P|460:326|438:264,1,105.000004005432,2|0,1:0|0:0,0:0:0:0:
512,23,153283,5,4,1:2:0:0:
507,21,153369,1,0,3:0:0:0:
498,22,153455,1,2,3:2:0:0:
485,26,153542,1,0,3:0:0:0:
470,36,153628,1,8,3:2:0:0:
458,54,153714,1,0,3:0:0:0:
456,80,153800,1,2,3:2:0:0:
458,110,153886,1,0,3:0:0:0:
449,144,153973,1,2,3:2:0:0:
421,171,154059,1,0,3:0:0:0:
378,182,154145,1,2,1:3:0:0:
332,166,154231,1,0,3:0:0:0:
284,144,154317,1,12,3:2:0:0:
226,140,154404,1,0,3:0:0:0:
170,166,154490,1,6,3:0:0:0:
145,226,154576,1,0,3:0:0:0:
165,297,154662,6,0,B|244:312|211:344|322:372,1,157.500006008148,4|0,1:0|0:0,0:0:0:0:
371,333,155007,2,0,P|386:303|394:256,1,52.5000020027161,8|0,0:0|0:0,0:0:0:0:
264,209,155180,2,0,P|291:190|322:153,1,52.5000020027161,2|0,3:2|0:0,0:0:0:0:
214,59,155352,2,0,P|247:56|292:40,1,52.5000020027161,2|0,3:2|0:0,0:0:0:0:
245,31,155524,2,0,P|235:68|237:109,1,52.5000020027161,0|0,1:0|0:0,0:0:0:0:
391,196,155697,2,0,P|448:223|487:300,1,105.000004005432,10|0,0:0|0:0,0:0:0:0:
145,226,156042,6,0,P|65:204|-15:113,1,157.500006008148,0|0,1:0|0:0,0:0:0:0:
60,97,156386,2,0,P|53:61|32:19,1,52.5000020027161,8|0,0:0|0:0,0:0:0:0:
131,139,156559,1,0,3:0:0:0:
251,259,156731,2,0,P|258:223|279:181,1,52.5000020027161,2|0,3:2|0:0,0:0:0:0:
180,301,156904,1,2,1:2:0:0:
9,281,157076,2,0,P|25:362|25:408,1,105.000004005432,8|0,0:0|0:0,0:0:0:0:
341,239,157421,6,0,B|357:190|357:190|310:117,1,105.000004005432,4|0,1:2|0:0,0:0:0:0:
167,351,157766,2,0,L|180:301,1,52.5000020027161,10|0,0:0|0:0,0:0:0:0:
60,97,157938,2,0,B|44:146|44:146|91:219,1,105.000004005432,4|0,1:2|0:0,0:0:0:0:
180,353,158283,2,0,L|167:302,1,52.5000020027161,2|0,1:3|0:0,0:0:0:0:
394,186,158455,1,10,0:0:0:0:
255,126,158628,1,2,3:0:0:0:
306,354,158800,6,0,P|371:374|518:381,1,210.000008010865,4|8,1:0|0:0,0:0:0:0:
384,98,159317,1,2,3:2:0:0:
426,100,159404,1,0,3:0:0:0:
461,122,159490,1,2,3:2:0:0:
481,158,159576,1,0,3:0:0:0:
484,199,159662,1,2,1:3:0:0:
258,247,159835,2,0,P|271:215|304:172,1,52.5000020027161,8|0,0:0|0:0,0:0:0:0:
384,329,160007,2,0,P|379:294|386:241,1,52.5000020027161,0|0,3:0|0:0,0:0:0:0:
488,44,160180,5,4,1:2:0:0:
488,44,160524,2,0,P|496:77|512:108,1,52.5000020027161,8|0,0:0|0:0,0:0:0:0:
360,190,160697,2,0,P|363:164|372:140,1,52.5000020027161,2|0,3:2|0:0,0:0:0:0:
218,156,160869,2,0,P|193:179|174:209,1,52.5000020027161,2|0,3:2|0:0,0:0:0:0:
33,127,161042,2,0,P|58:117|84:113,1,52.5000020027161,0|0,1:0|0:0,0:0:0:0:
145,0,161214,2,0,P|156:64|161:126,1,105.000004005432,8|0,0:0|3:0,0:0:0:0:
337,267,161559,6,0,B|424:289|360:324|505:367,1,157.500006008148,4|0,1:1|0:0,0:0:0:0:
504,287,161904,2,0,P|496:212|482:149,1,105.000004005432,8|2,0:0|0:0,0:0:0:0:
233,335,162248,2,0,P|247:376|254:424,1,52.5000020027161,2|0,3:2|0:0,0:0:0:0:
325,346,162421,1,0,1:0:0:0:
92,209,162593,2,0,P|78:250|71:298,1,52.5000020027161,8|0,0:0|0:0,0:0:0:0:
0,220,162766,1,0,3:0:0:0:
360,190,162938,6,0,B|382:138|382:138|361:73,1,105.000004005432,4|0,1:2|0:0,0:0:0:0:
316,38,163283,1,8,0:2:0:0:
316,38,163369,1,0,3:0:0:0:
316,38,163455,1,0,3:0:0:0:
40,153,163628,2,0,B|18:101|18:101|39:36,1,105.000004005432,4|0,0:2|1:0,0:0:0:0:
84,1,163973,1,8,0:2:0:0:
84,1,164059,1,0,3:0:0:0:
84,1,164145,1,0,3:0:0:0:
102,333,164317,6,0,L|115:418,1,52.5000020027161,4|0,1:1|0:0,0:0:0:0:
256,289,164490,2,0,L|278:350,1,52.5000020027161,2|0,3:2|0:0,0:0:0:0:
185,339,164662,1,8,0:0:0:0:
383,212,164835,2,0,L|445:272,1,52.5000020027161,2|0,3:2|0:0,0:0:0:0:
439,93,165007,2,0,L|501:100,1,52.5000020027161,6|0,3:2|0:0,0:0:0:0:
339,282,165180,1,0,1:0:0:0:
449,169,165352,1,8,0:0:0:0:
476,19,165524,1,0,3:0:0:0:
476,19,165611,1,0,3:0:0:0:
476,19,165697,6,0,L|371:-5,1,105.000004005432,6|0,1:0|0:0,0:0:0:0:
502,233,166042,1,8,0:0:0:0:
319,265,166214,1,2,3:2:0:0:
307,226,166300,1,0,3:2:0:0:
312,184,166387,1,2,3:2:0:0:
334,149,166473,1,0,3:2:0:0:
373,134,166559,1,0,1:2:0:0:
149,38,166731,1,10,3:2:0:0:
161,77,166817,1,0,3:2:0:0:
156,119,166904,1,2,3:0:0:0:
134,154,166990,1,0,3:2:0:0:
95,169,167076,6,0,L|-26:150,1,105.000004005432,2|0,1:1|0:0,0:0:0:0:
74,314,167421,1,8,0:0:0:0:
152,269,167593,1,2,3:2:0:0:
184,295,167680,1,0,3:0:0:0:
201,333,167766,1,2,3:0:0:0:
341,384,167938,1,0,1:0:0:0:
350,343,168024,1,0,3:0:0:0:
379,312,168111,1,8,0:0:0:0:
290,244,168283,2,0,L|277:160,1,52.5000020027161,2|0,3:2|0:0,0:0:0:0:
48,245,168455,6,0,P|34:296|-24:345,1,105.000004005432,2|0,1:0|0:0,0:0:0:0:
195,196,168800,1,8,0:0:0:0:
369,230,168973,2,0,P|393:172|438:136,1,105.000004005432,2|0,3:1|0:0,0:0:0:0:
366,77,169317,1,0,1:0:0:0:
512,295,169490,1,10,0:1:0:0:
457,234,169662,1,0,3:0:0:0:
457,234,169748,1,0,3:0:0:0:
457,234,169835,5,4,1:2:0:0:
379,312,170007,2,0,P|323:320|254:345,1,97.9999970092774,2|8,3:1|0:0,0:0:0:0:
480,71,170352,2,0,P|389:58|273:8,1,181.999991668702,2|0,3:2|1:0,0:0:0:0:
352,159,170869,1,8,0:0:0:0:
352,159,170955,1,0,3:0:0:0:
352,159,171042,1,0,3:0:0:0:
99,147,171214,6,2,B|91:95|91:95|49:58|49:58|37:-14,1,167.999994873047,4|8,3:2|0:0,0:1:0:0:
164,60,171731,1,2,3:2:0:0:
206,126,171904,2,0,L|181:198,1,41.9999987182618,2|2,3:2|3:2,0:0:0:0:
202,243,172076,1,0,1:0:0:0:
412,362,172248,2,0,L|396:282,1,77.0000023498536,8|0,0:0|3:0,0:0:0:0:
117,265,172593,6,2,B|94:366|94:366|62:384,1,140,4|8,1:2|0:0,0:1:0:0:
249,320,173111,1,2,3:2:0:0:
249,320,173197,1,0,3:0:0:0:
249,320,173283,1,2,0:0:0:0:
195,384,173455,1,0,1:0:0:0:
202,243,173628,1,8,0:0:0:0:
330,322,173800,1,0,3:0:0:0:
330,322,173886,1,0,3:0:0:0:
330,322,173973,1,4,1:0:0:0:
256,192,174059,12,0,175352,0:0:0:0:
128,173,175524,6,2,B|115:153|115:153|68:116|68:116|156:144,1,157.500006008148,0|0,3:2|1:2,1:2:0:0:
203,178,175869,1,2,0:3:0:0:
219,161,175955,1,0,0:0:0:0:
269,165,176042,1,2,0:0:0:0:
286,154,176128,1,0,0:0:0:0:
294,118,176214,1,2,0:3:0:0:
324,114,176300,1,0,0:0:0:0:
364,93,176386,1,2,0:0:0:0:
389,116,176473,1,0,0:0:0:0:
421,117,176559,1,2,0:3:0:0:
454,86,176645,1,0,0:0:0:0:
512,100,176731,5,4,1:0:0:0:
57,345,179145,5,8,3:2:0:0:
91,341,179231,1,0,3:0:0:0:
125,338,179317,1,2,3:2:0:0:
160,335,179404,1,0,3:0:0:0:
194,333,179490,6,0,B|173:282|173:282|194:216,1,105.000004005432,6|0,1:0|0:0,0:0:0:0:
163,162,179748,1,0,3:0:0:0:
139,153,179835,1,8,0:0:0:0:
370,12,180007,2,0,B|336:55|336:55|268:70,1,105.000004005432,2|0,1:0|0:0,0:0:0:0:
238,124,180265,1,0,3:0:0:0:
242,149,180352,1,0,1:0:0:0:
0,16,180524,2,0,B|54:23|54:23|101:74,1,105.000004005432,10|0,1:0|0:0,0:0:0:0:
163,74,180782,1,0,3:0:0:0:
183,58,180869,5,0,1:0:0:0:
47,245,181042,2,0,L|99:233,1,52.5000020027161,2|0,1:0|0:0,0:0:0:0:
309,268,181214,2,0,L|276:228,1,52.5000020027161,10|0,3:2|0:0,0:0:0:0:
202,35,181386,5,2,3:1:0:0:
213,58,181473,1,0,3:0:0:0:
179,82,181559,1,2,3:1:0:0:
211,128,181645,1,0,3:0:0:0:
195,200,181731,1,4,1:2:0:0:
402,373,181904,1,2,3:1:0:0:
382,301,181990,1,0,3:0:0:0:
414,254,182076,1,4,3:0:0:0:
380,230,182162,1,0,3:0:0:0:
391,207,182248,6,0,L|509:189,1,105.000004005432,6|0,1:0|0:0,0:0:0:0:
509,121,182507,1,0,3:0:0:0:
496,97,182593,1,8,0:0:0:0:
292,239,182766,2,0,L|248:350,1,105.000004005432,2|0,1:0|0:0,0:0:0:0:
307,384,183025,1,0,3:0:0:0:
334,384,183111,1,0,1:0:0:0:
304,135,183283,2,0,L|229:41,1,105.000004005432,10|0,1:0|0:0,0:0:0:0:
170,75,183542,1,0,3:0:0:0:
157,98,183628,5,0,1:0:0:0:
349,57,183800,1,2,3:1:0:0:
494,191,183973,1,8,0:0:0:0:
292,239,184145,1,2,3:2:0:0:
292,239,184231,1,0,3:0:0:0:
292,239,184317,1,2,3:2:0:0:
253,336,184490,1,0,1:0:0:0:
26,280,184662,2,0,P|40:346|44:409,1,105.000004005432,8|0,0:0|3:0,0:0:0:0:
399,247,185007,6,0,P|387:195|381:143,1,105.000004005432,6|0,1:0|3:0,0:0:0:0:
345,384,185352,2,0,P|336:348|333:312,1,52.5000020027161,8|0,0:0|0:0,0:0:0:0:
161,257,185524,1,2,1:0:0:0:
150,299,185611,1,0,3:0:0:0:
119,328,185697,1,0,3:0:0:0:
22,201,185869,2,0,L|3:117,1,52.5000020027161,0|0,1:0|0:0,0:0:0:0:
264,120,186042,2,0,L|255:173,1,52.5000020027161,10|0,1:0|0:0,0:0:0:0:
445,370,186214,6,2,L|517:152,1,210.000008010865,4|2,1:2|0:1,1:0:0:0:
463,103,186731,2,0,B|448:130|448:130|399:116,1,52.5000020027161,8|0,0:0|0:0,0:0:0:0:
103,206,186904,2,2,L|62:-23,1,210.000008010865,4|2,1:2|1:1,1:0:0:0:
440,14,187421,5,10,3:2:0:0:
385,33,187507,1,0,3:0:0:0:
351,79,187593,1,2,3:2:0:0:
342,136,187680,1,0,3:0:0:0:
357,191,187766,6,0,B|303:206|329:227|236:256,1,105.000004005432,6|0,1:0|0:0,0:0:0:0:
220,297,188024,1,0,3:0:0:0:
216,323,188111,1,8,0:0:0:0:
223,25,188283,2,0,B|195:73|228:70|183:156,1,105.000004005432,2|0,1:0|0:0,0:0:0:0:
184,204,188542,1,0,3:0:0:0:
200,225,188628,1,0,1:0:0:0:
0,2,188800,2,0,B|14:56|35:30|65:123,1,105.000004005432,10|0,1:0|0:0,0:0:0:0:
100,147,189059,1,0,3:0:0:0:
127,151,189145,1,0,1:0:0:0:
136,19,189317,6,0,L|126:91,1,52.5000020027161,2|0,3:1|0:0,0:0:0:0:
296,132,189490,2,0,L|258:167,1,52.5000020027161,10|0,0:0|0:0,0:0:0:0:
291,362,189662,2,2,L|526:387,1,210.000008010865,2|0,3:2|1:0,1:0:0:0:
154,222,190180,1,10,3:2:0:0:
97,233,190266,1,0,3:0:0:0:
51,268,190352,1,2,3:0:0:0:
36,323,190438,1,0,3:0:0:0:
46,379,190524,6,0,P|106:349|132:297,1,105.000004005432,2|0,1:0|0:0,0:0:0:0:
192,289,190783,1,0,3:0:0:0:
217,296,190869,1,8,0:0:0:0:
162,128,191042,2,0,P|225:149|280:130,1,105.000004005432,2|2,1:0|0:0,0:0:0:0:
328,167,191301,1,0,3:0:0:0:
341,190,191387,1,0,1:0:0:0:
423,1,191559,2,0,P|453:61|505:87,1,105.000004005432,10|0,1:0|3:0,0:0:0:0:
512,145,191818,1,0,3:0:0:0:
505,171,191904,1,0,1:0:0:0:
328,357,192076,6,0,P|320:323|278:281,1,52.5000020027161,2|0,3:1|0:0,0:0:0:0:
488,279,192248,2,0,P|458:234|455:210,1,52.5000020027161,8|0,1:2|0:0,0:0:0:0:
369,68,192421,1,2,3:1:0:0:
351,94,192507,1,0,3:0:0:0:
304,100,192593,1,2,3:1:0:0:
250,134,192680,1,0,3:0:0:0:
172,118,192766,1,4,1:2:0:0:
6,334,192938,1,10,3:1:0:0:
84,318,193024,1,0,3:0:0:0:
138,352,193111,1,4,3:3:0:0:
185,358,193197,1,0,3:0:0:0:
203,384,193283,6,0,B|244:359|269:388|330:345,1,105.000004005432,2|0,1:0|0:0,0:0:0:0:
330,290,193542,1,0,3:0:0:0:
341,266,193628,1,8,0:0:0:0:
103,192,193800,2,0,B|149:203|146:242|220:255,1,105.000004005432,2|0,1:0|0:0,0:0:0:0:
259,215,194059,1,0,3:0:0:0:
284,206,194145,1,0,1:0:0:0:
111,0,194317,2,0,B|135:41|106:66|149:127,1,105.000004005432,10|0,1:0|3:0,0:0:0:0:
205,126,194576,1,0,3:0:0:0:
229,137,194662,1,0,1:0:0:0:
104,281,194835,6,0,L|80:344,1,52.5000020027161,2|0,3:1|0:0,0:0:0:0:
396,334,195007,2,0,L|413:399,1,52.5000020027161,8|0,1:2|0:0,0:0:0:0:
488,245,195180,1,2,3:2:0:0:
488,245,195266,1,0,3:0:0:0:
488,245,195352,1,0,3:0:0:0:
305,337,195524,2,0,L|317:285,1,52.5000020027161,0|0,1:0|0:0,0:0:0:0:
465,117,195697,2,0,P|424:179|380:204,1,105.000004005432,8|0,0:0|0:0,0:0:0:0:
22,372,196042,6,0,L|-5:247,1,105.000004005432,2|0,1:0|0:0,0:0:0:0:
42,125,196386,2,0,L|55:184,1,52.5000020027161,8|0,0:0|0:0,0:0:0:0:
238,281,196559,1,2,3:1:0:0:
253,236,196645,1,0,3:0:0:0:
291,208,196731,2,0,L|319:91,1,105.000004005432,0|0,3:0|1:0,0:0:0:0:
425,327,197076,2,0,L|415:259,1,52.5000020027161,10|0,0:1|0:0,0:0:0:0:
399,195,197248,1,0,3:0:0:0:
143,155,197421,6,0,P|228:97|263:0,1,210,4|0,1:2|0:0,0:0:0:0:
158,32,197766,2,0,L|234:65,1,70,8|0,1:0|0:0,0:0:0:0:
450,137,197938,2,0,P|446:229|548:339,1,210,4|0,1:2|0:0,0:0:0:0:
512,321,198283,2,0,L|416:285,1,70,8|0,1:0|0:0,0:0:0:0:
364,384,198455,1,8,3:2:0:0:
341,323,198542,1,0,3:0:0:0:
296,280,198628,1,2,3:0:0:0:
236,261,198714,1,0,3:0:0:0:
175,267,198800,6,0,B|138:331|138:331|-5:360,1,210.000008010865,6|8,1:0|0:0,0:0:0:0:
27,89,199317,1,2,3:1:0:0:
63,110,199404,1,0,0:0:0:0:
87,144,199490,1,2,3:2:0:0:
100,183,199576,1,0,0:0:0:0:
101,224,199662,1,0,1:0:0:0:
275,383,199835,2,0,L|302:245,1,105.000004005432,10|0,1:0|0:0,0:0:0:0:
26,269,200180,5,0,1:0:0:0:
164,82,200352,2,0,L|183:197,1,105.000004005432,2|8,1:0|0:0,0:0:0:0:
436,265,200697,2,0,P|496:212|482:71,1,210.000008010865,2|0,1:2|1:0,0:0:0:0:
178,284,201214,2,0,L|230:240,1,52.5000020027161,8|0,0:0|0:0,0:0:0:0:
253,88,201386,2,0,L|264:155,1,52.5000020027161,0|0,3:0|0:0,0:0:0:0:
436,265,201559,6,0,L|307:208,1,105.000004005432,2|0,1:0|0:0,0:0:0:0:
146,163,201904,1,8,0:0:0:0:
60,175,202076,1,2,3:1:0:0:
60,175,202162,1,0,3:0:0:0:
60,175,202248,1,2,1:2:0:0:
337,147,202421,1,2,1:3:0:0:
430,143,202593,1,10,3:1:0:0:
430,143,202679,1,0,3:0:0:0:
430,143,202766,1,2,3:0:0:0:
327,66,202938,1,4,1:2:0:0:
53,184,203111,6,0,B|120:166,1,52.5000020027161,2|0,3:1|0:0,0:0:0:0:
164,0,203283,2,0,L|199:78,1,52.5000020027161,8|0,1:2|0:0,0:0:0:0:
257,314,203455,1,2,3:1:0:0:
239,302,203542,1,0,3:0:0:0:
245,266,203628,1,2,3:1:0:0:
206,230,203714,1,0,3:0:0:0:
217,162,203800,1,4,1:2:0:0:
500,91,203973,1,2,3:1:0:0:
511,159,204059,1,0,3:0:0:0:
472,195,204145,1,4,3:3:0:0:
478,231,204231,1,0,3:0:0:0:
460,243,204317,6,0,B|337:243|347:315|259:320,1,210.000008010865,6|8,1:0|0:0,0:0:0:0:
56,267,204835,1,2,3:1:0:0:
56,267,204921,1,0,3:0:0:0:
56,267,205007,1,0,3:0:0:0:
192,142,205180,2,0,L|212:218,1,52.5000020027161,0|0,1:0|0:0,0:0:0:0:
66,0,205352,2,0,P|39:49|-30:86,1,105.000004005432,10|0,1:0|0:0,0:0:0:0:
108,160,205697,6,0,L|88:84,1,52.5000020027161,2|0,1:2|0:0,0:0:0:0:
269,72,205869,2,0,P|280:134|323:179,1,105.000004005432,2|8,1:0|0:0,0:0:0:0:
235,342,206214,2,0,P|171:279|13:286,1,210.000008010865,0|0,1:0|1:0,0:0:0:0:
332,241,206731,2,0,L|312:317,1,52.5000020027161,8|0,1:2|0:0,0:0:0:0:
411,258,206904,2,0,L|431:182,1,52.5000020027161,0|0,1:0|0:0,0:0:0:0:
142,384,207076,6,0,B|151:366|151:366|134:267,1,105.000004005432,2|0,1:0|0:0,0:0:0:0:
189,156,207421,2,0,L|201:235,1,52.5000020027161,8|0,0:0|0:0,0:0:0:0:
394,340,207593,1,2,3:1:0:0:
394,340,207680,1,0,3:0:0:0:
394,340,207766,1,0,3:0:0:0:
512,189,207938,2,0,L|496:254,1,52.5000020027161,0|0,1:0|0:0,0:0:0:0:
268,171,208111,1,10,0:1:0:0:
55,266,208283,6,2,B|9:50,1,210.000008010865,4|2,1:2|3:1,1:0:0:0:
86,41,208800,2,0,B|93:69|93:69|136:61,1,52.5000020027161,8|0,0:0|0:0,0:0:0:0:
346,206,208973,2,2,B|392:-10,1,210.000008010865,4|2,1:2|1:1,1:0:0:0:
512,384,209490,1,10,3:2:0:0:
501,327,209576,1,0,3:0:0:0:
459,288,209662,1,2,3:0:0:0:
401,278,209748,1,0,3:0:0:0:
350,307,209835,6,0,L|222:278,1,105.000004005432,6|0,1:0|0:0,0:0:0:0:
123,368,210180,2,0,L|180:346,1,52.5000020027161,8|0,0:0|0:0,0:0:0:0:
256,81,210352,2,0,L|144:151,1,105.000004005432,2|0,1:0|0:0,0:0:0:0:
138,284,210697,2,0,L|162:228,1,52.5000020027161,0|0,1:0|0:0,0:0:0:0:
23,0,210869,2,0,L|-6:128,1,105.000004005432,10|0,1:0|0:0,0:0:0:0:
83,226,211214,2,0,L|61:169,1,52.5000020027161,0|0,1:0|0:0,0:0:0:0:
281,206,211386,6,0,L|211:190,1,52.5000020027161,2|0,3:1|0:0,0:0:0:0:
418,120,211559,2,0,L|368:175,1,52.5000020027161,8|0,1:2|0:0,0:0:0:0:
346,349,211731,1,2,3:2:0:0:
363,299,211817,1,0,3:0:0:0:
398,259,211904,1,2,3:2:0:0:
446,240,211990,1,0,3:0:0:0:
498,243,212076,1,0,1:0:0:0:
358,4,212248,1,10,3:2:0:0:
341,54,212334,1,0,3:0:0:0:
306,94,212421,1,2,3:0:0:0:
258,113,212507,1,0,3:0:0:0:
206,110,212593,5,6,1:0:0:0:
136,59,212766,1,0,3:0:0:0:
136,59,212852,1,0,3:0:0:0:
136,59,212938,1,8,0:0:0:0:
252,279,213111,1,2,1:0:0:0:
242,365,213284,1,0,3:0:0:0:
242,365,213369,1,0,3:0:0:0:
242,365,213456,1,0,1:0:0:0:
364,155,213628,1,10,1:0:0:0:
443,120,213801,1,2,3:0:0:0:
443,120,213886,1,0,3:0:0:0:
443,120,213973,1,0,1:0:0:0:
160,320,214145,6,0,B|147:271|147:271|102:244|102:244|78:176,1,157.500006008148,10|0,1:3|0:0,0:0:0:0:
19,145,214490,1,2,3:1:0:0:
35,131,214576,1,0,3:0:0:0:
33,94,214662,1,2,3:1:0:0:
78,67,214748,1,0,3:0:0:0:
53,1,214835,1,4,1:2:0:0:
300,121,215007,1,2,3:1:0:0:
275,187,215094,1,0,3:0:0:0:
320,214,215180,1,4,3:3:0:0:
318,251,215266,1,0,3:0:0:0:
334,265,215352,6,0,P|390:271|453:300,1,105.000004005432,6|0,1:0|3:0,0:0:0:0:
494,215,215697,2,0,P|505:249|509:304,1,52.5000020027161,8|0,0:0|0:0,0:0:0:0:
202,262,215869,2,0,P|237:305|261:370,1,105.000004005432,2|0,1:0|3:0,0:0:0:0:
350,339,216214,2,0,P|333:370|297:412,1,52.5000020027161,0|0,1:0|0:0,0:0:0:0:
101,157,216386,2,0,P|95:212|66:276,1,105.000004005432,10|0,1:0|3:0,0:0:0:0:
100,328,216731,2,0,P|125:323|151:316,1,52.5000020027161,0|0,1:0|0:0,0:0:0:0:
428,384,216904,6,0,P|438:325|427:274,1,105.000004005432,2|8,3:1|0:0,0:0:0:0:
398,194,217248,1,2,3:2:0:0:
398,194,217335,1,0,3:0:0:0:
398,194,217421,1,0,3:0:0:0:
284,139,217593,1,0,1:0:0:0:
512,185,217766,6,0,L|492:256,1,52.5000020027161,8|0,0:0|0:0,0:0:0:0:
368,48,217938,2,0,L|348:119,1,52.5000020027161,2|0,3:2|0:0,0:0:0:0:
101,157,218111,6,0,P|48:119|-15:98,1,105.000004005432,6|0,1:0|0:0,0:0:0:0:
230,30,218455,1,8,0:0:0:0:
304,223,218628,2,0,P|274:284|259:332,1,105.000004005432,2|0,3:1|0:0,0:0:0:0:
364,384,218973,1,0,1:0:0:0:
475,112,219145,2,0,P|457:46|439:-9,1,105.000004005432,8|0,0:0|3:0,0:0:0:0:
512,384,219490,5,4,1:2:0:0:
511,379,219576,1,0,3:0:0:0:
508,370,219662,1,2,3:0:0:0:
498,359,219748,1,0,3:0:0:0:
480,352,219835,1,8,3:2:0:0:
456,338,219921,1,0,3:0:0:0:
435,313,220007,1,2,3:2:0:0:
425,277,220093,1,0,3:0:0:0:
424,235,220180,1,2,3:2:0:0:
410,191,220266,1,0,3:0:0:0:
369,162,220352,1,2,1:3:0:0:
315,151,220438,1,0,3:0:0:0:
259,170,220524,1,12,3:2:0:0:
230,227,220611,1,0,3:0:0:0:
189,281,220697,1,10,3:0:0:0:
119,302,220783,1,0,3:0:0:0:
37,266,220869,6,2,P|40:188|-6:22,1,210.000008010865,4|8,1:0|0:0,0:2:0:0:
131,210,221386,1,2,3:2:0:0:
131,210,221473,1,0,0:0:0:0:
131,210,221559,1,2,3:2:0:0:
313,252,221731,1,0,1:0:0:0:
196,283,221904,2,0,P|218:220|218:163,1,105.000004005432,8|0,0:0|0:0,0:0:0:0:
313,252,222248,5,0,1:0:0:0:
406,278,222421,1,0,3:0:0:0:
512,156,222593,1,8,0:0:0:0:
415,180,222766,1,2,3:2:0:0:
445,199,222852,1,0,3:0:0:0:
470,225,222938,1,2,3:2:0:0:
487,257,223024,1,0,3:0:0:0:
496,293,223111,1,0,1:0:0:0:
303,171,223283,2,0,P|281:108|281:51,1,105.000004005432,8|0,0:0|0:0,0:0:0:0:
506,9,223628,6,2,B|488:80|488:80|436:102|436:102|413:186,1,210.000008010865,0|8,1:0|0:0,0:2:0:0:
406,278,224145,1,2,3:2:0:0:
406,278,224231,1,0,3:0:0:0:
406,278,224317,1,2,3:2:0:0:
222,384,224490,1,0,1:0:0:0:
324,245,224662,2,0,L|296:364,1,105.000004005432,8|0,0:0|0:0,0:0:0:0:
111,362,225007,5,0,1:0:0:0:
164,295,225180,2,2,L|184:212,1,52.5000020027161,0|0,3:1|0:0,0:1:0:0:
124,188,225352,2,2,L|144:105,1,52.5000020027161,8|0,0:0|0:0,0:1:0:0:
45,17,225524,2,2,B|55:108|185:71|212:120,1,210.000008010865,4|0,3:2|1:0,0:1:0:0:
397,193,226042,2,2,B|348:163|365:75|301:72,1,157.500006008148,12|0,3:2|0:0,0:1:0:0:
124,188,226386,6,0,L|351:146,1,210.000008010865,4|8,1:0|0:0,0:0:0:0:
234,38,226904,1,2,3:2:0:0:
234,38,226990,1,0,3:0:0:0:
234,38,227076,1,2,3:2:0:0:
144,57,227248,2,0,L|125:119,1,52.5000020027161,0|0,1:0|0:0,0:0:0:0:
402,101,227421,2,0,B|424:148|424:148|386:216,1,105.000004005432,8|0,0:0|3:0,0:0:0:0:
235,314,227766,5,0,1:0:0:0:
168,260,227938,2,0,P|148:313|110:359,1,105.000004005432,0|8,3:0|0:0,0:0:0:0:
289,209,228283,2,0,P|307:289|404:391,1,210.000008010865,2|0,3:2|1:0,0:0:0:0:
394,284,228800,1,8,0:0:0:0:
78,268,228973,1,0,3:0:0:0:
78,268,229059,1,0,3:0:0:0:
78,268,229145,6,0,P|56:205|51:140,1,105.000004005432,4|0,1:0|0:0,0:0:0:0:
235,314,229490,1,8,0:0:0:0:
460,231,229662,2,0,P|470:170|469:118,1,105.000004005432,2|2,3:2|3:2,0:0:0:0:
316,349,230007,1,0,1:0:0:0:
117,124,230180,2,0,P|132:61|161:6,1,105.000004005432,8|0,0:0|0:0,0:0:0:0:
395,282,230524,5,0,1:0:0:0:
247,205,230697,2,0,P|181:235|141:269,1,105.000004005432,0|8,3:0|0:0,0:0:0:0:
19,0,231042,2,0,P|107:55|208:86,1,210.000008010865,0|8,3:0|0:0,0:0:0:0:
360,264,231559,1,8,3:2:0:0:
350,287,231645,1,0,3:0:0:0:
347,313,231731,1,2,3:0:0:0:
343,339,231817,1,0,3:0:0:0:
344,363,231904,5,4,1:0:0:0:
512,238,232248,1,8,0:0:0:0:
452,156,232421,2,0,P|398:176|348:185,1,97.9999970092774,0|0,3:2|3:0,0:0:0:0:
289,229,232766,1,0,1:0:0:0:
172,152,232938,2,0,P|111:204|-13:233,1,195.999994018555,8|0,0:0|1:0,0:0:0:0:
7,61,233455,2,0,P|45:99|104:117,1,97.9999970092774,0|8,3:0|0:0,0:0:0:0:
179,271,233800,2,0,P|239:229|284:91,1,195.999994018555,2|0,3:2|1:0,0:0:0:0:
360,0,234317,2,0,P|394:54|410:106,1,97.9999970092774,8|0,0:0|3:0,0:0:0:0:
424,228,234662,6,0,B|437:292|437:292|474:312|474:312|498:421,1,181.999991668702,0|8,1:2|0:0,0:0:0:0:
326,273,235180,2,0,L|306:380,1,90.9999958343508,2|0,3:2|3:2,0:0:0:0:
120,340,235524,1,0,1:0:0:0:
194,197,235697,2,0,L|212:299,1,90.9999958343508,8|0,0:0|3:0,0:0:0:0:
393,354,236042,5,0,1:0:0:0:
509,305,236214,2,2,L|493:228,1,45.4999979171754,0|0,3:0|0:0,0:1:0:0:
486,185,236386,2,2,L|468:109,1,45.4999979171754,8|0,0:0|0:0,0:1:0:0:
421,83,236559,2,2,B|312:108|398:153|258:182,1,181.999991668702,4|0,3:2|1:0,0:1:0:0:
175,5,237076,2,10,P|236:40|272:110,1,136.499993751526,12|0,0:0|0:0,0:1:0:0:
193,200,237421,6,0,P|142:188|34:84,1,167.999994873047,4|8,1:0|0:0,0:0:0:0:
170,99,237938,1,2,3:2:0:0:
170,99,238024,1,0,0:0:0:0:
170,99,238111,1,0,3:0:0:0:
274,178,238283,1,0,1:0:0:0:
261,347,238455,1,8,0:0:0:0:
353,294,238628,6,0,P|407:321|542:325,1,167.999994873047,2|0,1:2|3:0,0:0:0:0:
452,219,239145,2,0,P|432:232|401:239,1,41.9999987182618,8|0,0:0|0:0,0:0:0:0:
190,276,239317,2,0,P|147:250|24:238,1,167.999994873047,2|0,1:2|1:0,0:0:0:0:
149,371,239835,1,8,0:0:0:0:
283,251,240007,1,0,3:0:0:0:
283,251,240093,1,0,0:0:0:0:
283,251,240180,6,0,L|303:153,1,77.0000023498536,0|0,1:0|0:0,0:0:0:0:
311,101,240524,1,8,0:0:0:0:
169,173,240697,2,0,L|153:88,1,77.0000023498536,2|0,3:2|3:0,0:0:0:0:
217,50,241042,1,0,1:0:0:0:
422,225,241214,2,0,L|445:119,1,77.0000023498536,8|0,0:0|3:0,0:0:0:0:
188,384,241559,5,4,1:2:0:0:
138,361,241645,1,0,3:0:0:0:
104,319,241731,1,2,3:0:0:0:
95,265,241817,1,0,3:0:0:0:
112,213,241904,1,8,3:2:0:0:
154,179,241990,1,0,3:0:0:0:
207,172,242076,1,2,3:2:0:0:
256,192,242162,1,0,3:0:0:0:
293,230,242248,1,2,3:2:0:0:
319,277,242335,1,0,3:0:0:0:
360,310,242421,1,2,1:3:0:0:
413,317,242507,1,0,3:0:0:0:
465,304,242593,1,12,3:2:0:0:
502,264,242680,1,0,3:0:0:0:
512,211,242766,1,2,3:0:0:0:
503,157,242852,1,0,3:0:0:0:
466,117,242938,5,4,1:0:0:0:
