osu file format v14

[General]
AudioFilename: audio.mp3
AudioLeadIn: 0
PreviewTime: 20873
Countdown: 0
SampleSet: Normal
StackLeniency: 0.7
Mode: 1
LetterboxInBreaks: 0
WidescreenStoryboard: 0

[Editor]
DistanceSpacing: 0.8
BeatDivisor: 4
GridSize: 32
TimelineZoom: 2.6

[Metadata]
Title:Moonlight Sonata (Cranky Remix)
TitleUnicode:Moonlight Sonata (Cranky Remix)
Artist:L. V. Beethoven
ArtistUnicode:L. V. Beethoven
Creator:Nwolf
Version:Inner Oni
Source:
Tags:osu klavier mappers mapper's guild featured artist fa classic romantic mondlicht sonate ludvig van osu piano sonata no. nr. 14 op. 27 klaviersonate quasi una Fantasia 3. satz 3rd movement feline groove
BeatmapID:2048283
BeatmapSetID:978759

[Difficulty]
HPDrainRate:6
CircleSize:4
OverallDifficulty:5.5
ApproachRate:9
SliderMultiplier:1.4
SliderTickRate:1

[Events]
//Background and Video events
0,0,"it's a computer.jpeg",0,70
//Break Periods
2,16588,20273
//Storyboard Layer 0 (Background)
//Storyboard Layer 1 (Fail)
//Storyboard Layer 2 (Pass)
//Storyboard Layer 3 (Foreground)
//Storyboard Layer 4 (Overlay)
//Storyboard Sound Samples

[TimingPoints]
66,357.142857142857,4,1,0,50,1,0
66,-133.333333333333,4,1,0,50,0,0
10780,375,4,1,0,50,1,8
10780,-126.984126984127,4,1,0,50,0,0
11155,402.684563758389,4,1,0,50,1,8
11155,-118.259224219489,4,1,0,50,0,0
11557,410.958904109589,4,1,0,50,1,0
11557,-116.279069767442,4,1,0,50,0,0
12172,357.142857142857,4,1,0,50,1,8
12172,-160,4,1,0,50,0,0
12886,352.941176470588,4,1,0,50,1,8
12886,-161.917098445596,4,1,0,50,0,8
13062,352.941176470588,4,1,0,50,1,0
13062,-161.917098445596,4,1,0,50,0,8
14297,342.857142857143,4,1,0,50,1,8
14297,-166.666666666667,4,1,0,50,0,8
14468,342.857142857143,4,1,0,50,1,0
14468,-166.666666666667,4,1,0,50,0,0
14982,348.837209302326,4,1,0,50,1,8
14982,-163.826998689384,4,1,0,50,0,8
15330,357.142857142857,4,1,0,50,1,8
15330,-160,4,1,0,50,0,8
15687,350.877192982456,4,1,0,50,1,8
15687,-162.866449511401,4,1,0,50,0,8
15862,350.877192982456,4,1,0,50,1,0
15862,-162.866449511401,4,1,0,50,0,8
16212,-83.3333333333333,4,1,0,50,0,8
16739,-200,4,1,0,30,0,8
20873,357.142857142857,4,1,0,50,1,8
21408,357.142857142857,4,1,0,75,1,0
30024,357.142857142857,4,1,0,75,1,8
30157,-133.333333333333,4,1,0,50,0,0
35575,357.142857142857,4,1,0,50,1,8
35575,-133.333333333333,4,1,0,50,0,0
35693,357.142857142857,4,1,0,50,1,0
35693,-133.333333333333,4,1,0,50,0,0
40870,-119.047619047619,4,1,0,65,0,0
40959,-116.279069767442,4,1,0,65,0,0
41048,-113.636363636364,4,1,0,65,0,0
41138,-111.111111111111,4,1,0,65,0,0
41227,-108.695652173913,4,1,0,65,0,0
41405,-100,4,1,0,75,0,0
47298,-86.9565217391304,4,1,0,50,0,0
53013,-66.6666666666667,4,1,0,50,0,0
53370,-117.647058823529,4,1,0,50,0,0
57298,-116.279069767442,4,1,0,50,0,0
57388,-114.942528735632,4,1,0,50,0,0
57477,-113.636363636364,4,1,0,50,0,0
57566,-112.359550561798,4,1,0,50,0,0
57655,-111.111111111111,4,1,0,50,0,0
57745,-109.89010989011,4,1,0,50,0,0
57834,-108.695652173913,4,1,0,50,0,0
57923,-106.951871657754,4,1,0,50,0,0
58013,-105.263157894737,4,1,0,50,0,0
58102,-103.626943005181,4,1,0,50,0,0
58191,-102.040816326531,4,1,0,50,0,0
58280,-100.502512562814,4,1,0,50,0,0
58370,-99.009900990099,4,1,0,50,0,0
58459,-97.0873786407767,4,1,0,50,0,0
58548,-95.2380952380952,4,1,0,50,0,0
58905,-86.9565217391304,4,1,0,50,0,0
61405,-100,4,1,0,65,0,0
72834,-100,4,1,0,50,0,0
75692,-100,4,1,0,75,0,1
84264,-100,4,1,0,75,0,0
84441,-133.333333333333,4,1,0,35,0,0
89977,-133.333333333333,4,1,0,50,0,0
92834,-129.87012987013,4,1,0,65,0,0
92923,-128.205128205128,4,1,0,65,0,0
93013,-126.582278481013,4,1,0,65,0,0
93191,-123.456790123457,4,1,0,65,0,0
93370,-120.481927710843,4,1,0,65,0,0
93459,-119.047619047619,4,1,0,65,0,0
93548,-117.647058823529,4,1,0,65,0,0
93638,-116.279069767442,4,1,0,65,0,0
93727,-114.942528735632,4,1,0,65,0,0
93905,-112.359550561798,4,1,0,65,0,0
94084,-109.89010989011,4,1,0,65,0,0
94173,-108.695652173913,4,1,0,65,0,0
94263,-107.52688172043,4,1,0,65,0,0
94352,-106.382978723404,4,1,0,65,0,0
94441,-105.263157894737,4,1,0,65,0,0
94620,-102.564102564103,4,1,0,65,0,0
94798,-100,4,1,0,65,0,0
95870,-97.0873786407767,4,1,0,70,0,0
96227,-94.3396226415094,4,1,0,70,0,0
96584,-91.743119266055,4,1,0,70,0,0
96941,-89.2857142857143,4,1,0,70,0,0
97298,-91.743119266055,4,1,0,70,0,0
97655,-94.3396226415094,4,1,0,70,0,0
98013,-97.0873786407767,4,1,0,70,0,0
98370,-100,4,1,0,70,0,0
98727,-103.092783505155,4,1,0,70,0,0
99084,-106.382978723404,4,1,0,70,0,0
99441,-109.89010989011,4,1,0,70,0,0
99798,-113.636363636364,4,1,0,70,0,0
100710,357.142857142857,4,1,0,70,1,8
100710,-66.6666666666667,4,1,0,70,0,0
101424,357.142857142857,4,1,0,70,1,0
101424,-50,4,1,0,70,0,0

[HitObjects]
224,224,66,5,4,0:0:0:0:
224,160,244,1,0,0:0:0:0:
224,160,333,1,0,0:0:0:0:
288,160,423,1,8,0:0:0:0:
224,160,601,1,0,0:0:0:0:
224,160,690,1,0,0:0:0:0:
224,160,780,1,0,0:0:0:0:
224,160,958,1,0,0:0:0:0:
288,160,1048,1,8,0:0:0:0:
288,160,1137,1,8,0:0:0:0:
224,160,1315,1,0,0:0:0:0:
224,160,1405,1,0,0:0:0:0:
224,160,1494,1,0,0:0:0:0:
288,160,1673,1,8,0:0:0:0:
288,160,1762,1,8,0:0:0:0:
288,160,1851,1,8,0:0:0:0:
224,160,2030,1,0,0:0:0:0:
288,160,2119,1,8,0:0:0:0:
224,160,2208,1,0,0:0:0:0:
224,160,2387,1,0,0:0:0:0:
288,224,2565,1,12,0:0:0:0:
288,224,2744,1,12,0:0:0:0:
224,160,2923,1,0,0:0:0:0:
224,160,3101,1,0,0:0:0:0:
224,160,3190,1,0,0:0:0:0:
288,160,3280,1,8,0:0:0:0:
224,160,3458,1,0,0:0:0:0:
224,160,3548,1,0,0:0:0:0:
288,160,3637,1,8,0:0:0:0:
224,160,3815,1,0,0:0:0:0:
288,160,3905,1,8,0:0:0:0:
288,160,3994,1,8,0:0:0:0:
224,160,4173,1,0,0:0:0:0:
224,160,4262,1,0,0:0:0:0:
288,160,4351,1,8,0:0:0:0:
288,160,4530,1,8,0:0:0:0:
288,160,4619,1,8,0:0:0:0:
288,160,4708,1,8,0:0:0:0:
224,160,4887,1,0,0:0:0:0:
224,160,4976,1,0,0:0:0:0:
288,160,5065,1,8,0:0:0:0:
288,160,5155,1,8,0:0:0:0:
224,160,5244,1,0,0:0:0:0:
288,224,5423,1,12,0:0:0:0:
288,224,5601,1,12,0:0:0:0:
224,160,5780,1,0,0:0:0:0:
224,160,5958,1,0,0:0:0:0:
288,160,6048,1,8,0:0:0:0:
288,160,6137,1,8,0:0:0:0:
224,160,6315,1,0,0:0:0:0:
288,160,6405,1,8,0:0:0:0:
288,160,6494,1,8,0:0:0:0:
224,160,6673,1,0,0:0:0:0:
224,160,6762,1,0,0:0:0:0:
288,160,6851,1,8,0:0:0:0:
224,160,7030,1,0,0:0:0:0:
288,160,7119,1,8,0:0:0:0:
288,160,7208,1,8,0:0:0:0:
288,160,7387,1,8,0:0:0:0:
288,160,7476,1,8,0:0:0:0:
288,160,7565,1,8,0:0:0:0:
224,160,7744,1,0,0:0:0:0:
288,160,7833,1,8,0:0:0:0:
288,160,7923,1,8,0:0:0:0:
224,160,8101,1,0,0:0:0:0:
288,224,8280,1,12,0:0:0:0:
288,224,8458,1,12,0:0:0:0:
224,160,8637,1,0,0:0:0:0:
224,160,8726,1,0,0:0:0:0:
224,160,8815,1,0,0:0:0:0:
224,160,8905,1,0,0:0:0:0:
288,160,8994,1,8,0:0:0:0:
224,160,9173,1,0,0:0:0:0:
224,160,9262,1,0,0:0:0:0:
288,160,9351,1,8,0:0:0:0:
224,160,9530,1,0,0:0:0:0:
288,224,9708,1,12,0:0:0:0:
288,224,9887,1,12,0:0:0:0:
224,160,10065,1,0,0:0:0:0:
224,160,10155,1,0,0:0:0:0:
224,160,10244,1,0,0:0:0:0:
224,160,10333,1,0,0:0:0:0:
288,160,10423,1,8,0:0:0:0:
224,160,10601,1,0,0:0:0:0:
288,160,10690,1,8,0:0:0:0:
288,160,10780,1,8,0:0:0:0:
224,160,10967,1,0,0:0:0:0:
288,224,11155,1,12,0:0:0:0:
288,224,11356,1,12,0:0:0:0:
224,224,11557,1,4,0:0:0:0:
288,160,12173,5,8,0:0:0:0:
288,160,12350,1,8,0:0:0:0:
288,160,12529,1,8,0:0:0:0:
288,160,12707,1,8,0:0:0:0:
224,160,12886,1,0,0:0:0:0:
288,160,13062,1,8,0:0:0:0:
224,160,13238,1,0,0:0:0:0:
288,160,13414,1,8,0:0:0:0:
288,160,13591,1,8,0:0:0:0:
224,160,13767,1,0,0:0:0:0:
224,160,13944,1,0,0:0:0:0:
288,160,14120,1,8,0:0:0:0:
224,160,14297,1,0,0:0:0:0:
224,160,14468,1,0,0:0:0:0:
288,160,14639,1,8,0:0:0:0:
224,160,14810,1,0,0:0:0:0:
288,160,14982,1,8,0:0:0:0:
224,160,15156,1,0,0:0:0:0:
288,160,15330,1,8,0:0:0:0:
224,160,15508,1,0,0:0:0:0:
288,160,15687,1,8,0:0:0:0:
224,224,15862,1,4,0:0:0:0:
288,224,16388,1,12,0:0:0:0:
32,32,20873,6,0,L|192:32,1,140
224,224,21408,5,4,0:0:0:0:
224,160,21586,1,0,0:0:0:0:
224,160,21675,1,0,0:0:0:0:
288,160,21765,1,8,0:0:0:0:
224,160,21854,1,0,0:0:0:0:
224,160,21943,1,0,0:0:0:0:
224,160,22033,1,0,0:0:0:0:
288,160,22122,1,8,0:0:0:0:
224,160,22300,1,0,0:0:0:0:
224,160,22390,1,0,0:0:0:0:
288,160,22479,1,8,0:0:0:0:
288,160,22568,1,8,0:0:0:0:
224,160,22658,1,0,0:0:0:0:
224,160,22747,1,0,0:0:0:0:
288,160,22836,1,8,0:0:0:0:
224,160,23015,1,0,0:0:0:0:
224,160,23104,1,0,0:0:0:0:
288,160,23193,1,8,0:0:0:0:
288,160,23283,1,8,0:0:0:0:
288,160,23372,1,8,0:0:0:0:
224,160,23461,1,0,0:0:0:0:
288,160,23550,1,8,0:0:0:0:
224,160,23729,1,0,0:0:0:0:
224,160,23818,1,0,0:0:0:0:
288,160,23908,1,8,0:0:0:0:
288,160,24086,1,8,0:0:0:0:
224,160,24265,1,0,0:0:0:0:
224,160,24443,1,0,0:0:0:0:
288,160,24533,1,8,0:0:0:0:
288,160,24622,1,8,0:0:0:0:
224,160,24711,1,0,0:0:0:0:
224,160,24800,1,0,0:0:0:0:
288,160,24890,1,8,0:0:0:0:
288,160,24979,1,8,0:0:0:0:
224,160,25158,1,0,0:0:0:0:
288,160,25247,1,8,0:0:0:0:
288,160,25336,1,8,0:0:0:0:
224,160,25425,1,0,0:0:0:0:
288,160,25515,1,8,0:0:0:0:
288,160,25604,1,8,0:0:0:0:
288,160,25693,1,8,0:0:0:0:
224,160,25872,1,0,0:0:0:0:
288,160,25961,1,8,0:0:0:0:
288,160,26050,1,8,0:0:0:0:
288,160,26140,1,8,0:0:0:0:
224,160,26229,1,0,0:0:0:0:
288,160,26318,1,8,0:0:0:0:
288,160,26408,1,8,0:0:0:0:
224,160,26586,1,0,0:0:0:0:
224,160,26675,1,0,0:0:0:0:
288,160,26765,1,8,0:0:0:0:
288,160,26943,1,8,0:0:0:0:
224,160,27122,1,0,0:0:0:0:
224,160,27300,1,0,0:0:0:0:
224,160,27390,1,0,0:0:0:0:
288,160,27479,1,8,0:0:0:0:
224,160,27568,1,0,0:0:0:0:
224,160,27657,1,0,0:0:0:0:
288,160,27747,1,8,0:0:0:0:
224,160,27836,1,0,0:0:0:0:
224,160,28015,1,0,0:0:0:0:
224,160,28104,1,0,0:0:0:0:
288,160,28193,1,8,0:0:0:0:
224,160,28282,1,0,0:0:0:0:
288,160,28372,1,8,0:0:0:0:
288,160,28461,1,8,0:0:0:0:
224,160,28550,1,0,0:0:0:0:
224,160,28729,1,0,0:0:0:0:
224,160,28818,1,0,0:0:0:0:
288,160,28907,1,8,0:0:0:0:
288,160,28997,1,8,0:0:0:0:
224,160,29086,1,0,0:0:0:0:
288,160,29175,1,8,0:0:0:0:
224,160,29265,1,0,0:0:0:0:
288,160,29443,1,8,0:0:0:0:
224,160,29532,1,0,0:0:0:0:
288,160,29622,1,8,0:0:0:0:
288,160,29711,1,8,0:0:0:0:
224,160,29800,1,0,0:0:0:0:
224,160,29890,1,0,0:0:0:0:
288,224,29979,5,12,0:0:0:0:
288,160,30358,1,8,0:0:0:0:
288,160,31095,1,8,0:0:0:0:
50,57,31363,2,0,L|132:58,1,78.7500030040742
224,160,31809,1,0,0:0:0:0:
224,160,32345,1,0,0:0:0:0:
288,160,32524,1,8,0:0:0:0:
32,32,32881,2,0,L|160:32,1,105.000004005432
224,160,33774,1,0,0:0:0:0:
288,160,33952,1,8,0:0:0:0:
32,32,34309,2,0,L|160:32,1,105.000004005432
224,160,35202,1,0,0:0:0:0:
288,160,35381,1,8,0:0:0:0:
224,160,35575,1,0,0:0:0:0:
224,160,35634,1,0,0:0:0:0:
288,160,35693,1,8,0:0:0:0:
288,160,35871,1,8,0:0:0:0:
288,160,36228,1,8,0:0:0:0:
224,160,36585,1,0,0:0:0:0:
288,160,36764,1,8,0:0:0:0:
224,160,36943,1,0,0:0:0:0:
224,160,37121,1,0,0:0:0:0:
288,224,37300,1,12,0:0:0:0:
288,224,37657,1,12,0:0:0:0:
224,160,38014,1,0,0:0:0:0:
288,160,38193,1,8,0:0:0:0:
288,160,38282,1,8,0:0:0:0:
224,160,38371,1,0,0:0:0:0:
288,160,38460,1,8,0:0:0:0:
224,160,38550,1,0,0:0:0:0:
288,160,38728,1,8,0:0:0:0:
288,160,39085,1,8,0:0:0:0:
224,160,39443,1,0,0:0:0:0:
224,160,39532,1,0,0:0:0:0:
288,160,39621,1,8,0:0:0:0:
224,160,39800,1,0,0:0:0:0:
224,160,39978,1,0,0:0:0:0:
288,224,40157,1,12,0:0:0:0:
288,224,40514,1,12,0:0:0:0:
224,160,40871,1,0,0:0:0:0:
224,160,40960,1,0,0:0:0:0:
288,160,41050,1,8,0:0:0:0:
288,160,41139,1,8,0:0:0:0:
224,160,41228,1,0,0:0:0:0:
288,224,41407,5,12,0:0:0:0:
224,160,41585,1,0,0:0:0:0:
288,160,41764,1,8,0:0:0:0:
224,160,41943,1,0,0:0:0:0:
288,224,42121,1,12,0:0:0:0:
224,160,42300,1,0,0:0:0:0:
224,160,42389,1,0,0:0:0:0:
288,160,42478,1,8,0:0:0:0:
224,160,42657,1,0,0:0:0:0:
288,160,42835,1,8,0:0:0:0:
288,160,42925,1,8,0:0:0:0:
288,160,43014,1,8,0:0:0:0:
224,160,43103,1,0,0:0:0:0:
288,160,43193,1,8,0:0:0:0:
224,160,43371,1,0,0:0:0:0:
224,160,43460,1,0,0:0:0:0:
224,160,43550,1,0,0:0:0:0:
224,160,43728,1,0,0:0:0:0:
224,160,43907,1,0,0:0:0:0:
224,160,44085,1,0,0:0:0:0:
288,224,44264,1,12,0:0:0:0:
224,160,44443,1,0,0:0:0:0:
224,160,44532,1,0,0:0:0:0:
288,160,44621,1,8,0:0:0:0:
224,160,44710,1,0,0:0:0:0:
224,160,44800,1,0,0:0:0:0:
288,224,44978,1,12,0:0:0:0:
224,160,45157,1,0,0:0:0:0:
224,160,45246,1,0,0:0:0:0:
288,160,45335,1,8,0:0:0:0:
288,160,45425,1,8,0:0:0:0:
224,160,45514,1,0,0:0:0:0:
288,224,45693,1,12,0:0:0:0:
224,160,45871,1,0,0:0:0:0:
224,160,45960,1,0,0:0:0:0:
288,160,46050,1,8,0:0:0:0:
224,160,46228,1,0,0:0:0:0:
224,160,46318,1,0,0:0:0:0:
224,160,46407,1,0,0:0:0:0:
224,160,46585,1,0,0:0:0:0:
288,160,46675,1,8,0:0:0:0:
224,160,46764,1,0,0:0:0:0:
224,160,46942,1,0,0:0:0:0:
288,224,47121,1,12,0:0:0:0:
224,160,47835,5,0,0:0:0:0:
224,160,47925,1,0,0:0:0:0:
224,160,48014,1,0,0:0:0:0:
224,160,48103,1,0,0:0:0:0:
288,160,48192,1,8,0:0:0:0:
288,160,48282,1,8,0:0:0:0:
288,160,48371,1,8,0:0:0:0:
288,160,48460,1,8,0:0:0:0:
224,160,48550,1,0,0:0:0:0:
224,160,48639,1,0,0:0:0:0:
224,160,48728,1,0,0:0:0:0:
224,160,48817,1,0,0:0:0:0:
288,160,48907,1,8,0:0:0:0:
288,160,48996,1,8,0:0:0:0:
288,160,49085,1,8,0:0:0:0:
288,160,49175,1,8,0:0:0:0:
224,160,49264,1,0,0:0:0:0:
224,160,49353,1,0,0:0:0:0:
224,160,49442,1,0,0:0:0:0:
224,160,49532,1,0,0:0:0:0:
288,160,49621,1,8,0:0:0:0:
288,160,49710,1,8,0:0:0:0:
288,160,49800,1,8,0:0:0:0:
288,160,49889,1,8,0:0:0:0:
224,160,49978,1,0,0:0:0:0:
224,160,50067,1,0,0:0:0:0:
288,160,50157,1,8,0:0:0:0:
288,160,50246,1,8,0:0:0:0:
224,160,50335,1,0,0:0:0:0:
224,160,50425,1,0,0:0:0:0:
288,160,50514,1,8,0:0:0:0:
224,160,50603,1,0,0:0:0:0:
288,160,50692,1,8,0:0:0:0:
224,160,50782,1,0,0:0:0:0:
288,160,50871,1,8,0:0:0:0:
224,160,50960,1,0,0:0:0:0:
288,160,51050,1,8,0:0:0:0:
288,160,51139,1,8,0:0:0:0:
224,160,51228,1,0,0:0:0:0:
224,160,51317,1,0,0:0:0:0:
288,160,51407,1,8,0:0:0:0:
224,160,51496,1,0,0:0:0:0:
288,160,51585,1,8,0:0:0:0:
288,160,51675,1,8,0:0:0:0:
224,160,51764,1,0,0:0:0:0:
288,160,51853,1,8,0:0:0:0:
224,160,51942,1,0,0:0:0:0:
224,160,52032,1,0,0:0:0:0:
288,160,52121,1,8,0:0:0:0:
224,160,52210,1,0,0:0:0:0:
288,160,52300,1,8,0:0:0:0:
224,160,52389,1,0,0:0:0:0:
288,160,52478,1,8,0:0:0:0:
288,160,52567,1,8,0:0:0:0:
288,160,52657,1,8,0:0:0:0:
224,160,52746,1,0,0:0:0:0:
288,160,52835,1,8,0:0:0:0:
224,224,53192,1,4,0:0:0:0:
224,160,53728,1,0,0:0:0:0:
224,160,53817,1,0,0:0:0:0:
224,160,53907,1,0,0:0:0:0:
224,160,53996,1,0,0:0:0:0:
288,160,54085,1,8,0:0:0:0:
288,160,54175,1,8,0:0:0:0:
288,160,54264,1,8,0:0:0:0:
288,160,54353,1,8,0:0:0:0:
224,160,54442,1,0,0:0:0:0:
224,160,54532,1,0,0:0:0:0:
224,160,54621,1,0,0:0:0:0:
224,160,54710,1,0,0:0:0:0:
288,160,54800,1,8,0:0:0:0:
288,160,54889,1,8,0:0:0:0:
288,160,54978,1,8,0:0:0:0:
288,160,55067,1,8,0:0:0:0:
224,160,55157,1,0,0:0:0:0:
224,160,55246,1,0,0:0:0:0:
224,160,55335,1,0,0:0:0:0:
224,160,55425,1,0,0:0:0:0:
288,160,55514,1,8,0:0:0:0:
288,160,55603,1,8,0:0:0:0:
224,160,55692,1,0,0:0:0:0:
224,160,55782,1,0,0:0:0:0:
288,160,55871,1,8,0:0:0:0:
288,160,55960,1,8,0:0:0:0:
224,160,56050,1,0,0:0:0:0:
224,160,56139,1,0,0:0:0:0:
288,160,56228,1,8,0:0:0:0:
288,160,56317,1,8,0:0:0:0:
288,160,56407,1,8,0:0:0:0:
288,160,56496,1,8,0:0:0:0:
224,160,56585,1,0,0:0:0:0:
224,160,56675,1,0,0:0:0:0:
224,160,56764,1,0,0:0:0:0:
224,160,56853,1,0,0:0:0:0:
288,160,56942,1,8,0:0:0:0:
288,160,57032,1,8,0:0:0:0:
288,160,57121,1,8,0:0:0:0:
288,160,57210,1,8,0:0:0:0:
224,160,57300,1,0,0:0:0:0:
224,160,57389,1,0,0:0:0:0:
288,160,57478,1,8,0:0:0:0:
224,160,57567,1,0,0:0:0:0:
288,160,57657,1,8,0:0:0:0:
288,160,57746,1,8,0:0:0:0:
224,160,57835,1,0,0:0:0:0:
224,160,57925,1,0,0:0:0:0:
288,160,58014,1,8,0:0:0:0:
288,160,58103,1,8,0:0:0:0:
288,160,58192,1,8,0:0:0:0:
288,160,58282,1,8,0:0:0:0:
224,160,58371,1,0,0:0:0:0:
224,160,58460,1,0,0:0:0:0:
288,160,58550,1,8,0:0:0:0:
224,160,59264,1,0,0:0:0:0:
288,160,59978,1,8,0:0:0:0:
224,160,60514,1,0,0:0:0:0:
288,160,60603,1,8,0:0:0:0:
224,160,60692,1,0,0:0:0:0:
288,160,60871,1,8,0:0:0:0:
288,160,60960,1,8,0:0:0:0:
288,160,61050,1,8,0:0:0:0:
224,224,61407,5,4,0:0:0:0:
288,160,61585,1,8,0:0:0:0:
288,160,61675,1,8,0:0:0:0:
288,160,61764,1,8,0:0:0:0:
288,160,61942,1,8,0:0:0:0:
288,160,62032,1,8,0:0:0:0:
288,160,62121,1,8,0:0:0:0:
288,160,62300,1,8,0:0:0:0:
288,160,62389,1,8,0:0:0:0:
224,160,62478,1,0,0:0:0:0:
224,160,62657,1,0,0:0:0:0:
224,160,62746,1,0,0:0:0:0:
288,160,62835,1,8,0:0:0:0:
224,160,63014,1,0,0:0:0:0:
224,160,63103,1,0,0:0:0:0:
224,160,63192,1,0,0:0:0:0:
224,160,63371,1,0,0:0:0:0:
224,160,63460,1,0,0:0:0:0:
224,160,63550,1,0,0:0:0:0:
224,160,63728,1,0,0:0:0:0:
224,160,63817,1,0,0:0:0:0:
288,160,63907,1,8,0:0:0:0:
288,160,64085,1,8,0:0:0:0:
288,160,64175,1,8,0:0:0:0:
224,160,64264,1,0,0:0:0:0:
288,160,64442,1,8,0:0:0:0:
224,160,64532,1,0,0:0:0:0:
288,160,64621,1,8,0:0:0:0:
288,160,64800,1,8,0:0:0:0:
224,160,64889,1,0,0:0:0:0:
288,160,64978,1,8,0:0:0:0:
288,160,65157,1,8,0:0:0:0:
288,160,65246,1,8,0:0:0:0:
224,160,65335,1,0,0:0:0:0:
224,160,65514,1,0,0:0:0:0:
224,160,65603,1,0,0:0:0:0:
288,160,65692,1,8,0:0:0:0:
224,160,65871,1,0,0:0:0:0:
288,160,65960,1,8,0:0:0:0:
224,160,66050,1,0,0:0:0:0:
224,160,66228,1,0,0:0:0:0:
288,160,66317,1,8,0:0:0:0:
224,160,66407,1,0,0:0:0:0:
224,160,66585,1,0,0:0:0:0:
224,160,66675,1,0,0:0:0:0:
288,160,66764,1,8,0:0:0:0:
288,160,66942,1,8,0:0:0:0:
288,160,67032,1,8,0:0:0:0:
224,160,67121,1,0,0:0:0:0:
224,160,67300,1,0,0:0:0:0:
224,160,67389,1,0,0:0:0:0:
288,160,67478,1,8,0:0:0:0:
224,160,67567,1,0,0:0:0:0:
288,160,67657,1,8,0:0:0:0:
288,160,67746,1,8,0:0:0:0:
224,160,67835,1,0,0:0:0:0:
288,160,68014,1,8,0:0:0:0:
224,160,68103,1,0,0:0:0:0:
288,160,68192,1,8,0:0:0:0:
224,160,68282,1,0,0:0:0:0:
288,160,68371,1,8,0:0:0:0:
288,160,68460,1,8,0:0:0:0:
224,160,68550,1,0,0:0:0:0:
224,160,68728,1,0,0:0:0:0:
224,160,68817,1,0,0:0:0:0:
288,160,68907,1,8,0:0:0:0:
224,160,68996,1,0,0:0:0:0:
288,160,69085,1,8,0:0:0:0:
288,160,69175,1,8,0:0:0:0:
224,160,69264,1,0,0:0:0:0:
224,160,69442,1,0,0:0:0:0:
224,160,69532,1,0,0:0:0:0:
288,160,69621,1,8,0:0:0:0:
224,160,69710,1,0,0:0:0:0:
288,160,69800,1,8,0:0:0:0:
224,160,69889,1,0,0:0:0:0:
224,160,69978,1,0,0:0:0:0:
288,160,70157,1,8,0:0:0:0:
224,160,70246,1,0,0:0:0:0:
288,160,70335,1,8,0:0:0:0:
224,160,70425,1,0,0:0:0:0:
288,160,70514,1,8,0:0:0:0:
224,160,70603,1,0,0:0:0:0:
224,160,70692,1,0,0:0:0:0:
288,160,70871,1,8,0:0:0:0:
224,160,70960,1,0,0:0:0:0:
288,160,71050,1,8,0:0:0:0:
224,160,71139,1,0,0:0:0:0:
288,160,71228,1,8,0:0:0:0:
288,160,71317,1,8,0:0:0:0:
224,160,71407,1,0,0:0:0:0:
288,160,71585,1,8,0:0:0:0:
224,160,71675,1,0,0:0:0:0:
288,160,71764,1,8,0:0:0:0:
224,160,71853,1,0,0:0:0:0:
288,160,71942,1,8,0:0:0:0:
224,160,72032,1,0,0:0:0:0:
224,160,72121,1,0,0:0:0:0:
288,160,72300,1,8,0:0:0:0:
224,160,72389,1,0,0:0:0:0:
288,160,72478,1,8,0:0:0:0:
288,160,72657,1,8,0:0:0:0:
32,32,72835,2,0,B|64:32|64:32|64:64|64:64|96:64|96:64|96:32|96:32|128:64|128:64|128:32|128:32|64:96|64:96|96:96|96:96|128:64|128:64|160:64|160:64|160:96|160:96|128:96|128:96|96:64|96:64,1,490
480,32,74264,2,4,B|448:32|448:32|448:64|448:64|480:96|480:96|448:96|448:96|448:128|448:128|416:96|416:96|416:64|416:64|448:96|448:96|448:128|448:128|416:128|416:128|384:96|384:96|352:96|352:96|384:64|384:64|384:32|384:32,1,490
224,224,75692,5,4,0:0:0:0:
224,160,75871,1,0,0:0:0:0:
224,160,75960,1,0,0:0:0:0:
288,160,76050,1,8,0:0:0:0:
224,160,76139,1,0,0:0:0:0:
224,160,76228,1,0,0:0:0:0:
224,160,76317,1,0,0:0:0:0:
288,160,76407,1,8,0:0:0:0:
288,160,76496,1,8,0:0:0:0:
224,160,76585,1,0,0:0:0:0:
224,160,76675,1,0,0:0:0:0:
288,160,76764,1,8,0:0:0:0:
288,160,76853,1,8,0:0:0:0:
288,160,76942,1,8,0:0:0:0:
224,160,77032,1,0,0:0:0:0:
288,160,77121,1,8,0:0:0:0:
288,160,77210,1,8,0:0:0:0:
288,160,77300,1,8,0:0:0:0:
224,160,77389,1,0,0:0:0:0:
288,160,77478,1,8,0:0:0:0:
288,160,77567,1,8,0:0:0:0:
224,160,77657,1,0,0:0:0:0:
224,160,77746,1,0,0:0:0:0:
288,160,77835,1,8,0:0:0:0:
224,160,77925,1,0,0:0:0:0:
224,160,78014,1,0,0:0:0:0:
224,160,78103,1,0,0:0:0:0:
288,224,78192,1,12,0:0:0:0:
288,224,78371,1,12,0:0:0:0:
224,160,78550,1,0,0:0:0:0:
224,160,78728,1,0,0:0:0:0:
224,160,78817,1,0,0:0:0:0:
288,160,78907,1,8,0:0:0:0:
224,160,78996,1,0,0:0:0:0:
224,160,79085,1,0,0:0:0:0:
224,160,79175,1,0,0:0:0:0:
288,160,79264,1,8,0:0:0:0:
224,160,79353,1,0,0:0:0:0:
224,160,79442,1,0,0:0:0:0:
288,160,79532,1,8,0:0:0:0:
288,160,79621,1,8,0:0:0:0:
224,160,79710,1,0,0:0:0:0:
224,160,79800,1,0,0:0:0:0:
288,160,79889,1,8,0:0:0:0:
288,160,79978,1,8,0:0:0:0:
224,160,80067,1,0,0:0:0:0:
288,160,80157,1,8,0:0:0:0:
288,160,80246,1,8,0:0:0:0:
288,160,80335,1,8,0:0:0:0:
224,160,80425,1,0,0:0:0:0:
288,160,80514,1,8,0:0:0:0:
288,160,80603,1,8,0:0:0:0:
288,160,80692,1,8,0:0:0:0:
224,160,80782,1,0,0:0:0:0:
224,160,80871,1,0,0:0:0:0:
224,160,80960,1,0,0:0:0:0:
288,224,81050,1,12,0:0:0:0:
288,224,81228,1,12,0:0:0:0:
224,160,81407,1,0,0:0:0:0:
224,160,81585,1,0,0:0:0:0:
224,160,81675,1,0,0:0:0:0:
288,160,81764,1,8,0:0:0:0:
288,160,81853,1,8,0:0:0:0:
224,160,81942,1,0,0:0:0:0:
224,160,82032,1,0,0:0:0:0:
288,160,82121,1,8,0:0:0:0:
224,160,82210,1,0,0:0:0:0:
224,160,82300,1,0,0:0:0:0:
224,160,82389,1,0,0:0:0:0:
288,224,82478,1,12,0:0:0:0:
288,224,82657,1,12,0:0:0:0:
224,160,82835,1,0,0:0:0:0:
224,160,83014,1,0,0:0:0:0:
288,160,83103,1,8,0:0:0:0:
288,160,83192,1,8,0:0:0:0:
224,160,83282,1,0,0:0:0:0:
288,160,83371,1,8,0:0:0:0:
288,160,83460,1,8,0:0:0:0:
288,160,83550,1,8,0:0:0:0:
224,160,83639,1,0,0:0:0:0:
224,160,83728,1,0,0:0:0:0:
224,160,83817,1,0,0:0:0:0:
288,224,83907,1,12,0:0:0:0:
288,224,84085,1,12,0:0:0:0:
288,224,84264,5,12,0:0:0:0:
288,160,85692,1,8,0:0:0:0:
288,160,86050,1,8,0:0:0:0:
288,160,87121,1,8,0:0:0:0:
224,160,87478,1,0,0:0:0:0:
288,160,88550,1,8,0:0:0:0:
288,160,88907,1,8,0:0:0:0:
288,224,89978,1,12,0:0:0:0:
288,160,90335,1,8,0:0:0:0:
288,160,90514,1,8,0:0:0:0:
224,160,90692,1,0,0:0:0:0:
224,160,91050,1,0,0:0:0:0:
224,160,91228,1,0,0:0:0:0:
288,160,91407,1,8,0:0:0:0:
224,160,91585,1,0,0:0:0:0:
288,160,91764,1,8,0:0:0:0:
288,160,91942,1,8,0:0:0:0:
224,160,92121,1,0,0:0:0:0:
288,160,92300,1,8,0:0:0:0:
224,160,92478,1,0,0:0:0:0:
224,160,92567,1,0,0:0:0:0:
224,160,92657,1,0,0:0:0:0:
288,160,92835,1,8,0:0:0:0:
288,160,92925,1,8,0:0:0:0:
224,160,93014,1,0,0:0:0:0:
288,160,93192,1,8,0:0:0:0:
224,160,93371,1,0,0:0:0:0:
224,160,93460,1,0,0:0:0:0:
288,160,93550,1,8,0:0:0:0:
288,160,93639,1,8,0:0:0:0:
224,160,93728,1,0,0:0:0:0:
288,160,93907,1,8,0:0:0:0:
224,160,94085,1,0,0:0:0:0:
288,160,94175,1,8,0:0:0:0:
288,160,94264,1,8,0:0:0:0:
288,160,94353,1,8,0:0:0:0:
224,160,94442,1,0,0:0:0:0:
288,160,94621,1,8,0:0:0:0:
224,160,94800,1,0,0:0:0:0:
288,160,94889,1,8,0:0:0:0:
224,160,94978,1,0,0:0:0:0:
288,160,95067,1,8,0:0:0:0:
224,160,95157,1,0,0:0:0:0:
288,160,95335,1,8,0:0:0:0:
224,160,95425,1,0,0:0:0:0:
288,160,95514,1,8,0:0:0:0:
288,160,95603,1,8,0:0:0:0:
224,160,95692,1,0,0:0:0:0:
224,160,95871,1,0,0:0:0:0:
224,160,95960,1,0,0:0:0:0:
224,160,96050,1,0,0:0:0:0:
224,160,96228,1,0,0:0:0:0:
224,160,96317,1,0,0:0:0:0:
288,160,96407,1,8,0:0:0:0:
224,160,96585,1,0,0:0:0:0:
288,160,96675,1,8,0:0:0:0:
288,160,96764,1,8,0:0:0:0:
288,160,96942,1,8,0:0:0:0:
288,160,97032,1,8,0:0:0:0:
288,160,97121,1,8,0:0:0:0:
288,160,97300,1,8,0:0:0:0:
288,160,97389,1,8,0:0:0:0:
224,160,97478,1,0,0:0:0:0:
288,160,97657,1,8,0:0:0:0:
224,160,97746,1,0,0:0:0:0:
224,160,97835,1,0,0:0:0:0:
224,160,98014,1,0,0:0:0:0:
224,160,98103,1,0,0:0:0:0:
224,160,98192,1,0,0:0:0:0:
224,160,98371,1,0,0:0:0:0:
224,160,98460,1,0,0:0:0:0:
288,160,98550,1,8,0:0:0:0:
288,160,98728,1,8,0:0:0:0:
288,160,98817,1,8,0:0:0:0:
224,160,98907,1,0,0:0:0:0:
224,160,99085,1,0,0:0:0:0:
288,160,99175,1,8,0:0:0:0:
288,160,99264,1,8,0:0:0:0:
288,160,99442,1,8,0:0:0:0:
224,160,99532,1,0,0:0:0:0:
224,160,99621,1,0,0:0:0:0:
224,160,99800,1,0,0:0:0:0:
288,160,99889,1,8,0:0:0:0:
224,160,99978,1,0,0:0:0:0:
288,224,100710,1,12,0:0:0:0:
224,224,101424,1,4,0:0:0:0:
