osu file format v14

[General]
AudioFilename: audio.mp3
AudioLeadIn: 0
PreviewTime: 127626
Countdown: 0
SampleSet: None
StackLeniency: 0.4
Mode: 0
LetterboxInBreaks: 0
WidescreenStoryboard: 1

[Editor]
Bookmarks: 65274,135948,178471,185252,193471,259234
DistanceSpacing: 1.3
BeatDivisor: 4
GridSize: 32
TimelineZoom: 5.099998

[Metadata]
Title:GOOD LUCK MY WAY
TitleUnicode:GOOD LUCK MY WAY
Artist:L'Arc~en~Ciel
ArtistUnicode:L'Arc~en~Ciel
Creator:Deca
Version:Decastrata's Truth
Source:鋼の錬金術師 嘆きの丘(ミロス)の聖なる星
Tags:monstrata l'arc en ciel fullmetal full metal alchemist hagane no renkinjutsushi star of milos alternator collaboration
BeatmapID:2087733
BeatmapSetID:998121

[Difficulty]
HPDrainRate:1
CircleSize:4
OverallDifficulty:8
ApproachRate:9.3
SliderMultiplier:3.4
SliderTickRate:1

[Events]
//Background and Video events
0,0,"monstrata is gay.jpg",0,0
//Break Periods
//Storyboard Layer 0 (Background)
//Storyboard Layer 1 (Fail)
//Storyboard Layer 2 (Pass)
//Storyboard Layer 3 (Foreground)
//Storyboard Sound Samples

[TimingPoints]
1150,410.958904109589,4,3,1,80,1,0
1150,-200,4,3,1,80,0,0
4437,-133.333333333333,4,3,1,80,0,0
16355,-100,4,3,1,80,0,0
20876,-133.333333333333,4,3,1,80,0,0
65259,-100,4,3,1,80,0,0
88273,-133.333333333333,4,3,1,80,0,0
91555,410.958904109589,4,3,1,80,1,0
91555,-133.333333333333,4,3,1,80,0,0
117866,410.958904109589,4,3,1,80,1,0
117866,-133.333333333333,4,3,1,80,0,0
135948,-100,4,3,1,80,0,0
158139,-133.333333333333,4,3,1,80,0,0
162239,410.958904109589,4,3,1,80,1,0
162239,-133.333333333333,4,3,1,80,0,0
178677,-100,4,3,1,80,0,0
183608,-133.333333333333,4,3,1,80,0,0
185252,-100,4,3,1,80,0,0
193471,-200,4,3,1,80,0,0
203344,410.958904109589,4,3,1,80,1,0
203344,-500,4,3,1,80,0,0
204165,-100,4,3,1,80,0,0
204371,-200,4,3,1,80,0,0
204782,-142.857142857143,4,3,1,80,0,0
205193,-125,4,3,1,80,0,0
205501,-111.111111111111,4,3,1,80,0,0
206015,-100,4,3,1,80,0,0
246083,-133.333333333333,4,3,1,80,0,0
258412,-100,4,3,1,80,0,0

[Colours]
Combo1 : 153,153,153
Combo2 : 220,202,99

[HitObjects]
269,172,1151,5,0,0:0:0:0:
342,129,1356,2,0,P|405:122|433:132,1,85,0|0,0:0|0:0,0:0:0:0:
274,184,1766,5,0,0:0:0:0:
347,141,1972,2,0,P|410:134|438:144,1,85,0|0,0:0|0:0,0:0:0:0:
279,196,2383,5,0,0:0:0:0:
352,153,2589,1,0,0:0:0:0:
284,208,2794,5,0,0:0:0:0:
211,165,2999,2,0,P|148:158|120:168,1,85,0|0,0:0|0:0,0:0:0:0:
279,220,3409,5,0,0:0:0:0:
206,177,3615,2,0,P|143:170|115:180,1,85,0|0,0:0|0:0,0:0:0:0:
274,232,4026,5,0,0:0:0:0:
201,189,4232,1,0,0:0:0:0:
269,244,4438,6,0,L|286:333,1,63.7500024318696,0|0,0:0|0:0,0:0:0:0:
354,350,4644,2,0,B|369:321|369:321|350:215,1,127.500004863739,0|0,0:0|0:0,0:0:0:0:
117,172,5055,6,0,L|134:83,1,63.7500024318696,0|0,0:0|0:0,0:0:0:0:
202,66,5259,2,0,B|217:95|217:95|198:201,1,127.500004863739,0|0,0:0|0:0,0:0:0:0:
146,253,5568,1,0,0:0:0:0:
146,253,5671,2,0,L|134:315,1,63.7500024318696,0|0,0:0|0:0,0:0:0:0:
212,350,5877,6,0,B|224:287|224:287|301:248,1,127.500004863739,0|0,0:0|0:0,0:0:0:0:
356,81,6287,2,0,B|344:144|344:144|288:173,1,127.500004863739,0|0,0:0|0:0,0:0:0:0:
355,226,6596,1,0,0:0:0:0:
355,226,6698,2,0,L|411:197,1,63.7500024318696,0|0,0:0|0:0,0:0:0:0:
271,94,6904,2,0,L|214:122,1,63.7500024318696,0|0,0:0|0:0,0:0:0:0:
168,194,7109,1,0,0:0:0:0:
168,194,7212,1,0,0:0:0:0:
168,194,7315,2,0,L|164:257,1,63.7500024318696,0|0,0:0|0:0,0:0:0:0:
74,82,7520,1,0,0:0:0:0:
74,82,7623,1,0,0:0:0:0:
74,82,7726,6,0,L|128:117,1,63.7500024318696,0|0,0:0|0:0,0:0:0:0:
84,190,7931,2,0,L|73:379,1,127.500004863739,0|0,0:0|0:0,0:0:0:0:
244,344,8342,6,0,L|297:309,1,63.7500024318696,0|0,0:0|0:0,0:0:0:0:
254,237,8547,2,0,L|243:47,1,127.500004863739,0|0,0:0|0:0,0:0:0:0:
333,171,8856,1,0,0:0:0:0:
333,171,8959,2,0,L|337:234,1,63.7500024318696,0|0,0:0|0:0,0:0:0:0:
397,295,9164,6,0,B|420:253|420:253|415:173,1,127.500004863739,0|0,0:0|0:0,0:0:0:0:
115,89,9575,2,0,B|91:130|91:130|96:210,1,127.500004863739
178,212,9883,1,0,0:0:0:0:
178,212,9986,2,0,L|175:149,1,63.7500024318696,0|0,0:0|0:0,0:0:0:0:
196,3,10192,2,0,L|200:67,1,63.7500024318696,0|0,0:0|0:0,0:0:0:0:
263,139,10397,1,0,0:0:0:0:
263,139,10500,1,0,0:0:0:0:
263,139,10603,2,0,L|326:135,1,63.7500024318696,0|0,0:0|0:0,0:0:0:0:
324,53,10808,1,0,0:0:0:0:
324,53,10911,1,0,0:0:0:0:
324,53,11014,6,0,L|387:56,1,63.7500024318696,0|0,0:0|0:0,0:0:0:0:
447,116,11219,2,0,B|405:139|405:139|325:134,1,127.500004863739
188,331,11630,6,0,L|124:327,1,63.7500024318696,0|0,0:0|0:0,0:0:0:0:
65,268,11835,2,0,B|106:244|106:244|186:249,1,127.500004863739,0|0,0:0|0:0,0:0:0:0:
261,290,12144,1,0,0:0:0:0:
261,290,12246,2,0,B|270:257|270:257|264:223,1,63.7500024318696,0|0,0:0|0:0,0:0:0:0:
169,122,12452,6,0,B|186:249,1,127.500004863739,0|0,0:0|0:0,0:0:0:0:
405,58,12863,2,0,B|421:184,1,127.500004863739,0|0,0:0|0:0,0:0:0:0:
343,206,13171,1,0,0:0:0:0:
343,206,13274,2,0,B|349:236|349:236|340:269,1,63.7500024318696,0|0,0:0|0:0,0:0:0:0:
502,185,13479,2,0,B|504:214|504:214|521:243,1,63.7500024318696,0|0,0:0|0:0,0:0:0:0:
432,269,13685,1,0,0:0:0:0:
432,269,13787,1,0,0:0:0:0:
432,269,13890,2,0,B|444:365,1,63.7500024318696,0|0,0:0|0:0,0:0:0:0:
421,184,14096,1,0,0:0:0:0:
421,184,14198,1,0,0:0:0:0:
421,184,14301,6,0,B|408:87,1,63.7500024318696,0|0,0:0|0:0,0:0:0:0:
362,54,14507,1,0,0:0:0:0:
279,44,14712,1,0,0:0:0:0:
214,94,14918,1,0,0:0:0:0:
203,176,15123,1,0,0:0:0:0:
253,242,15329,1,0,0:0:0:0:
335,253,15534,1,0,0:0:0:0:
401,202,15740,1,0,0:0:0:0:
412,120,15945,6,0,L|401:47,5,42.5000016212464,0|0|0|0|0|0,0:0|0:0|0:0|0:0|0:0|0:0,0:0:0:0:
321,105,16356,6,0,L|330:49,5,56.6666666666667,0|0|0|0|0|0,0:0|0:0|0:0|0:0|0:0|0:0,0:0:0:0:
348,187,16767,6,0,L|264:202,1,85,0|0,0:0|0:0,0:0:0:0:
244,70,16972,2,0,L|160:85,1,85,0|0,0:0|0:0,0:0:0:0:
119,288,17178,5,0,0:0:0:0:
61,223,17281,1,0,0:0:0:0:
104,150,17383,1,0,0:0:0:0:
187,168,17486,1,0,0:0:0:0:
195,251,17589,6,0,P|228:279|269:288,1,85,0|0,0:0|0:0,0:0:0:0:
332,155,17794,2,0,P|292:170|264:201,1,85,0|0,0:0|0:0,0:0:0:0:
119,288,18000,2,0,L|103:176,1,85,0|0,0:0|0:0,0:0:0:0:
174,83,18205,2,0,L|186:167,1,85,0|0,0:0|0:0,0:0:0:0:
269,288,18411,6,0,P|308:273|337:242,1,85,0|0,0:0|0:0,0:0:0:0:
252,117,18616,2,0,L|264:201,1,85,0|0,0:0|0:0,0:0:0:0:
199,336,18822,2,0,L|114:323,1,85,0|0,0:0|0:0,0:0:0:0:
110,238,19027,2,0,L|195:251,1,85,0|0,0:0|0:0,0:0:0:0:
276,369,19232,6,0,P|282:327|269:288,1,85,0|0,0:0|0:0,0:0:0:0:
345,193,19438,2,0,P|339:235|353:275,1,85,0|0,0:0|0:0,0:0:0:0:
396,349,19644,2,0,L|480:336,1,85
424,227,19849,2,0,L|508:214,1,85,0|0,0:0|0:0,0:0:0:0:
512,124,20055,5,0,0:0:0:0:
497,41,20157,1,0,0:0:0:0:
417,12,20260,1,0,0:0:0:0:
352,66,20363,1,0,0:0:0:0:
367,151,20465,5,0,0:0:0:0:
340,167,20568,1,0,0:0:0:0:
310,176,20671,1,0,0:0:0:0:
278,176,20774,1,0,0:0:0:0:
247,167,20876,5,0,0:0:0:0:
322,267,21082,2,0,P|387:273|445:246,1,127.500004863739,0|0,0:0|0:0,0:0:0:0:
409,36,21493,2,0,P|372:88|367:152,1,127.500004863739,0|0,0:0|0:0,0:0:0:0:
203,284,21904,1,0,0:0:0:0:
247,167,22109,1,0,0:0:0:0:
167,70,22315,1,0,0:0:0:0:
123,187,22520,5,0,0:0:0:0:
247,167,22726,2,0,L|388:144,1,127.500004863739,0|0,0:0|0:0,0:0:0:0:
203,284,23137,2,0,L|77:304,1,127.500004863739,0|0,0:0|0:0,0:0:0:0:
283,381,23548,1,0,0:0:0:0:
328,263,23753,1,0,0:0:0:0:
247,167,23959,1,0,0:0:0:0:
203,284,24164,5,0,0:0:0:0:
327,262,24370,2,0,P|376:303|400:361,1,127.500004863739,0|0,0:0|0:0,0:0:0:0:
247,167,24781,2,0,P|257:104|295:54,1,127.500004863739,0|0,0:0|0:0,0:0:0:0:
203,284,25192,2,0,P|143:306|81:297,1,127.500004863739,0|0,0:0|0:0,0:0:0:0:
129,179,25603,1,0,0:0:0:0:
327,262,25808,5,0,0:0:0:0:
372,146,26013,1,0,0:0:0:0:
452,240,26219,1,0,0:0:0:0:
246,166,26424,2,0,L|226:41,1,127.500004863739,0|0,0:0|0:0,0:0:0:0:
202,284,26835,2,0,L|76:304,1,127.500004863739
129,179,27246,1,0,0:0:0:0:
327,262,27452,6,0,L|422:246,1,63.7500024318696,0|0,0:0|0:0,0:0:0:0:
459,299,27657,1,0,0:0:0:0:
459,299,27760,1,0,0:0:0:0:
459,299,27863,2,0,L|471:237,1,63.7500024318696,0|0,0:0|0:0,0:0:0:0:
419,171,28068,6,0,L|444:34,1,127.500004863739,0|0,0:0|0:0,0:0:0:0:
343,144,28377,1,0,0:0:0:0:
343,144,28479,2,0,P|321:166|291:178,1,63.7500024318696,0|0,0:0|0:0,0:0:0:0:
244,246,28685,2,0,P|222:223|192:211,1,63.7500024318696,0|0,0:0|0:0,0:0:0:0:
112,228,28890,2,0,P|89:249|77:279,1,63.7500024318696,0|0,0:0|0:0,0:0:0:0:
0,301,29096,6,0,P|37:350|98:356,1,127.500004863739,0|0,0:0|0:0,0:0:0:0:
182,352,29404,1,0,0:0:0:0:
182,352,29507,2,0,P|177:320|159:294,1,63.7500024318696,0|0,0:0|0:0,0:0:0:0:
228,258,29712,2,0,L|414:279,1,127.500004863739,0|0,0:0|0:0,0:0:0:0:
400,341,30020,1,0,0:0:0:0:
400,341,30123,2,0,L|493:330,1,63.7500024318696,0|0,0:0|0:0,0:0:0:0:
431,256,30329,2,0,L|524:245,1,63.7500024318696,0|0,0:0|0:0,0:0:0:0:
398,178,30534,2,0,L|491:167,1,63.7500024318696,0|0,0:0|0:0,0:0:0:0:
365,99,30740,6,0,P|338:116|320:142,1,63.7500024318696,0|0,0:0|0:0,0:0:0:0:
252,191,30945,2,0,L|125:176,1,127.500004863739,0|0,0:0|0:0,0:0:0:0:
42,167,31253,1,0,0:0:0:0:
42,167,31356,2,0,L|64:292,1,127.500004863739,0|0,0:0|0:0,0:0:0:0:
162,356,31664,1,0,0:0:0:0:
162,356,31767,2,0,L|184:230,1,127.500004863739,0|0,0:0|0:0,0:0:0:0:
125,176,32075,1,0,0:0:0:0:
125,176,32178,2,0,L|107:74,1,63.7500024318696,0|0,0:0|0:0,0:0:0:0:
273,65,32383,6,0,L|250:190,1,127.500004863739,0|0,0:0|0:0,0:0:0:0:
303,256,32692,1,0,0:0:0:0:
303,256,32794,2,0,P|328:236|360:231,1,63.7500024318696,0|0,0:0|0:0,0:0:0:0:
403,162,33000,2,0,P|439:213|430:275,1,127.500004863739,0|0,0:0|0:0,0:0:0:0:
358,317,33308,1,0,0:0:0:0:
358,317,33411,6,0,P|379:342|503:323,1,127.500004863739,0|0,0:0|0:0,0:0:0:0:
358,230,33719,1,0,0:0:0:0:
358,230,33822,2,0,P|327:236|303:256,1,63.7500024318696,0|0,0:0|0:0,0:0:0:0:
139,125,34027,5,0,0:0:0:0:
105,248,34233,2,0,L|229:216,1,127.500004863739,0|0,0:0|0:0,0:0:0:0:
262,92,34644,2,0,L|385:60,1,127.500004863739,0|0,0:0|0:0,0:0:0:0:
441,273,35055,1,0,0:0:0:0:
352,183,35260,1,0,0:0:0:0:
229,216,35466,1,0,0:0:0:0:
317,305,35671,5,0,0:0:0:0:
352,183,35877,2,0,L|385:60,1,127.500004863739,0|0,0:0|0:0,0:0:0:0:
229,216,36287,2,0,L|139:125,1,127.500004863739,0|0,0:0|0:0,0:0:0:0:
194,338,36698,1,0,0:0:0:0:
229,216,36904,1,0,0:0:0:0:
352,183,37109,1,0,0:0:0:0:
442,273,37315,5,0,0:0:0:0:
317,305,37520,2,0,L|275:142,1,127.500004863739,0|0,0:0|0:0,0:0:0:0:
70,236,37931,2,0,L|192:270,1,127.500004863739,0|0,0:0|0:0,0:0:0:0:
253,57,38342,2,0,L|161:146,1,127.500004863739,0|0,0:0|0:0,0:0:0:0:
130,22,38753,1,0,0:0:0:0:
285,181,38959,5,0,0:0:0:0:
192,270,39164,1,0,0:0:0:0:
162,146,39370,1,0,0:0:0:0:
407,215,39575,2,0,L|530:249,1,127.500004863739,0|0,0:0|0:0,0:0:0:0:
375,91,39986,2,0,L|252:56,1,127.500004863739,0|0,0:0|0:0,0:0:0:0:
188,109,40294,1,0,0:0:0:0:
188,109,40397,2,0,L|98:83,1,63.7500024318696,0|0,0:0|0:0,0:0:0:0:
44,73,40603,6,0,L|66:163,1,63.7500024318696,0|0,0:0|0:0,0:0:0:0:
133,173,40808,2,0,L|110:263,1,63.7500024318696,0|0,0:0|0:0,0:0:0:0:
44,273,41014,2,0,L|66:363,1,63.7500024318696,0|0,0:0|0:0,0:0:0:0:
139,312,41219,6,0,B|201:331|201:331|258:305,1,127.500004863739,0|0,0:0|0:0,0:0:0:0:
256,222,41527,1,0,0:0:0:0:
256,222,41630,2,0,L|197:248,1,63.7500024318696,0|0,0:0|0:0,0:0:0:0:
235,141,41835,2,0,P|267:139|297:149,1,63.7500024318696,0|0,0:0|0:0,0:0:0:0:
377,128,42041,2,0,P|378:159|368:189,1,63.7500024318696,0|0,0:0|0:0,0:0:0:0:
328,261,42246,6,0,P|391:265|440:227,1,127.500004863739,0|0,0:0|0:0,0:0:0:0:
458,145,42555,1,0,0:0:0:0:
458,145,42657,2,0,L|525:128,1,63.7500024318696,0|0,0:0|0:0,0:0:0:0:
512,26,42863,6,0,B|494:55|494:55|404:78,1,127.500004863739,0|0,0:0|0:0,0:0:0:0:
347,139,43171,1,0,0:0:0:0:
347,139,43274,2,0,P|327:114|321:83,1,63.7500024318696,0|0,0:0|0:0,0:0:0:0:
264,21,43479,2,0,P|244:45|238:76,1,63.7500024318696,0|0,0:0|0:0,0:0:0:0:
180,139,43685,2,0,P|160:114|154:83,1,63.7500024318696,0|0,0:0|0:0,0:0:0:0:
91,28,43890,6,0,L|8:18,1,63.7500024318696,0|0,0:0|0:0,0:0:0:0:
12,102,44095,2,0,L|2:185,1,63.7500024318696,0|0,0:0|0:0,0:0:0:0:
63,223,44300,2,0,L|53:306,1,63.7500024318696,0|0,0:0|0:0,0:0:0:0:
51,370,44506,6,0,B|97:363|97:363|122:334|122:334|164:326,1,127.500004863739,0|0,0:0|0:0,0:0:0:0:
208,255,44814,1,0,0:0:0:0:
208,255,44917,2,0,P|246:305|238:367,1,127.500004863739,0|0,0:0|0:0,0:0:0:0:
320,359,45225,1,0,0:0:0:0:
320,359,45328,2,0,P|349:345|380:347,1,63.7500024318696,0|0,0:0|0:0,0:0:0:0:
459,321,45533,6,0,P|430:265|448:206,1,127.500004863739,0|0,0:0|0:0,0:0:0:0:
495,137,45841,1,0,0:0:0:0:
495,137,45944,2,0,P|464:124|433:125,1,63.7500024318696,0|0,0:0|0:0,0:0:0:0:
371,179,46149,5,0,0:0:0:0:
371,179,46252,1,0,0:0:0:0:
371,179,46355,2,0,P|339:192|309:190,1,63.7500024318696,0|0,0:0|0:0,0:0:0:0:
260,72,46560,1,0,0:0:0:0:
260,72,46663,1,0,0:0:0:0:
260,72,46766,2,0,P|247:101|249:133,1,63.7500024318696,0|0,0:0|0:0,0:0:0:0:
230,214,46971,2,0,L|155:207,1,63.7500024318696,0|0,0:0|0:0,0:0:0:0:
77,129,47177,6,0,L|83:193,1,63.7500024318696,0|0,0:0|0:0,0:0:0:0:
92,275,47382,1,0,0:0:0:0:
92,275,47793,1,0,0:0:0:0:
310,190,47999,6,0,L|315:253,1,63.7500024318696,0|0,0:0|0:0,0:0:0:0:
324,335,48204,1,0,0:0:0:0:
324,335,48615,1,0,0:0:0:0:
91,275,48821,6,0,P|154:268|210:296,1,127.500004863739,0|0,0:0|0:0,0:0:0:0:
324,335,49232,1,0,0:0:0:0:
495,168,49437,2,0,P|437:193|402:246,1,127.500004863739,0|0,0:0|0:0,0:0:0:0:
290,211,49848,2,0,L|257:87,1,127.500004863739,0|0,0:0|0:0,0:0:0:0:
211,297,50259,1,0,0:0:0:0:
403,246,50465,6,0,L|383:171,1,63.7500024318696,0|0,0:0|0:0,0:0:0:0:
366,103,50670,1,0,0:0:0:0:
366,103,51081,1,0,0:0:0:0:
211,297,51286,6,0,L|191:222,1,63.7500024318696,0|0,0:0|0:0,0:0:0:0:
174,154,51491,1,0,0:0:0:0:
174,154,51903,1,0,0:0:0:0:
403,246,52108,6,0,P|460:220|495:167,1,127.500004863739,0|0,0:0|0:0,0:0:0:0:
290,211,52519,1,0,0:0:0:0:
210,296,52725,2,0,P|147:302|91:274,1,127.500004863739,0|0,0:0|0:0,0:0:0:0:
323,334,53136,2,0,L|289:210,1,127.500004863739,0|0,0:0|0:0,0:0:0:0:
257,88,53547,1,0,0:0:0:0:
257,88,53649,1,0,0:0:0:0:
257,88,53752,6,0,L|153:115,1,63.7500024318696,0|0,0:0|0:0,0:0:0:0:
114,126,53958,1,0,0:0:0:0:
114,126,54369,1,0,0:0:0:0:
290,210,54574,6,0,L|186:237,1,63.7500024318696,0|0,0:0|0:0,0:0:0:0:
147,248,54780,1,0,0:0:0:0:
147,248,55191,1,0,0:0:0:0:
257,87,55396,6,0,L|290:211,1,127.500004863739,0|0,0:0|0:0,0:0:0:0:
323,334,55807,1,0,0:0:0:0:
380,120,56013,2,0,L|504:153,1,127.500004863739,0|0,0:0|0:0,0:0:0:0:
454,219,56321,1,0,0:0:0:0:
454,219,56423,2,0,L|355:192,1,63.7500024318696,0|0,0:0|0:0,0:0:0:0:
385,101,56629,2,0,L|509:135,1,127.500004863739
415,365,56938,1,0,0:0:0:0:
415,365,57040,6,0,L|316:338,1,63.7500024318696,0|0,0:0|0:0,0:0:0:0:
256,262,57245,2,0,L|273:324,1,63.7500024318696,0|0,0:0|0:0,0:0:0:0:
210,379,57451,2,0,L|149:363,1,63.7500024318696,0|0,0:0|0:0,0:0:0:0:
121,249,57656,6,0,P|157:301|148:362,1,127.500004863739,0|0,0:0|0:0,0:0:0:0:
76,320,57965,1,0,0:0:0:0:
76,320,58067,2,0,L|15:337,1,63.7500024318696
122,250,58273,2,0,L|183:266,1,63.7500024318696
75,181,58478,2,0,L|14:164,1,63.7500024318696
123,109,58684,6,0,L|184:92,1,63.7500024318696,0|0,0:0|0:0,0:0:0:0:
246,5,58889,2,0,L|263:67,1,63.7500024318696,0|0,0:0|0:0,0:0:0:0:
349,128,59095,2,0,L|287:144,1,63.7500024318696,0|0,0:0|0:0,0:0:0:0:
227,233,59300,2,0,L|210:171,1,63.7500024318696,0|0,0:0|0:0,0:0:0:0:
340,40,59506,6,0,P|412:67|436:146,1,127.500004863739,0|0,0:0|0:0,0:0:0:0:
407,186,59814,1,0,0:0:0:0:
407,186,59917,2,0,B|438:193|438:193|483:180,1,63.7500024318696,0|0,0:0|0:0,0:0:0:0:
496,106,60122,2,0,B|465:99|465:99|420:112,1,63.7500024318696,0|0,0:0|0:0,0:0:0:0:
354,247,60328,6,0,P|369:186|348:127,1,127.500004863739,0|0,0:0|0:0,0:0:0:0:
273,91,60636,1,0,0:0:0:0:
273,91,60739,2,0,L|184:102,1,63.7500024318696,0|0,0:0|0:0,0:0:0:0:
87,184,60944,6,0,P|72:122|92:63,1,127.500004863739,0|0,0:0|0:0,0:0:0:0:
168,27,61252,1,0,0:0:0:0:
209,98,61355,2,0,L|372:118,1,127.500004863739,0|0,0:0|0:0,0:0:0:0:
435,31,61663,1,0,0:0:0:0:
435,31,61766,2,0,L|372:39,1,63.7500024318696,0|0,0:0|0:0,0:0:0:0:
298,187,61971,6,0,L|142:206,1,127.500004863739,0|0,0:0|0:0,0:0:0:0:
80,149,62280,1,0,0:0:0:0:
80,149,62382,2,0,L|88:213,1,63.7500024318696,0|0,0:0|0:0,0:0:0:0:
0,318,62588,6,0,L|155:337,1,127.500004863739,0|0,0:0|0:0,0:0:0:0:
218,280,62897,1,0,0:0:0:0:
218,280,62999,2,0,L|210:343,1,63.7500024318696,0|0,0:0|0:0,0:0:0:0:
171,202,63204,5,0,0:0:0:0:
206,170,63306,1,0,0:0:0:0:
251,155,63409,1,0,0:0:0:0:
298,160,63512,1,0,0:0:0:0:
340,183,63615,6,0,L|403:190,1,63.7500024318696,0|0,0:0|0:0,0:0:0:0:
319,12,63821,2,0,L|311:75,1,63.7500024318696,0|0,0:0|0:0,0:0:0:0:
172,183,64026,2,0,L|108:190,1,63.7500024318696,0|0,0:0|0:0,0:0:0:0:
193,12,64232,2,0,L|200:75,1,63.7500024318696,0|0,0:0|0:0,0:0:0:0:
315,286,64437,5,0,0:0:0:0:
378,222,64540,1,0,0:0:0:0:
339,142,64643,1,0,0:0:0:0:
251,155,64745,1,0,0:0:0:0:
235,242,64848,6,0,B|169:270|169:270|52:238,1,191.250007295609
153,14,65259,6,0,L|176:229,1,170
285,76,65567,1,0,0:0:0:0:
338,142,65670,2,0,P|386:145|438:115,1,85
236,4,65876,2,0,L|249:114,1,85,0|0,0:0|0:0,0:0:0:0:
321,312,66081,6,0,L|339:142,1,170,0|0,0:0|0:0,0:0:0:0:
449,49,66389,1,0,0:0:0:0:
512,107,66492,2,0,L|502:191,1,85,0|0,0:0|0:0,0:0:0:0:
512,340,66697,6,0,B|398:344|451:391|323:387,1,170
236,331,67006,1,0,0:0:0:0:
266,251,67108,2,0,P|297:271|322:353,1,85,0|0,0:0|0:0,0:0:0:0:
94,384,67314,6,0,L|100:299,1,85
174,177,67519,2,0,L|180:261,1,85,0|0,0:0|0:0,0:0:0:0:
51,115,67725,2,0,P|135:142|217:109,1,170
351,54,68033,5,0,0:0:0:0:
351,54,68136,2,0,P|317:77|297:115,1,85
404,211,68341,2,0,P|402:169|380:134,1,85,0|0,0:0|0:0,0:0:0:0:
210,322,68547,6,0,P|248:341|291:339,1,85,0|0,0:0|0:0,0:0:0:0:
320,196,68752,2,0,P|285:220|265:258,1,85
128,384,68958,2,0,L|123:300,1,85
178,156,69163,2,0,L|183:241,1,85
4,201,69369,6,0,P|25:255|149:293,1,170
265,256,69677,1,0,0:0:0:0:
289,339,69780,2,0,L|373:354,1,85
430,85,69985,6,0,B|424:138|424:138|442:189|442:189|435:252,1,170
299,27,70293,5,0,0:0:0:0:
340,105,70396,2,0,B|334:157|334:157|352:208|352:208|344:271,1,170
198,40,70704,5,0,0:0:0:0:
234,121,70807,2,0,B|266:217|266:217|257:285,1,170,0|0,0:0|0:0,0:0:0:0:
51,253,71115,5,0,0:0:0:0:
51,253,71218,2,0,P|79:292|116:306,1,85,0|0,0:0|0:0,0:0:0:0:
257,286,71423,5,0,0:0:0:0:
343,271,71526,1,0,0:0:0:0:
355,184,71629,1,0,0:0:0:0:
276,145,71732,1,0,0:0:0:0:
215,208,71834,2,0,L|100:225,1,85
88,143,72040,2,0,L|-26:125,1,85
1,318,72245,2,0,P|33:291|50:251,1,85
131,73,72451,2,0,P|100:102|87:143,1,85,0|0,3:0|3:0,3:0:0:0:
138,310,72656,6,0,L|307:298,1,170
276,145,72965,1,0,0:0:0:0:
276,145,73067,2,0,L|161:127,1,85
78,222,73273,2,0,P|139:218|191:128,1,170
354,183,73581,1,0,0:0:0:0:
389,262,73684,2,0,P|416:293|459:311,1,85,0|0,0:0|0:0,0:0:0:0:
512,198,73889,6,0,B|478:169|478:169|323:186,1,170
266,250,74197,1,0,0:0:0:0:
266,250,74300,2,0,L|251:151,1,85,0|0,0:0|0:0,0:0:0:0:
10,239,74506,6,0,P|30:275|102:305,1,85,0|0,0:0|0:0,0:0:0:0:
173,199,74711,2,0,P|130:198|93:217,1,85,0|0,0:0|0:0,0:0:0:0:
125,361,74917,2,0,P|146:324|148:282,1,85,0|0,0:0|0:0,0:0:0:0:
289,171,75122,6,0,P|267:207|265:249,1,85,0|0,0:0|0:0,0:0:0:0:
363,314,75328,2,0,P|384:277|386:235,1,85,0|0,0:0|0:0,0:0:0:0:
262,86,75533,2,0,B|358:76|331:130|446:123,1,170
493,28,75841,5,0,0:0:0:0:
493,28,75944,2,0,P|455:38|393:40,1,85,0|0,0:0|0:0,0:0:0:0:
196,25,76150,2,0,B|229:53|229:53|234:188,1,170
76,239,76458,5,0,0:0:0:0:
4,197,76560,2,0,P|88:191|164:228,1,170,0|0,0:0|0:0,0:0:0:0:
360,178,76869,5,0,0:0:0:0:
373,95,76971,2,0,P|298:115|220:211,1,170
37,83,77280,5,0,0:0:0:0:
58,0,77382,2,0,P|121:44|162:161,1,170,0|0,0:0|0:0,0:0:0:0:
46,319,77691,5,0,0:0:0:0:
46,319,77793,2,0,P|85:353|141:353,1,85,0|0,0:0|0:0,0:0:0:0:
185,310,77998,1,0,0:0:0:0:
164,228,78101,1,0,0:0:0:0:
234,182,78204,1,0,0:0:0:0:
299,235,78306,1,0,0:0:0:0:
269,314,78410,6,0,P|299:356|418:341,1,170,0|0,0:0|0:0,0:0:0:0:
435,184,78718,1,0,0:0:0:0:
383,249,78821,2,0,L|290:233,1,85,0|0,0:0|0:0,0:0:0:0:
290,56,79026,2,0,L|207:69,1,85,0|0,0:0|0:0,0:0:0:0:
164,228,79232,6,0,B|192:198|192:198|209:50,1,170,0|0,0:0|0:0,0:0:0:0:
49,106,79540,1,0,0:0:0:0:
49,106,79643,2,0,P|89:150|138:155,1,85,0|0,0:0|0:0,0:0:0:0:
272,225,79848,6,0,L|291:46,1,170,0|0,0:0|0:0,0:0:0:0:
446,99,80156,1,0,0:0:0:0:
446,99,80259,2,0,L|434:183,1,85
262,312,80465,5,0,0:0:0:0:
195,260,80567,1,0,0:0:0:0:
116,292,80670,2,0,P|70:271|48:246,1,85,0|0,0:0|0:0,0:0:0:0:
138,20,80876,2,0,L|130:104,1,85,0|0,0:0|0:0,0:0:0:0:
125,208,81081,6,0,P|158:182|200:174,1,85,0|0,0:0|0:0,0:0:0:0:
356,271,81286,2,0,L|349:356,1,85,0|0,0:0|0:0,0:0:0:0:
262,312,81492,2,0,L|269:227,1,85,0|0,0:0|0:0,0:0:0:0:
444,311,81697,6,0,P|490:290|513:261,1,85,0|0,0:0|0:0,0:0:0:0:
442,140,81903,2,0,L|435:225,1,85,0|0,0:0|0:0,0:0:0:0:
356,271,82108,2,0,L|262:221,1,85,0|0,0:0|0:0,0:0:0:0:
282,135,82314,2,0,L|357:174,1,85,0|0,0:0|0:0,0:0:0:0:
197,253,82519,6,0,L|187:53,1,170
103,102,82828,1,0,0:0:0:0:
48,166,82930,2,0,L|53:66,1,85
74,316,83136,6,0,B|107:352|107:352|243:367,1,170,0|0,0:0|0:0,0:0:0:0:
188,197,83444,5,0,0:0:0:0:
113,239,83547,2,0,B|146:275|146:275|282:290,1,170
363,191,83855,5,0,0:0:0:0:
384,272,83958,2,0,P|417:323|475:336,1,85,0|0,0:0|0:0,0:0:0:0:
444,133,84163,2,0,B|374:139|374:139|349:155|349:155|260:162,1,170
214,15,84471,1,0,0:0:0:0:
214,15,84574,2,0,L|219:100,1,85
147,238,84780,2,0,L|152:154,1,85
343,375,84985,6,0,P|292:309|211:294,1,170
132,326,85293,1,0,0:0:0:0:
132,326,85396,2,0,L|47:330,1,85
147,238,85602,2,0,L|62:233,1,85
152,154,85807,5,0,0:0:0:0:
219,99,85910,1,0,0:0:0:0:
300,129,86013,1,0,3:0:0:0:
314,214,86115,1,0,3:0:0:0:
247,268,86218,1,0,3:0:0:0:
263,370,86321,1,0,3:0:0:0:
362,384,86423,1,0,3:0:0:0:
409,292,86526,1,0,3:0:0:0:
337,223,86628,5,0,3:0:0:0:
21,355,86834,1,0,0:0:0:0:
129,28,87040,1,0,0:0:0:0:
213,156,88273,6,0,B|196:193|196:193|215:289,1,127.500004863739,0|0,0:0|0:0,0:0:0:0:
295,269,88581,1,0,0:0:0:0:
295,269,88684,2,0,L|281:206,1,63.7500024318696,0|0,0:0|0:0,0:0:0:0:
129,287,88889,2,0,P|59:268|25:207,1,127.500004863739,0|0,0:0|0:0,0:0:0:0:
101,143,89197,1,0,0:0:0:0:
101,143,89300,2,0,L|115:206,1,63.7500024318696,0|0,0:0|0:0,0:0:0:0:
28,225,89506,2,0,L|15:163,1,63.7500024318696,0|0,0:0|0:0,0:0:0:0:
295,269,89711,6,0,L|377:275,1,63.7500024318696,0|0,0:0|0:0,0:0:0:0:
129,287,89917,2,0,L|124:350,1,63.7500024318696,0|0,0:0|0:0,0:0:0:0:
111,121,90122,2,0,L|47:116,1,63.7500024318696,0|0,0:0|0:0,0:0:0:0:
277,103,90328,2,0,L|281:39,1,63.7500024318696,0|0,0:0|0:0,0:0:0:0:
355,129,90533,6,0,P|326:168|286:181,1,63.7500024318696,0|0,0:0|0:0,0:0:0:0:
28,225,90739,2,0,P|70:273|145:286,1,127.500004863739,0|0,0:0|0:0,0:0:0:0:
291,264,91047,1,0,0:0:0:0:
295,269,91149,2,0,L|289:351,1,63.7500024318696,0|0,0:0|0:0,0:0:0:0:
172,211,91355,1,0,0:0:0:0:
172,211,91458,1,0,0:0:0:0:
172,211,91555,1,0,0:0:0:0:
312,47,91760,6,0,L|300:211,1,127.500004863739,0|0,0:0|0:0,0:0:0:0:
97,162,92171,2,0,P|135:131|229:141,1,127.500004863739,0|0,0:0|0:0,0:0:0:0:
295,269,92582,1,0,0:0:0:0:
392,189,92787,1,0,0:0:0:0:
509,233,92992,1,0,0:0:0:0:
412,313,93198,5,0,0:0:0:0:
392,189,93404,2,0,L|365:28,1,127.500004863739,0|0,0:0|0:0,0:0:0:0:
295,269,93815,2,0,P|242:288|156:264,1,127.500004863739,0|0,0:0|0:0,0:0:0:0:
275,145,94226,1,0,0:0:0:0:
392,189,94431,1,0,0:0:0:0:
488,109,94637,1,0,0:0:0:0:
370,63,94842,5,0,0:0:0:0:
392,189,95048,2,0,P|411:249|456:293,1,127.500004863739
275,145,95459,2,0,L|155:100,1,127.500004863739,0|0,0:0|0:0,0:0:0:0:
295,269,95870,2,0,L|175:224,1,127.500004863739,0|0,0:0|0:0,0:0:0:0:
275,145,96281,1,0,0:0:0:0:
510,235,96486,5,0,0:0:0:0:
411,314,96691,1,0,0:0:0:0:
393,189,96897,1,0,0:0:0:0:
295,269,97102,2,0,L|175:224,1,127.500004863739,0|0,0:0|0:0,0:0:0:0:
55,179,97513,2,0,P|46:241|92:320,1,127.500004863739,0|0,0:0|0:0,0:0:0:0:
175,224,97822,1,0,0:0:0:0:
175,224,97924,2,0,L|192:149,1,63.7500024318696,0|0,0:0|0:0,0:0:0:0:
139,99,98130,6,0,P|175:81|225:85,1,63.7500024318696,0|0,0:0|0:0,0:0:0:0:
267,125,98335,2,0,P|298:120|325:105,1,63.7500024318696,0|0,0:0|0:0,0:0:0:0:
387,41,98541,2,0,P|426:38|493:74,1,63.7500024318696,0|0,0:0|0:0,0:0:0:0:
360,199,98746,6,0,P|301:176|266:124,1,127.500004863739
457,126,99055,1,0,0:0:0:0:
457,126,99157,2,0,L|442:188,1,63.7500024318696,0|0,0:0|0:0,0:0:0:0:
360,199,99363,2,0,L|375:261,1,63.7500024318696,0|0,0:0|0:0,0:0:0:0:
457,272,99569,2,0,L|443:334,1,63.7500024318696,0|0,0:0|0:0,0:0:0:0:
360,345,99774,6,0,P|321:342|254:378,1,63.7500024318696
209,363,99979,2,0,B|218:322|218:322|198:222,1,127.500004863739,0|0,0:0|0:0,0:0:0:0:
99,189,100287,1,0,0:0:0:0:
99,189,100390,2,0,L|132:323,1,127.500004863739,0|0,0:0|0:0,0:0:0:0:
201,238,100698,1,0,0:0:0:0:
200,237,100801,2,0,P|231:237|260:224,1,63.7500024318696
326,279,101007,2,0,P|344:246|344:211,1,63.7500024318696
424,191,101212,2,0,P|404:158|374:141,1,63.7500024318696
249,110,101418,6,0,P|218:107|190:93,1,63.7500024318696
128,35,101623,2,0,L|139:161,1,127.500004863739,0|0,0:0|0:0,0:0:0:0:
59,195,101931,1,0,0:0:0:0:
59,195,102034,2,0,P|81:228|188:236,1,127.500004863739,0|0,0:0|0:0,0:0:0:0:
326,243,102342,1,0,0:0:0:0:
326,243,102445,2,0,P|284:197|223:191,1,127.500004863739,0|0,0:0|0:0,0:0:0:0:
250,333,102753,1,0,0:0:0:0:
250,333,102856,2,0,L|246:270,1,63.7500024318696,0|0,0:0|0:0,0:0:0:0:
336,116,103061,6,0,L|326:243,1,127.500004863739,0|0,0:0|0:0,0:0:0:0:
409,229,103370,1,0,0:0:0:0:
409,229,103472,2,0,P|426:255|451:274,1,63.7500024318696,0|0,0:0|0:0,0:0:0:0:
416,90,103678,2,0,P|374:43|312:37,1,127.500004863739,0|0,0:0|0:0,0:0:0:0:
134,122,103986,1,0,0:0:0:0:
134,122,104089,2,0,P|195:128|237:174,1,127.500004863739,0|0,0:0|0:0,0:0:0:0:
151,273,104397,5,0,0:0:0:0:
151,273,104500,2,0,L|156:192,1,63.7500024318696
71,180,104705,2,0,L|67:243,1,63.7500024318696
260,276,104911,2,0,L|387:286,1,127.500004863739
461,186,105322,5,0,0:0:0:0:
406,70,105527,1,0,0:0:0:0:
331,169,105733,2,0,L|204:159,1,127.500004863739
387,286,106144,1,0,0:0:0:0:
312,385,106349,1,0,0:0:0:0:
256,268,106555,2,0,L|129:258,1,127.500004863739,0|0,0:0|0:0,0:0:0:0:
149,43,106965,6,0,L|203:157,1,127.500004863739
128,257,107376,1,0,0:0:0:0:
82,142,107582,2,0,P|146:134|205:160,1,127.500004863739
256,268,107993,1,0,0:0:0:0:
329,161,108199,2,0,L|274:46,1,127.500004863739,0|0,0:0|0:0,0:0:0:0:
448,176,108609,6,0,P|426:234|368:271,1,127.500004863739
198,158,109020,2,0,L|344:160,1,127.500004863739
256,268,109431,1,0,0:0:0:0:
129,265,109637,6,0,P|91:222|83:140,1,127.500004863739
325,159,110048,1,0,0:0:0:0:
376,273,110253,2,0,L|521:277,1,127.500004863739
312,384,110664,2,0,L|184:380,1,127.500004863739
153,303,110972,5,0,0:0:0:0:
153,303,111075,2,0,L|230:305,1,63.7500024318696
300,221,111281,2,0,L|237:223,1,63.7500024318696
152,139,111486,1,0,0:0:0:0:
152,139,111589,1,0,0:0:0:0:
152,139,111691,2,0,L|215:140,1,63.7500024318696
350,141,111897,6,0,B|328:178|328:178|355:298,1,127.500004863739
429,258,112205,1,0,0:0:0:0:
429,258,112308,2,0,L|411:195,1,63.7500024318696
491,173,112513,2,0,L|509:110,1,63.7500024318696
429,88,112719,2,0,L|411:25,1,63.7500024318696
350,141,112924,6,0,P|317:159|269:156,1,63.7500024318696
197,11,113130,2,0,P|258:25|294:77,1,127.500004863739
205,226,113438,1,0,0:0:0:0:
205,226,113541,2,0,L|209:99,1,127.500004863739
120,199,113849,1,0,0:0:0:0:
120,199,113952,2,0,L|56:208,1,63.7500024318696
129,281,114157,2,0,L|60:291,1,63.7500024318696
138,363,114363,2,0,L|69:373,1,63.7500024318696
207,318,114568,6,0,P|248:312|304:244,1,127.500004863739
367,335,114876,1,0,0:0:0:0:
367,335,114979,2,0,L|430:344,1,63.7500024318696
505,295,115185,2,0,B|473:268|473:268|460:155,1,127.500004863739
500,108,115493,1,0,0:0:0:0:
500,108,115596,2,0,P|444:99|380:164,1,127.500004863739
368,219,115904,1,0,0:0:0:0:
368,219,116007,2,0,P|326:196|309:167,1,63.7500024318696
191,76,116212,6,0,L|332:102,1,127.500004863739
228,173,116520,1,0,0:0:0:0:
228,173,116623,2,0,L|219:236,1,63.7500024318696
308,279,116828,1,0,0:0:0:0:
308,279,116931,1,0,0:0:0:0:
308,279,117034,2,0,P|348:303|382:304,1,63.7500024318696
475,346,117239,1,0,0:0:0:0:
475,346,117342,1,0,0:0:0:0:
475,346,117445,2,0,P|434:370|400:371,1,63.7500024318696
291,368,117650,5,0,0:0:0:0:
291,368,117753,1,0,0:0:0:0:
291,368,117866,2,0,L|223:357,1,63.7500024318696
146,339,118071,1,0,0:0:0:0:
146,339,118482,1,0,0:0:0:0:
318,216,118687,6,0,L|250:205,1,63.7500024318696
173,187,118892,1,0,0:0:0:0:
173,187,119304,1,0,0:0:0:0:
286,290,119509,6,0,P|321:287|387:203,1,127.500004863739
245,136,119920,1,0,0:0:0:0:
170,279,120126,2,0,P|135:269|84:176,1,127.500004863739
245,136,120537,2,0,L|256:8,1,127.500004863739
332,188,120948,5,0,0:0:0:0:
332,188,121050,1,0,0:0:0:0:
332,188,121153,2,0,P|366:226|388:233,1,63.7500024318696
457,251,121359,1,0,0:0:0:0:
457,251,121770,1,0,0:0:0:0:
202,294,121975,6,0,P|251:281|273:288,1,63.7500024318696
342,308,122181,1,0,0:0:0:0:
342,308,122592,1,0,0:0:0:0:
455,126,122797,6,0,B|426:158|426:158|428:256,1,127.500004863739
308,107,123208,1,0,0:0:0:0:
161,126,123413,2,0,B|190:158|190:158|188:256,1,127.500004863739
308,234,123824,2,0,L|308:106,1,127.500004863739
163,0,124235,5,0,0:0:0:0:
163,0,124338,1,0,0:0:0:0:
163,0,124441,2,0,L|242:13,1,63.7500024318696
308,22,124646,1,0,0:0:0:0:
308,22,125057,1,0,0:0:0:0:
417,155,125263,6,0,L|338:168,1,63.7500024318696
272,177,125468,1,0,0:0:0:0:
272,177,125879,1,0,0:0:0:0:
187,217,126085,6,0,L|193:82,1,127.500004863739
272,177,126393,1,0,0:0:0:0:
272,177,126496,2,0,L|268:256,1,63.7500024318696
65,221,126701,2,0,P|112:203|206:230,1,127.500004863739
206,296,127009,1,0,0:0:0:0:
206,296,127112,2,0,P|243:320|297:320,1,63.7500024318696
339,291,127318,5,0,0:0:0:0:
367,277,127420,1,0,0:0:0:0:
398,271,127523,1,0,0:0:0:0:
430,274,127626,1,0,0:0:0:0:
460,286,127729,6,0,B|475:132,1,127.500004863739
480,72,128037,1,0,0:0:0:0:
480,72,128139,2,0,P|431:82|403:106,1,63.7500024318696
347,130,128345,2,0,B|308:149|308:149|209:130,1,127.500004863739
231,50,128653,1,0,0:0:0:0:
231,50,128756,2,0,L|312:64,2,63.7500024318696
154,83,129064,1,0,0:0:0:0:
154,83,129167,2,0,P|141:128|157:174,1,63.7500024318696
360,240,129372,6,0,L|279:254,1,63.7500024318696
253,375,129578,2,0,L|242:312,1,63.7500024318696
118,268,129783,2,0,L|180:257,1,63.7500024318696
225,133,129989,2,0,L|235:195,1,63.7500024318696
341,358,130194,6,0,B|377:320|377:320|468:304,1,127.500004863739
448,223,130502,1,0,0:0:0:0:
448,223,130605,2,0,B|420:229|420:229|386:218,1,63.7500024318696
331,59,130811,5,0,0:0:0:0:
331,59,130913,1,0,0:0:0:0:
331,59,131016,2,0,P|389:81|417:137,1,127.500004863739
332,144,131324,1,0,0:0:0:0:
332,144,131427,2,0,P|300:171|289:201,1,63.7500024318696
279,273,131633,6,0,L|143:257,1,127.500004863739
0,240,131941,1,0,0:0:0:0:
47,307,132044,2,0,B|73:274|73:274|83:169,1,127.500004863739
168,117,132352,1,0,0:0:0:0:
167,117,132455,2,0,L|163:181,1,63.7500024318696
187,349,132660,6,0,L|313:363,1,127.500004863739
372,286,132968,1,0,0:0:0:0:
372,286,133071,2,0,L|435:278,1,63.7500024318696
291,274,133276,6,0,L|286:132,1,127.500004863739
202,216,133585,1,0,0:0:0:0:
202,216,133688,2,0,L|138:223,1,63.7500024318696
211,99,133893,5,0,0:0:0:0:
234,77,133995,1,0,0:0:0:0:
263,65,134098,1,0,0:0:0:0:
294,63,134201,1,0,0:0:0:0:
326,70,134304,6,0,L|389:77,1,63.7500024318696
512,93,134509,2,0,L|504:29,1,63.7500024318696
317,166,134715,6,0,L|380:173,1,63.7500024318696
503,189,134920,2,0,L|495:125,1,63.7500024318696
356,275,135126,5,0,0:0:0:0:
363,364,135228,1,0,0:0:0:0:
450,384,135330,1,0,0:0:0:0:
497,307,135433,1,0,0:0:0:0:
438,240,135537,2,0,B|402:197|402:197|246:180,1,191.250007295609
202,352,135948,6,0,L|117:341,1,85
108,215,136153,2,0,L|192:225,1,85
275,308,136359,2,0,L|325:239,1,85,0|0,3:0|3:0,3:0:0:0:
318,114,136564,2,0,L|267:182,1,85,0|0,3:0|3:0,3:0:0:0:
202,351,136770,6,0,P|172:276|92:262,1,170
33,352,137078,1,0,0:0:0:0:
33,352,137181,2,0,L|117:341,1,85
117,181,137386,6,0,P|37:196|7:272,1,170
177,252,137694,1,0,0:0:0:0:
177,252,137797,2,0,P|203:219|210:178,1,85
149,24,138002,6,0,L|160:109,1,85
304,74,138208,2,0,L|293:158,1,85
436,23,138413,2,0,L|447:108,1,85
349,225,138619,6,0,P|381:198|430:191,1,85
489,322,138824,2,0,P|503:283|496:242,1,85
345,310,139030,2,0,P|386:302|418:275,1,85
500,154,139235,6,0,L|510:69,1,85
436,23,139441,2,0,L|351:12,1,85
309,145,139646,2,0,L|224:134,1,85
160,3,139852,2,0,L|150:88,1,85
14,250,140057,6,0,P|66:186|149:173,1,170
309,145,140366,1,0,0:0:0:0:
347,220,140468,2,0,L|431:209,1,85
352,71,140674,6,0,P|271:67|224:134,1,170
127,26,140982,1,0,0:0:0:0:
138,109,141085,2,0,B|148:173|148:173|134:209|134:209|152:312,1,170
235,216,141393,1,0,0:0:0:0:
235,216,141496,2,0,B|245:280|245:280|231:316|231:316|249:419,1,170
310,157,141804,1,0,0:0:0:0:
321,240,141907,2,0,L|405:229,1,85
444,54,142112,5,0,0:0:0:0:
365,22,142215,1,0,0:0:0:0:
299,74,142318,1,0,0:0:0:0:
310,157,142420,1,0,0:0:0:0:
388,185,142523,6,0,P|392:143|376:105,1,85
231,128,142729,2,0,P|227:169|243:208,1,85
375,311,142934,2,0,P|391:272|388:231,1,85
243,208,143140,2,0,P|227:247|231:289,1,85
446,363,143345,6,0,P|376:319|297:341,1,170
136,358,143653,1,0,0:0:0:0:
136,358,143756,2,0,P|175:374|217:371,1,85
324,197,143961,6,0,P|254:152|174:174,1,170
13,191,144269,1,0,0:0:0:0:
13,191,144372,2,0,P|51:207|93:203,1,85
121,37,144578,6,0,P|105:76|110:118,1,85
186,254,144783,2,0,P|169:215|174:173,1,85
271,76,144989,2,0,P|232:92|191:87,1,85
253,203,145194,2,0,P|291:219|333:214,1,85
340,26,145400,2,0,P|356:64|351:106,1,85
401,266,145605,2,0,P|417:227|412:185,1,85
437,76,145811,6,0,L|533:89,1,85
333,214,146016,2,0,L|248:202,1,85
144,67,146222,2,0,L|173:281,1,170
237,118,146530,1,0,0:0:0:0:
248,202,146633,6,0,L|265:330,1,85
344,129,146838,2,0,L|326:257,1,85
225,33,147044,2,0,L|242:161,1,85
443,0,147249,6,0,L|415:204,1,170
248,202,147557,1,0,0:0:0:0:
248,202,147660,2,0,L|265:330,1,85
344,129,147865,2,0,L|326:257,1,85
155,151,148071,6,0,L|184:365,1,170
355,44,148379,1,0,0:0:0:0:
355,44,148482,2,0,L|337:172,1,85
144,67,148687,5,0,0:0:0:0:
199,4,148790,1,0,0:0:0:0:
276,36,148893,1,0,0:0:0:0:
266,121,148995,1,0,0:0:0:0:
183,138,149098,6,0,P|127:251|161:308,1,170
173,360,149407,1,0,0:0:0:0:
173,360,149509,2,0,P|202:330|243:319,1,85
281,241,149715,2,0,P|310:270|351:281,1,85
428,319,149920,6,0,B|439:277|439:277|428:243|428:243|453:124,1,170
387,32,150229,1,0,0:0:0:0:
369,115,150331,2,0,L|351:198,1,85
212,111,150537,6,0,P|303:85|381:127,1,170
229,194,150845,1,0,0:0:0:0:
229,194,150948,2,0,L|211:110,1,85
146,3,151153,2,0,L|129:87,1,85
31,195,151359,6,0,P|67:172|109:170,1,85
265,297,151564,2,0,P|228:275|186:275,1,85
73,336,151770,2,0,L|91:253,1,85
211,110,151975,2,0,L|229:194,1,85
354,358,152181,2,0,L|371:274,1,85
465,165,152386,6,0,P|429:187|387:190,1,85
306,219,152592,2,0,P|270:196|228:193,1,85
138,59,152797,2,0,P|161:95|164:137,1,85
66,252,153002,2,0,P|88:216|91:174,1,85
61,27,153208,6,0,P|43:107|91:174,1,170
138,59,153516,1,0,0:0:0:0:
164,137,153619,2,0,L|284:121,1,85
383,57,153824,6,0,P|300:61|248:124,1,170
138,59,154133,1,0,0:0:0:0:
91,174,154235,6,0,P|43:107|61:27,1,170
210,13,154544,1,0,0:0:0:0:
248,124,154646,6,0,P|330:119|382:56,1,170
313,4,154955,1,0,0:0:0:0:
248,124,155058,2,0,L|163:112,1,85
16,160,155263,5,0,0:0:0:0:
0,76,155366,1,0,0:0:0:0:
74,35,155469,1,0,0:0:0:0:
138,94,155572,1,0,0:0:0:0:
100,172,155674,6,0,P|100:254|162:309,1,170
227,253,155982,1,0,0:0:0:0:
281,318,156085,2,0,L|388:325,1,85
365,182,156290,2,0,L|281:188,1,85
115,149,156496,5,0,0:0:0:0:
93,66,156599,1,0,0:0:0:0:
154,6,156702,1,0,0:0:0:0:
236,28,156805,1,0,0:0:0:0:
258,110,156907,5,0,0:0:0:0:
231,208,157009,1,0,0:0:0:0:
318,265,157112,1,0,0:0:0:0:
396,200,157215,1,0,0:0:0:0:
360,104,157318,5,0,0:0:0:0:
65,275,157523,1,0,0:0:0:0:
413,300,157729,1,0,0:0:0:0:
231,208,157934,1,0,0:0:0:0:
231,208,158037,1,0,0:0:0:0:
231,208,158139,6,0,P|254:267|245:330,1,127.500004863739
13,144,158550,2,0,P|71:121|134:130,1,127.500004863739
382,164,158961,6,0,L|409:72,1,63.7500024318696
360,28,159167,2,0,L|268:1,1,63.7500024318696
257,82,159372,2,0,L|318:99,1,63.7500024318696
440,29,159578,2,0,P|478:80|473:142,1,127.500004863739
230,244,159989,6,0,L|168:226,1,63.7500024318696
270,170,160194,2,0,P|308:221|303:283,1,127.500004863739
48,343,160605,6,0,P|39:312|23:284,1,63.7500024318696
83,225,160811,2,0,P|91:194|107:166,1,63.7500024318696
62,97,161016,2,0,P|34:81|3:73,1,63.7500024318696
131,51,161222,2,0,P|190:26|252:32,1,127.500004863739
315,255,161633,6,0,P|287:239|256:231,1,63.7500024318696
384,209,161838,1,0,0:0:0:0:
411,193,161940,1,0,0:0:0:0:
442,184,162043,1,0,0:0:0:0:
473,183,162146,1,0,0:0:0:0:
504,190,162239,6,0,L|516:107,1,63.7500024318696
442,37,162444,2,0,L|433:101,1,63.7500024318696
340,165,162649,2,0,L|348:101,1,63.7500024318696
278,12,162855,2,0,L|254:173,1,127.500004863739
117,264,163266,6,0,L|108:200,1,63.7500024318696
179,111,163472,2,0,L|202:272,1,127.500004863739
181,318,163780,1,0,0:0:0:0:
248,362,163882,6,0,P|280:364|310:352,1,63.7500024318696
396,282,164088,2,0,P|364:283|335:272,1,63.7500024318696
274,214,164293,2,0,P|301:199|321:174,1,63.7500024318696
373,108,164499,2,0,P|345:93|325:68,1,63.7500024318696
205,21,164704,6,0,P|241:73|248:136,1,127.500004863739
126,47,165012,1,0,0:0:0:0:
106,128,165115,2,0,P|138:129|168:118,1,63.7500024318696
313,188,165321,1,0,0:0:0:0:
313,188,165423,1,0,0:0:0:0:
313,188,165526,6,0,P|252:172|193:195,1,127.500004863739
163,272,165834,1,0,0:0:0:0:
230,320,165937,2,0,L|312:354,1,63.7500024318696
351,288,166143,2,0,L|433:254,1,63.7500024318696
489,288,166348,5,0,0:0:0:0:
488,288,166451,2,0,P|484:225|437:185,1,127.500004863739
382,122,166759,2,0,P|382:94|404:39,1,63.7500024318696
301,149,166965,2,0,P|301:121|279:66,1,63.7500024318696
210,68,167170,6,0,L|110:49,1,63.7500024318696
98,123,167375,2,0,L|35:134,1,63.7500024318696
98,237,167581,1,0,0:0:0:0:
118,213,167683,1,0,0:0:0:0:
146,197,167786,1,0,0:0:0:0:
177,192,167889,1,0,0:0:0:0:
208,197,167992,6,0,B|226:185|226:185|241:243|192:345,1,127.500004863739
298,284,168300,1,0,0:0:0:0:
362,336,168403,2,0,L|459:346,1,63.7500024318696
362,232,168608,2,0,L|459:222,1,63.7500024318696
461,149,168814,6,0,P|458:117|463:85,1,63.7500024318696
340,36,169019,2,0,P|342:67|337:99,1,63.7500024318696
245,176,169225,2,0,P|213:171|181:173,1,63.7500024318696
140,65,169430,2,0,P|108:62|76:67,1,63.7500024318696
5,181,169636,6,0,P|7:212|2:244,1,63.7500024318696
122,280,169841,2,0,P|117:311|119:343,1,63.7500024318696
245,176,170047,2,0,P|247:207|242:239,1,63.7500024318696
362,275,170252,2,0,P|357:306|359:338,1,63.7500024318696
450,173,170458,6,0,L|532:159,1,63.7500024318696
401,41,170663,2,0,L|339:52,1,63.7500024318696
245,176,170869,1,0,0:0:0:0:
198,181,170971,1,0,0:0:0:0:
154,163,171074,1,0,0:0:0:0:
124,126,171177,1,0,0:0:0:0:
117,80,171280,6,0,L|179:69,1,63.7500024318696
339,52,171485,2,0,L|349:114,1,63.7500024318696
458,306,171691,1,0,0:0:0:0:
476,262,171793,1,0,0:0:0:0:
465,217,171896,1,0,0:0:0:0:
427,188,171999,1,0,0:0:0:0:
381,189,172102,6,0,L|391:251,1,63.7500024318696
309,353,172307,2,0,B|323:321|323:321|308:229,1,127.500004863739
72,134,172718,6,0,L|61:196,1,63.7500024318696
144,298,172923,2,0,B|129:266|129:266|144:174,1,127.500004863739
381,189,173334,6,0,L|443:178,1,63.7500024318696
386,269,173540,2,0,L|448:258,1,63.7500024318696
292,163,173745,6,0,L|354:152,1,63.7500024318696
238,226,173951,2,0,B|276:246|276:246|359:232,1,127.500004863739
459,11,174362,6,0,L|396:0,1,63.7500024318696
512,74,174568,2,0,B|474:93|474:93|390:79,1,127.500004863739
140,33,174978,5,0,0:0:0:0:
148,80,175080,1,0,0:0:0:0:
156,127,175183,1,0,0:0:0:0:
164,174,175286,1,0,0:0:0:0:
172,221,175389,6,0,L|190:329,1,63.7500024318696
240,132,175595,2,0,L|262:258,1,127.500004863739
512,320,176006,6,0,L|493:428,1,63.7500024318696
443,231,176211,2,0,L|421:356,1,127.500004863739
320,107,176622,6,0,L|331:170,1,63.7500024318696
399,81,176828,2,0,L|409:143,1,63.7500024318696
245,53,177033,6,0,L|234:115,1,63.7500024318696
166,26,177239,2,0,L|155:88,1,63.7500024318696
102,208,177444,2,0,L|91:145,1,63.7500024318696
23,235,177650,2,0,L|12:172,1,63.7500024318696
173,169,177855,6,0,B|187:189|187:189|166:246|208:297,1,127.500004863739
273,246,178163,1,0,0:0:0:0:
285,342,178266,2,0,P|322:334|351:310,1,63.7500024318696
261,150,178471,5,0,0:0:0:0:
202,82,178574,1,0,0:0:0:0:
113,99,178677,2,0,P|60:100|16:70,1,85
175,1,178882,2,0,P|228:0|272:30,1,85
347,143,179088,6,0,L|373:324,1,170
273,246,179396,1,0,0:0:0:0:
203,298,179499,2,0,B|178:316|178:316|94:323,1,85
41,192,179704,2,0,B|69:179|69:179|152:190,1,85
273,246,179910,6,0,L|258:143,1,85
115,101,180115,2,0,L|125:217,1,85
203,298,180321,6,0,P|241:329|297:329,1,85
340,201,180526,2,0,P|294:218|266:266,1,85
455,368,180732,6,0,L|442:256,1,85
349,286,180937,2,0,L|358:370,1,85
397,127,181143,6,0,P|313:115|232:139,1,170
64,163,181451,1,0,0:0:0:0:
35,83,181553,1,0,0:0:0:0:
102,31,181656,1,0,0:0:0:0:
172,79,181759,1,0,0:0:0:0:
150,161,181862,1,0,0:0:0:0:
205,226,181965,2,0,P|240:250|292:254,1,85
332,24,182170,6,0,B|286:54|286:54|269:196,1,170
353,200,182478,1,0,0:0:0:0:
353,200,182581,2,0,L|364:103,1,85
485,274,182786,6,0,P|450:298|398:302,1,85
351,370,182992,2,0,P|316:346|264:342,1,85
217,274,183197,2,0,P|182:298|130:302,1,85
83,370,183403,2,0,P|48:346|-4:342,1,85
148,88,183608,6,0,L|154:222,1,127.500004863739
235,184,183917,1,0,0:0:0:0:
235,184,184019,2,0,P|259:220|301:238,1,63.7500024318696
484,106,184225,5,0,0:0:0:0:
420,48,184328,1,0,0:0:0:0:
337,74,184430,1,0,0:0:0:0:
318,158,184533,1,0,0:0:0:0:
382,217,184635,1,0,0:0:0:0:
364,301,184739,1,0,0:0:0:0:
281,327,184841,5,0,0:0:0:0:
217,268,184944,1,0,0:0:0:0:
198,353,185047,1,0,0:0:0:0:
134,294,185149,1,0,0:0:0:0:
115,379,185252,6,0,P|82:366|50:321,1,85
13,250,185458,2,0,P|46:237|78:192,1,85
154,166,185663,2,8,P|131:138|126:83,1,85
40,75,185869,2,8,P|62:47|67:-7,1,85
195,36,186074,6,0,L|297:43,1,85
381,120,186280,2,0,L|483:127,1,85
194,182,186485,2,0,L|296:189,1,85
380,266,186691,2,0,L|482:273,1,85
300,344,186896,5,0,0:0:0:0:
233,290,186999,1,0,0:0:0:0:
147,276,187102,1,0,0:0:0:0:
66,307,187205,1,0,0:0:0:0:
11,374,187307,6,0,P|-16:335|-7:268,1,85
87,189,187512,2,0,P|45:193|12:219,1,85
233,290,187718,2,0,P|260:251|251:184,1,85
156,105,187923,2,0,P|197:109|231:134,1,85
141,355,188129,2,0,B|189:273|121:272|166:191,1,170
498,108,188540,6,0,B|470:143|470:143|453:221,1,85
416,254,188745,2,0,B|388:219|388:219|371:141,1,85
315,122,188951,2,0,L|198:139,1,85
165,192,189156,2,0,L|48:175,1,85
58,101,189362,6,0,P|78:135|74:197,1,85
142,270,189567,2,0,P|142:227|164:191,1,85
208,55,189773,2,0,P|228:89|224:151,1,85
292,224,189978,2,0,P|292:181|314:145,1,85
364,10,190184,6,0,P|365:110|283:148,1,170
411,260,190492,1,0,0:0:0:0:
411,260,190595,2,0,L|515:247,1,85
512,152,190800,2,0,L|428:163,1,85
314,230,191006,1,0,0:0:0:0:
314,145,191109,1,0,0:0:0:0:
247,92,191212,1,0,0:0:0:0:
164,110,191314,1,0,0:0:0:0:
127,186,191417,2,0,P|126:229|146:265,1,85
264,363,191622,2,0,P|228:341|186:341,1,85
15,355,191828,6,0,L|99:341,1,85
43,172,192033,2,0,L|126:186,1,85
185,341,192239,2,0,L|268:326,1,85
212,157,192444,2,0,L|295:171,1,85
400,276,192649,5,0,0:0:0:0:
459,215,192752,1,0,0:0:0:0:
438,133,192855,1,0,0:0:0:0:
356,111,192957,1,0,0:0:0:0:
295,171,193060,1,0,0:0:0:0:
317,254,193163,1,0,0:0:0:0:
402,258,193266,1,0,0:0:0:0:
432,177,193368,1,0,0:0:0:0:
366,124,193471,6,0,B|261:124|301:167|205:167,1,170
145,105,194088,1,0,0:0:0:0:
120,186,194293,2,0,L|136:283,1,85
243,337,194704,1,0,0:0:0:0:
243,337,194910,2,0,P|163:314|82:336,1,170
273,257,195526,2,0,L|458:236,1,170
404,80,196143,6,0,P|390:120|404:160,2,85
316,170,196759,2,0,L|231:160,1,85
221,75,197170,2,0,L|136:84,1,85
143,168,197581,1,0,0:0:0:0:
64,304,197992,5,0,0:0:0:0:
64,304,198197,2,0,P|80:265|77:222,1,85
129,359,198608,2,0,L|309:381,2,170
222,247,199636,2,0,P|206:286|209:329,1,85
300,213,200047,2,0,L|286:118,1,85
367,98,200458,2,0,L|379:13,1,85
421,164,200869,1,0,0:0:0:0:
222,247,201280,5,0,0:0:0:0:
222,247,201485,2,0,B|123:249|164:199|62:202,1,170
202,163,202102,2,0,P|217:123|215:81,1,85
290,41,202512,1,0,0:0:0:0:
366,124,202718,5,0,0:0:0:0:
366,124,202923,1,0,0:0:0:0:
366,124,203129,1,0,0:0:0:0:
366,124,203344,2,0,L|256:136,1,102
229,56,204165,6,0,L|343:45,1,85
244,218,204371,6,0,P|200:193|183:163,1,85
319,262,204782,6,0,P|281:296|166:284,1,118.999996368408
384,204,205193,2,0,P|404:250|357:356,1,136
348,124,205604,2,0,P|398:118|484:196,1,152.999995330811
260,133,206015,2,0,B|261:90|261:90|288:41,1,85
348,124,206220,5,0,0:0:0:0:
384,204,206323,1,0,0:0:0:0:
319,262,206426,1,0,0:0:0:0:
244,218,206528,1,0,0:0:0:0:
168,260,206631,6,0,P|110:273|25:169,1,170
185,89,206939,1,0,0:0:0:0:
260,133,207042,2,0,L|242:232,1,85
334,345,207248,2,0,L|318:261,1,85
512,131,207453,6,0,P|484:183|350:182,1,170
314,65,207761,1,0,0:0:0:0:
260,133,207864,2,0,L|176:149,1,85
0,3,208070,6,0,B|70:51|70:51|89:133,1,170
19,198,208378,1,0,0:0:0:0:
19,198,208480,2,0,L|-5:298,1,85
176,148,208686,6,0,P|159:185|103:219,1,85
236,219,208891,2,0,P|253:256|309:290,1,85
478,138,209097,6,0,B|386:132|411:201|323:198,1,170
242,84,209405,1,0,0:0:0:0:
317,26,209508,2,0,L|333:110,1,85
462,221,209713,2,0,L|478:137,1,85
287,283,209919,6,0,P|250:300|216:356,1,85
150,383,210124,2,0,P|113:366|79:310,1,85
242,84,210330,2,0,L|258:168,1,85
151,278,210535,2,0,L|167:194,1,85
43,54,210741,2,0,L|75:222,1,170
242,84,211049,5,0,0:0:0:0:
257,167,211152,2,0,P|274:204|330:238,1,85
486,93,211357,2,0,P|403:95|343:153,1,170
485,260,211665,5,0,0:0:0:0:
485,260,211768,2,0,L|501:176,1,85
308,231,211974,2,0,L|324:315,1,85
406,38,212179,6,0,B|363:49|363:49|306:38,1,85
207,101,212385,1,0,3:0:0:0:
119,77,212487,1,0,0:0:0:0:
54,140,212590,1,0,0:0:0:0:
76,228,212693,1,0,0:0:0:0:
163,252,212796,1,0,0:0:0:0:
228,189,212898,1,0,0:0:0:0:
308,231,213001,1,0,0:0:0:0:
292,320,213104,1,0,0:0:0:0:
202,332,213207,6,0,L|165:160,1,170
305,141,213515,1,0,0:0:0:0:
308,231,213617,2,0,P|344:264|407:270,1,85,0|0,3:0|3:0,3:0:0:0:
416,17,213823,6,0,L|384:183,1,170
458,316,214131,1,0,0:0:0:0:
454,225,214233,2,0,P|418:192|355:185,1,85,0|0,3:0|3:0,3:0:0:0:
292,320,214439,1,0,0:0:0:0:
202,332,214542,1,0,0:0:0:0:
148,261,214645,2,0,L|63:271,1,85
214,99,214850,5,0,0:0:0:0:
203,125,214952,1,0,0:0:0:0:
192,151,215055,1,0,0:0:0:0:
181,178,215158,1,0,0:0:0:0:
148,261,215261,5,0,0:0:0:0:
176,257,215363,1,0,0:0:0:0:
204,254,215466,1,0,0:0:0:0:
232,250,215569,1,0,0:0:0:0:
320,237,215672,5,0,0:0:0:0:
268,169,215775,1,0,0:0:0:0:
181,178,215878,1,0,0:0:0:0:
148,261,215980,1,0,0:0:0:0:
203,331,216083,5,0,0:0:0:0:
290,322,216186,1,0,0:0:0:0:
308,236,216289,1,0,0:0:0:0:
231,192,216391,1,0,0:0:0:0:
148,261,216494,6,0,P|105:225|91:176,1,85
301,86,216700,2,0,P|344:122|358:171,1,85
203,331,216905,2,0,L|118:341,1,85
181,178,217111,2,0,L|266:168,1,85
413,313,217316,2,0,L|450:146,1,170
308,236,217624,1,0,0:0:0:0:
287,321,217727,2,0,L|202:331,1,85
60,94,217933,6,0,P|134:101|180:194,1,170
301,86,218241,1,0,0:0:0:0:
365,137,218344,2,0,L|450:147,1,85
314,6,218549,2,0,P|256:17|227:47,1,85
344,221,218754,2,0,P|306:202|282:167,1,85
512,0,218960,6,0,L|501:85,1,85
405,274,219165,2,0,P|380:239|343:220,1,85
261,357,219371,2,0,P|285:322|323:304,1,85
472,330,219576,2,0,P|489:291|487:249,1,85
355,52,219782,6,0,L|365:137,1,85
214,111,219987,2,0,L|203:196,1,85
48,108,220193,2,0,P|89:114|122:140,1,85
224,26,220398,2,0,P|167:40|137:81,1,85
0,39,220604,6,0,L|20:209,1,170
122,140,220912,1,0,0:0:0:0:
131,224,221015,2,0,P|164:252|211:258,1,85
339,113,221220,6,0,P|300:105|197:182,1,170
348,197,221528,1,0,0:0:0:0:
416,147,221631,2,0,L|427:62,1,85
251,0,221837,2,0,L|262:85,1,85
280,247,222042,6,0,P|319:239|422:316,1,170
289,331,222350,1,0,0:0:0:0:
212,298,222453,2,0,P|195:262|201:213,1,85
262,85,222659,5,0,0:0:0:0:
183,52,222761,1,0,0:0:0:0:
98,62,222864,1,0,0:0:0:0:
33,113,222967,1,0,0:0:0:0:
0,192,223070,2,0,P|50:197|98:167,1,85
153,139,223275,2,0,L|164:224,1,85
83,358,223480,2,0,L|94:273,1,85
255,311,223686,2,0,P|213:317|174:303,1,85
263,84,223891,6,0,B|297:125|297:125|313:246,1,170
372,89,224200,1,0,0:0:0:0:
385,174,224302,2,0,L|396:259,1,85
457,75,224508,2,0,P|400:11|318:22,1,170
312,240,224816,1,0,0:0:0:0:
395,258,224919,2,0,P|433:245|464:200,1,85
217,136,225124,6,0,L|228:221,1,85
78,93,225330,2,0,L|67:178,1,85
206,51,225535,2,0,L|217:136,1,85
56,261,225741,6,0,P|108:254|146:273,1,85
12,334,225946,2,0,P|51:347|93:339,1,85
147,181,226152,2,0,L|136:266,1,85
338,354,226357,6,0,L|327:244,1,85
179,335,226563,2,0,P|220:347|261:337,1,85
379,194,226768,2,0,P|297:177|226:220,1,170
427,358,227076,5,0,0:0:0:0:
427,358,227179,2,0,L|416:248,1,85
484,28,227385,2,0,L|467:197,1,170
308,104,227693,5,0,0:0:0:0:
379,194,227796,2,0,P|307:236|226:220,1,170
130,109,228104,1,0,0:0:0:0:
209,50,228207,2,0,L|225:219,1,170
34,142,228514,1,0,0:0:0:0:
121,193,228617,2,0,L|132:83,1,85
43,227,228823,2,0,L|32:117,1,85
225,219,229028,5,0,0:0:0:0:
294,269,229131,1,0,0:0:0:0:
371,234,229234,1,0,0:0:0:0:
428,296,229337,1,0,0:0:0:0:
504,260,229439,1,0,0:0:0:0:
494,176,229542,1,0,0:0:0:0:
411,161,229645,6,0,L|239:128,1,170
294,269,229953,1,0,0:0:0:0:
371,234,230056,2,0,L|436:303,1,85
217,304,230261,2,0,P|211:256|228:212,1,85
149,94,230467,6,0,B|162:164|162:164|126:201|130:273,1,170
244,128,230775,1,0,0:0:0:0:
244,128,230878,2,0,L|327:144,1,85
362,355,231083,6,0,P|286:360|209:287,1,170
371,234,231391,1,0,0:0:0:0:
429,299,231494,2,0,L|512:283,1,85
410,160,231700,2,0,L|327:144,1,85
220,49,231905,6,0,P|242:85|243:127,1,85
163,267,232111,2,0,P|185:231|186:189,1,85
79,85,232316,2,0,P|114:107|157:109,1,85
103,206,232522,2,0,P|67:228|25:229,1,85
79,326,232727,2,0,P|114:348|156:349,1,85
272,207,232933,6,0,L|288:290,1,85
429,299,233138,2,0,L|413:382,1,85
156,348,233344,2,0,L|172:265,1,85
255,123,233549,2,0,L|271:206,1,85
512,262,233754,6,0,P|479:223|358:242,1,170
317,61,234063,1,0,0:0:0:0:
255,123,234165,2,0,L|172:139,1,85
368,230,234371,6,0,L|404:47,1,170
322,306,234679,5,0,0:0:0:0:
284,227,234782,2,0,L|320:44,1,170
238,303,235090,5,0,0:0:0:0:
200,224,235193,2,0,L|216:140,1,85
116,37,235398,2,0,L|133:121,1,85
103,275,235604,5,0,0:0:0:0:
159,342,235707,1,0,0:0:0:0:
238,303,235809,1,0,0:0:0:0:
295,371,235912,1,0,0:0:0:0:
376,338,236015,1,0,0:0:0:0:
370,250,236117,1,0,0:0:0:0:
284,228,236220,6,0,B|196:188|199:272|104:225,2,170
512,310,236734,1,0,0:0:0:0:
456,374,236837,2,0,P|386:330|369:249,1,170
434,194,237145,1,0,0:0:0:0:
434,194,237248,2,0,L|448:92,1,85
268,71,237453,2,0,P|295:111|302:165,1,85
249,303,237659,2,0,P|276:263|283:209,1,85
181,70,237864,5,0,0:0:0:0:
139,78,237966,1,0,0:0:0:0:
104,102,238069,1,0,0:0:0:0:
82,137,238172,1,0,0:0:0:0:
74,176,238275,2,0,L|89:268,1,85
210,152,238480,2,0,L|196:235,1,85
249,303,238686,5,0,0:0:0:0:
318,255,238788,1,0,0:0:0:0:
402,253,238891,1,0,0:0:0:0:
474,295,238994,1,0,0:0:0:0:
511,370,239097,5,0,0:0:0:0:
414,351,239199,1,0,0:0:0:0:
371,263,239302,1,0,0:0:0:0:
416,176,239405,1,0,0:0:0:0:
512,161,239508,6,0,P|534:207|524:251,1,85
333,158,239713,2,0,P|343:113|486:50,1,170
299,33,240022,1,0,0:0:0:0:
258,106,240124,2,0,L|57:127,1,170
0,257,240433,1,0,0:0:0:0:
56,320,240535,2,0,P|112:304|120:188,1,170
0,0,240844,5,0,0:0:0:0:
0,0,240946,2,0,L|19:102,1,85
104,40,241152,2,0,L|88:123,1,85
193,67,241357,2,0,L|212:169,1,85
278,279,241563,5,0,0:0:0:0:
314,299,241665,1,0,0:0:0:0:
356,307,241768,1,0,0:0:0:0:
398,300,241871,1,0,0:0:0:0:
435,280,241974,5,0,0:0:0:0:
446,193,242076,1,0,0:0:0:0:
375,139,242179,1,0,3:0:0:0:
293,173,242282,1,0,0:0:0:0:
229,113,242385,5,0,0:0:0:0:
213,74,242487,1,0,0:0:0:0:
223,33,242590,1,0,0:0:0:0:
255,6,242693,1,0,0:0:0:0:
296,4,242796,2,0,L|269:188,1,170
205,226,243104,1,0,0:0:0:0:
205,226,243207,2,0,L|217:310,1,85
352,219,243412,2,0,L|339:303,1,85
150,362,243617,5,0,3:0:0:0:
71,330,243720,1,0,0:0:0:0:
59,246,243823,1,0,3:0:0:0:
126,193,243926,1,0,0:0:0:0:
204,225,244029,1,0,3:0:0:0:
283,162,244131,1,0,3:0:0:0:
247,67,244234,1,0,3:0:0:0:
146,71,244337,1,0,3:0:0:0:
119,169,244440,5,0,3:0:0:0:
450,96,244645,1,0,0:0:0:0:
243,365,244850,1,0,0:0:0:0:
217,211,246083,6,0,L|210:146,1,63.7500024318696
251,74,246289,2,0,B|288:104|288:104|299:211,1,127.500004863739
358,238,246597,1,0,0:0:0:0:
357,237,246700,2,0,L|351:301,1,63.7500024318696
217,211,246905,6,0,P|170:229|145:279,1,63.7500024318696
150,321,247111,2,0,P|103:303|78:253,1,63.7500024318696
81,211,247316,2,0,L|87:147,1,63.7500024318696
5,129,247522,2,0,L|-1:65,1,63.7500024318696
136,38,247727,2,0,P|105:45|80:65,1,63.7500024318696
190,103,247933,2,0,B|267:109|231:141|304:150,2,127.500004863739
379,38,248549,6,0,L|373:102,1,63.7500024318696
390,247,248754,1,0,0:0:0:0:
390,247,248857,1,0,0:0:0:0:
390,247,248960,2,0,L|384:184,1,63.7500024318696
268,328,249165,1,0,0:0:0:0:
268,328,249268,1,0,0:0:0:0:
268,328,249371,2,0,L|320:291,1,63.7500024318696,0|0,3:0|3:0,3:0:0:0:
198,380,249576,6,0,P|177:341|236:248,1,127.500004863739
275,105,249987,2,0,P|298:163|272:220,1,127.500004863739
212,161,250296,1,0,0:0:0:0:
212,161,250398,2,0,L|123:168,1,63.7500024318696
32,226,250604,2,0,L|96:231,1,63.7500024318696
196,327,250809,6,0,P|206:296|201:265,1,63.7500024318696
122,366,251015,2,0,P|112:335|117:304,1,63.7500024318696
257,384,251220,2,0,L|337:369,1,63.7500024318696
383,239,251426,1,0,0:0:0:0:
383,239,251528,1,0,0:0:0:0:
383,239,251631,2,0,L|362:300,1,63.7500024318696
453,186,251837,2,0,B|473:222|473:222|442:323,1,127.500004863739
323,172,252248,5,0,0:0:0:0:
283,151,252350,1,0,0:0:0:0:
239,144,252453,1,0,0:0:0:0:
196,152,252556,1,0,0:0:0:0:
157,175,252659,2,0,B|173:144|173:144|159:90,1,63.7500024318696
56,1,252864,2,0,L|83:126,1,127.500004863739
51,332,253275,2,0,L|78:208,1,127.500004863739
176,255,253686,2,0,L|237:236,1,63.7500024318696
401,341,253891,2,0,P|341:327|310:274,1,127.500004863739
389,109,254200,5,0,0:0:0:0:
389,109,254302,2,0,L|369:195,1,63.7500024318696
393,252,254508,2,0,B|436:240|436:240|464:139,1,127.500004863739
295,177,254816,1,0,0:0:0:0:
295,177,254919,2,0,L|275:91,1,63.7500024318696
278,2,255124,2,0,L|232:46,1,63.7500024318696
135,103,255330,1,0,0:0:0:0:
135,103,255433,1,0,0:0:0:0:
135,103,255535,2,0,L|195:121,1,63.7500024318696
310,273,255741,5,0,0:0:0:0:
310,273,255844,1,0,0:0:0:0:
310,273,255946,2,0,P|262:257|244:221,1,63.7500024318696
159,195,256152,2,0,L|187:319,2,127.500004863739
83,250,256768,2,0,P|35:234|17:198,1,63.7500024318696
94,100,256974,2,0,L|83:163,1,63.7500024318696
171,50,257179,2,0,L|182:112,1,63.7500024318696
242,172,257385,6,0,B|316:170|278:219|421:220,1,127.500004863739
419,120,257693,1,0,0:0:0:0:
418,119,257796,2,0,L|356:131,1,63.7500024318696
243,261,258001,1,0,0:0:0:0:
243,261,258104,1,0,0:0:0:0:
243,261,258207,2,0,L|180:249,1,63.7500024318696
5,91,258412,6,0,L|23:185,1,85
137,0,258617,2,0,L|121:83,1,85
240,91,258823,2,0,L|258:185,1,85
372,0,259028,2,0,L|356:83,1,85
