osu file format v14

[General]
AudioFilename: audio.mp3
AudioLeadIn: 0
PreviewTime: 119833
Countdown: 0
SampleSet: Soft
StackLeniency: 0.2
Mode: 0
LetterboxInBreaks: 0
WidescreenStoryboard: 0

[Editor]
Bookmarks: 587,8253,24252,52251,76251,85584,120249,144249,158249,174248,196915,220914,239580
DistanceSpacing: 1
BeatDivisor: 6
GridSize: 8
TimelineZoom: 2.4

[Metadata]
Title:Junpaku Toroimerai
TitleUnicode:純白トロイメライ
Artist:L'Antica
ArtistUnicode:アンティーカ
Creator:Atalanta
Version:Resonating
Source:アイドルマスター シャイニーカラーズ
Tags:THE iDOLM@STER SHINY COLORS GR@DATE WING 03 Japanese Rock 月岡恋鐘 Tsukioka Kogane 礒部花凜 Isobe Carin 田中摩美々 Tanaka Mamimi 菅沼千紗 Suganuma Chisa 白瀬咲耶 Shirase Sakuya 八巻アンナ Yamaki Anna 三峰結華 Mitsumine Yuika 成海 瑠奈 Narumi Runa 幽谷霧子 Yukoku Kiriko 結名 美月 Yuina Mizuki
BeatmapID:2892551
BeatmapSetID:1402084

[Difficulty]
HPDrainRate:5
CircleSize:5
OverallDifficulty:9
ApproachRate:9
SliderMultiplier:1.5
SliderTickRate:1

[Events]
//Background and Video events
0,0,"The.iDOLM@STER .Shiny.Colors.full.2832667.png",0,0
//Break Periods
2,174448,182315
//Storyboard Layer 0 (Background)
//Storyboard Layer 1 (Fail)
//Storyboard Layer 2 (Pass)
//Storyboard Layer 3 (Foreground)
//Storyboard Layer 4 (Overlay)
//Storyboard Sound Samples

[TimingPoints]
587,333.333333333333,3,2,1,60,1,0
587,-125,3,2,1,60,0,0
1670,-125,3,2,1,5,0,0
1920,-125,3,2,1,60,0,0
2003,-125,3,2,1,5,0,0
2586,-125,3,2,1,60,0,0
3670,-125,3,2,1,5,0,0
3920,-125,3,2,1,60,0,0
4003,-125,3,2,1,5,0,0
4253,333.333333333333,3,2,1,60,1,0
4253,-125,3,2,1,60,0,0
5336,-125,3,2,1,5,0,0
5586,-125,3,2,1,60,0,0
5669,-125,3,2,1,5,0,0
6252,-125,3,2,1,60,0,0
7336,-125,3,2,1,5,0,0
7586,-125,3,2,1,60,0,0
7669,-125,3,2,1,5,0,0
7919,-125,3,2,1,60,0,0
24252,333.333333333333,7,2,2,80,1,0
32585,-100,7,2,1,80,0,0
32918,-100,7,2,3,80,0,0
33140,-100,7,2,4,80,0,0
33363,-100,7,2,5,80,0,0
33474,-100,7,2,6,80,0,0
33586,333.333333333333,3,2,1,60,1,0
41085,-100,3,2,3,70,0,0
41252,-100,3,2,4,70,0,0
41419,-100,3,2,5,70,0,0
41585,-100,3,2,1,70,0,0
45585,333.333333333333,4,2,1,70,1,0
51918,-100,4,2,2,70,0,0
52251,-83.3333333333333,4,2,1,90,0,1
60251,-83.3333333333333,4,2,1,90,0,0
60584,-83.3333333333333,4,2,1,90,0,1
62584,-83.3333333333333,4,2,2,90,0,1
62918,-83.3333333333333,4,2,1,90,0,1
70918,-83.3333333333333,4,2,1,90,0,0
71251,-83.3333333333333,4,2,1,90,0,1
73584,-83.3333333333333,4,2,1,90,0,0
74251,-83.3333333333333,4,2,1,90,0,1
76251,333.333333333333,7,2,2,80,1,0
85584,333.333333333333,3,2,1,60,1,0
85584,-125,3,2,1,60,0,0
101083,-125,3,2,3,60,0,0
101250,-125,3,2,4,60,0,0
101417,-125,3,2,5,60,0,0
101583,-100,3,2,1,60,0,0
108583,-100,3,2,1,70,0,0
109083,-100,3,2,3,70,0,0
109250,-100,3,2,4,70,0,0
109417,-100,3,2,5,70,0,0
109583,-100,3,2,1,70,0,0
113583,333.333333333333,4,2,1,70,1,0
120249,-83.3333333333333,4,2,1,90,0,1
128249,-83.3333333333333,4,2,1,90,0,0
128582,-83.3333333333333,4,2,1,90,0,1
130582,-83.3333333333333,4,2,2,90,0,1
130916,-83.3333333333333,4,2,1,90,0,1
138916,-83.3333333333333,4,2,1,90,0,0
139249,-83.3333333333333,4,2,1,90,0,1
141582,-83.3333333333333,4,2,1,90,0,0
142249,-83.3333333333333,4,2,1,90,0,1
144249,333.333333333333,5,2,2,80,1,0
151249,333.333333333333,5,2,2,80,1,0
158249,333.333333333333,4,2,1,80,1,0
158249,-83.3333333333333,4,2,1,80,0,0
171249,-83.3333333333333,4,2,3,80,0,0
171332,-83.3333333333333,4,2,4,80,0,0
171415,-83.3333333333333,4,2,5,80,0,0
171499,-83.3333333333333,4,2,6,80,0,0
171582,-83.3333333333333,4,2,1,80,0,0
173748,-100,4,2,4,80,0,0
173915,-100,4,2,5,80,0,0
174082,-100,4,2,6,80,0,0
174248,-100,4,2,1,80,0,0
182915,-125,4,2,4,60,0,0
183415,-125,4,2,1,60,0,0
184415,-125,4,2,3,60,0,0
184582,-125,4,2,4,60,0,0
184748,-125,4,2,5,60,0,0
184915,-125,4,2,1,60,0,0
189582,-125,4,2,1,90,0,0
190248,-83.3333333333333,4,2,1,90,0,1
192915,-76.9230769230769,4,2,1,90,0,1
195582,-100,4,2,1,70,0,0
196582,-100,4,2,2,70,0,0
196915,-83.3333333333333,4,2,1,90,0,1
204915,-83.3333333333333,4,2,1,90,0,0
205248,-83.3333333333333,4,2,1,90,0,1
207248,-83.3333333333333,4,2,2,90,0,1
207582,-83.3333333333333,4,2,1,90,0,1
212582,-166.666666666667,4,2,1,90,0,0
212915,-83.3333333333333,4,2,1,90,0,1
215582,-83.3333333333333,4,2,1,90,0,0
215915,-83.3333333333333,4,2,1,90,0,1
218248,-83.3333333333333,4,2,1,90,0,0
218915,-83.3333333333333,4,2,1,90,0,1
220914,333.333333333333,7,2,2,80,1,0

[Colours]
Combo1 : 223,96,130
Combo2 : 174,167,166
Combo3 : 136,140,139
Combo4 : 154,101,154

[HitObjects]
120,224,587,6,0,B|160:248|208:240|208:240|185:257,1,120,4|0,1:2|0:2,0:2:0:0:
56,295,1086,2,0,P|47:235|29:178,1,120,2|0,0:2|0:2,0:2:0:0:
88,128,1586,2,0,P|91:113|94:98,1,30,2|0,0:2|0:2,0:2:0:0:
168,80,1920,2,0,P|175:66|181:53,1,30,2|0,0:2|0:2,0:2:0:0:
168,80,2586,6,0,P|209:120|266:114,1,120,2|0,0:2|0:2,0:2:0:0:
336,0,3086,2,0,B|312:32|311:53|311:53|336:72|344:102,1,120,2|0,0:2|0:2,0:2:0:0:
408,144,3586,2,0,P|403:158|398:172,1,30,2|0,0:2|0:2,0:2:0:0:
448,224,3920,2,0,P|440:236|431:248,1,30,2|0,0:2|0:2,0:2:0:0:
336,280,4253,38,0,P|277:282|234:322,1,120,2|0,1:2|0:2,0:2:0:0:
120,368,4752,2,0,P|106:310|133:258,1,120,2|0,0:2|0:2,0:2:0:0:
208,240,5252,2,0,P|212:225|215:211,1,30,2|0,0:2|0:2,0:2:0:0:
280,168,5586,2,0,P|277:153|272:139,1,30,2|0,0:2|0:2,0:2:0:0:
280,168,6252,6,0,B|320:144|368:152|368:152|345:134,1,120,2|0,1:2|0:2,0:2:0:0:
272,32,6752,2,0,B|240:56|219:57|219:57|200:32|169:23,1,120,2|0,0:2|0:2,0:2:0:0:
96,40,7252,2,0,P|100:54|106:68,1,30,2|0,0:2|0:2,0:2:0:0:
80,136,7586,2,0,P|90:146|102:155,1,30,2|0,0:2|0:2,0:2:0:0:
120,232,7919,38,0,P|162:216|206:218,1,90,2|0,0:2|0:2,0:2:0:0:
264,256,8252,22,0,B|280:320|280:320|238:355,1,120,4|0,1:2|0:2,0:2:0:0:
94,331,8752,2,0,B|78:267|78:267|119:231,1,120,2|0,1:2|0:2,0:2:0:0:
184,288,9252,1,2,1:2:0:0:
184,288,9419,1,2,0:2:0:0:
320,200,9586,1,10,0:2:0:0:
320,200,10252,6,0,P|373:221|390:277,1,120,2|0,1:2|0:2,0:2:0:0:
480,384,10752,2,0,P|471:326|511:284,1,120,2|0,1:2|0:2,0:2:0:0:
464,184,11252,1,2,1:2:0:0:
464,184,11419,1,2,0:2:0:0:
312,280,11586,2,0,P|282:285|253:294,1,60,2|0,1:2|0:2,0:2:0:0:
384,376,11919,1,10,0:2:0:0:
216,192,12252,38,0,B|224:144|224:144|242:131|242:131|251:83,1,120,2|0,1:2|0:2,0:2:0:0:
368,32,12752,2,0,B|376:80|376:80|395:93|395:93|403:140,1,120,2|0,1:2|0:2,0:2:0:0:
320,200,13252,1,2,1:2:0:0:
320,200,13419,1,2,0:2:0:0:
168,80,13586,1,10,0:2:0:0:
168,80,14252,6,0,P|112:103|54:117,1,120,2|0,1:2|0:2,0:2:0:0:
168,256,14752,2,0,P|197:262|225:273,1,60,2|0,1:2|0:2,0:2:0:0:
144,184,15086,1,2,0:2:0:0:
64,296,15252,38,0,P|71:325|77:354,1,60,2|0,1:2|0:2,0:2:0:0:
242,216,15586,2,0,P|233:244|224:273,1,60,8|0,0:2|0:2,0:2:0:0:
436,235,15919,2,0,P|414:255|392:275,1,60,10|0,0:2|0:2,0:2:0:0:
360,344,16252,6,0,P|302:336|265:380,1,120,4|0,1:2|0:2,0:2:0:0:
336,216,16752,2,0,P|325:156|311:98,1,120,2|0,1:2|0:2,0:2:0:0:
256,56,17252,1,2,1:2:0:0:
248,128,17419,1,2,0:2:0:0:
408,48,17586,1,10,0:2:0:0:
408,48,18252,38,0,B|456:40|496:16|496:16|486:39,1,120,2|0,1:2|0:2,0:2:0:0:
376,168,18752,2,0,P|330:131|331:73,1,120,2|0,1:2|0:2,0:2:0:0:
320,0,19252,1,2,1:2:0:0:
264,48,19419,1,2,0:2:0:0:
432,120,19586,2,0,P|461:123|490:131,1,60,2|0,1:2|0:2,0:2:0:0:
368,240,19919,1,10,0:2:0:0:
192,48,20252,6,0,B|144:13|144:13|86:31,1,120,2|0,1:2|0:2,0:2:0:0:
24,136,20752,2,0,P|37:194|45:253,1,120,2|0,1:2|0:2,0:2:0:0:
104,296,21252,1,2,1:2:0:0:
40,328,21419,1,2,0:2:0:0:
136,176,21586,1,10,0:2:0:0:
136,176,22252,38,0,P|194:188|249:212,1,120,2|0,1:2|0:2,0:2:0:0:
328,360,22752,2,0,P|355:347|384:341,1,60,2|0,1:2|0:2,0:2:0:0:
448,384,23086,1,2,1:2:0:0:
344,256,23252,6,0,P|340:226|332:197,1,60,10|0,0:2|0:2,0:2:0:0:
176,272,23586,2,0,P|203:283|232:291,1,60,2|0,0:2|0:2,0:2:0:0:
246,118,23919,2,0,P|222:136|200:157,1,60,2|0,0:2|0:2,0:2:0:0:
248,224,24252,37,4,1:2:0:0:
264,216,24418,1,2,0:2:0:0:
200,157,24585,37,2,1:2:0:0:
176,232,24752,1,2,0:2:0:0:
312,312,24918,5,2,1:2:0:0:
340,222,25085,1,2,0:2:0:0:
144,320,25252,37,10,0:2:0:0:
137,322,25307,1,2,0:2:0:0:
129,324,25363,1,2,0:2:0:0:
121,326,25418,1,2,0:2:0:0:
48,352,25585,5,2,1:2:0:0:
64,280,25752,1,2,0:2:0:0:
184,85,25918,37,2,1:2:0:0:
200,157,26085,1,2,0:2:0:0:
312,312,26251,5,10,0:2:0:0:
320,296,26418,1,2,0:2:0:0:
336,224,26585,37,2,1:2:0:0:
264,248,26751,1,2,0:2:0:0:
360,360,26918,5,2,1:2:0:0:
480,384,27085,1,2,0:2:0:0:
448,184,27251,37,2,1:2:0:0:
446,177,27306,1,2,0:2:0:0:
444,169,27362,1,2,0:2:0:0:
442,161,27417,1,2,0:2:0:0:
408,96,27585,5,10,0:2:0:0:
376,160,27751,1,2,0:2:0:0:
488,240,27918,37,2,1:2:0:0:
480,104,28085,1,2,0:2:0:0:
272,0,28251,5,2,1:2:0:0:
312,192,28418,1,2,0:2:0:0:
352,384,28585,1,10,0:2:0:0:
336,376,28751,1,10,0:2:0:0:
232,320,28918,37,4,1:2:0:0:
248,312,29085,1,2,0:2:0:0:
344,264,29251,5,2,1:2:0:0:
248,240,29418,1,2,0:2:0:0:
160,120,29585,37,2,1:2:0:0:
288,88,29751,1,2,0:2:0:0:
168,32,29918,5,10,0:2:0:0:
161,34,29973,1,2,0:2:0:0:
153,36,30029,1,2,0:2:0:0:
145,38,30084,1,2,0:2:0:0:
83,102,30252,37,2,1:2:0:0:
160,120,30418,1,2,0:2:0:0:
96,264,30585,5,2,1:2:0:0:
19,282,30751,1,2,0:2:0:0:
208,384,30918,37,10,0:2:0:0:
248,240,31085,1,2,0:2:0:0:
288,96,31251,5,2,1:2:0:0:
288,96,31418,1,2,0:2:0:0:
288,96,31585,1,2,1:2:0:0:
288,96,31751,1,2,0:2:0:0:
136,24,31918,37,2,1:2:0:0:
138,31,31973,1,2,0:2:0:0:
140,39,32029,1,2,0:2:0:0:
142,47,32084,1,2,0:2:0:0:
160,120,32251,5,10,0:2:0:0:
216,72,32418,1,2,0:2:0:0:
360,224,32585,37,10,1:2:0:0:
295,216,32696,5,10,0:2:0:0:
252,267,32807,37,10,0:2:0:0:
208,320,32918,5,10,0:2:0:0:
172,323,33029,37,10,0:2:0:0:
148,296,33140,5,10,0:2:0:0:
88,256,33251,37,10,0:2:0:0:
70,254,33362,5,10,0:2:0:0:
58,268,33473,37,10,0:2:0:0:
72,344,33586,6,0,P|141:331|157:262,1,150,4|0,1:2|0:2,0:2:0:0:
156,261,34086,1,2,1:2:0:0:
256,368,34252,2,0,P|293:372|328:383,1,75,10|0,0:2|0:2,0:2:0:0:
424,304,34586,6,0,B|433:267|433:267|410:237,1,75,2|0,1:2|0:2,0:2:0:0:
264,224,34919,2,0,B|291:250|291:250|328:245,1,75,2|0,1:2|0:2,0:2:0:0:
413,125,35252,2,0,B|376:135|376:135|362:169,1,75,10|0,0:2|0:2,0:2:0:0:
272,64,35586,38,0,P|346:57|416:31,1,150,2|0,1:2|0:2,0:2:0:0:
264,144,36086,2,0,P|228:132|191:127,1,75,2|8,1:2|0:2,0:2:0:0:
144,48,36419,1,2,0:2:0:0:
0,128,36586,5,2,1:2:0:0:
24,200,36752,1,2,0:2:0:0:
48,272,36919,1,2,1:2:0:0:
80,344,37086,1,2,0:2:0:0:
80,344,37169,1,2,0:2:0:0:
80,343,37252,2,0,P|133:338|154:289,1,112.5,10|0,0:2|0:2,0:2:0:0:
221,273,37585,38,0,P|209:199|191:127,1,150,4|0,1:2|0:2,0:2:0:0:
191,127,38085,1,2,1:2:0:0:
344,88,38252,2,0,P|349:50|359:14,1,75,10|0,0:2|0:2,0:2:0:0:
183,43,38585,6,0,P|251:66|271:136,2,150,2|0|8,1:2|1:2|0:2,0:2:0:0:
352,248,39585,38,0,B|424:232|424:232|479:284,1,150,2|0,1:2|0:2,0:2:0:0:
424,384,40085,2,0,P|414:347|403:312,1,75,2|8,1:2|0:2,0:2:0:0:
328,320,40419,1,2,0:2:0:0:
496,120,40585,5,4,1:2:0:0:
352,168,40752,1,10,0:2:0:0:
352,168,40835,1,10,0:2:0:0:
352,168,40919,1,10,0:2:0:0:
208,216,41085,1,10,1:2:0:0:
64,264,41252,1,10,1:2:0:0:
72,248,41419,1,10,1:2:0:0:
264,368,41585,38,0,B|318:353|318:353|347:370|347:370|405:354,1,150,4|0,1:2|1:2,0:2:0:0:
296,232,42085,1,2,0:2:0:0:
456,192,42252,2,0,P|460:154|467:117,1,75,10|2,0:2|0:2,0:2:0:0:
467,117,42502,1,2,0:2:0:0:
467,117,42585,5,2,1:2:0:0:
312,24,42752,1,2,0:2:0:0:
312,24,42835,1,2,0:2:0:0:
312,24,42919,1,2,1:2:0:0:
328,96,43085,1,2,0:2:0:0:
176,160,43252,1,10,0:2:0:0:
192,88,43418,1,2,0:2:0:0:
295,232,43585,38,0,P|259:238|223:251,1,75,2|2,1:2|0:2,0:2:0:0:
223,251,43835,1,2,0:2:0:0:
223,251,43919,1,2,1:2:0:0:
152,240,44085,1,2,0:2:0:0:
48,360,44252,1,10,0:2:0:0:
119,371,44418,1,2,0:2:0:0:
48,192,44585,5,2,1:2:0:0:
192,336,44752,1,10,0:2:0:0:
192,336,44835,1,10,0:2:0:0:
192,336,44919,2,0,P|210:331|228:327,1,37.5,10|0,0:2|0:2,0:2:0:0:
296,232,45085,37,10,0:2:0:0:
303,234,45141,1,10,0:2:0:0:
311,236,45197,1,10,0:2:0:0:
319,238,45252,2,0,L|343:244,5,25,10|0|0|0|0|0,1:2|1:2|1:2|1:2|1:2|1:2,0:2:0:0:
376,304,45585,5,12,1:2:0:0:
312,160,45751,1,2,1:2:0:0:
155,143,45918,1,2,1:2:0:0:
176,384,46085,37,10,1:2:0:0:
216,224,46251,1,2,1:2:0:0:
256,64,46418,1,2,1:2:0:0:
408,176,46585,5,10,1:2:0:0:
408,176,46751,1,2,1:2:0:0:
408,176,46918,1,2,1:2:0:0:
392,104,47085,37,10,1:2:0:0:
354,226,47251,1,2,1:2:0:0:
478,197,47418,1,2,1:2:0:0:
478,197,47502,1,2,1:2:0:0:
478,197,47585,5,12,1:2:0:0:
328,152,47751,1,2,1:2:0:0:
216,296,47918,1,12,1:2:0:0:
176,304,48001,1,2,1:2:0:0:
136,312,48085,1,2,1:2:0:0:
96,320,48168,1,2,1:2:0:0:
56,328,48251,37,12,1:2:0:0:
216,224,48418,1,2,1:2:0:0:
357,351,48585,1,2,1:2:0:0:
152,384,48751,5,10,1:2:0:0:
123,211,48918,1,2,1:2:0:0:
94,38,49085,1,2,1:2:0:0:
320,72,49251,37,10,1:2:0:0:
320,72,49418,1,2,1:2:0:0:
320,72,49584,1,2,1:2:0:0:
27,195,49751,5,10,1:2:0:0:
91,123,49918,1,2,1:2:0:0:
123,211,50084,1,2,1:2:0:0:
123,211,50168,1,2,1:2:0:0:
123,211,50251,37,10,1:2:0:0:
56,288,50418,1,2,1:2:0:0:
216,384,50584,5,8,0:2:0:0:
223,381,50640,1,8,0:2:0:0:
231,379,50696,1,8,0:2:0:0:
240,376,50751,2,0,L|235:351,2,25,8|8|8,0:2|0:2|0:2,0:2:0:0:
304,384,50918,6,0,L|309:346,1,37.5,10|0,1:2|0:2,0:2:0:0:
360,304,51084,2,0,L|346:269,1,37.5,2|0,1:2|0:2,0:2:0:0:
376,208,51251,2,0,L|346:184,1,37.5,10|0,0:2|0:2,0:2:0:0:
304,120,51418,5,10,0:2:0:0:
273,98,51501,1,10,0:2:0:0:
236,94,51584,1,2,1:2:0:0:
202,109,51668,1,2,0:2:0:0:
180,139,51751,1,2,1:2:0:0:
175,175,51834,1,2,0:2:0:0:
224,224,51918,5,2,1:2:0:0:
254,218,52001,5,2,1:2:0:0:
224,224,52084,37,2,1:2:0:0:
254,218,52168,5,2,1:2:0:0:
200,288,52251,38,0,B|146:270|116:311|118:319|96:358|41:346,1,179.999994506836,4|8,1:2|0:2,0:2:0:0:
392,128,52751,2,0,B|409:88|409:88|384:48,1,89.9999972534181,2|0,0:2|1:2,0:2:0:0:
288,24,53084,1,2,0:2:0:0:
384,223,53251,2,0,P|428:231|471:244,1,89.9999972534181,10|0,0:2|0:2,0:2:0:0:
264,384,53584,5,2,1:2:0:0:
232,264,53751,1,2,0:2:0:0:
200,144,53918,1,10,0:2:0:0:
168,24,54084,2,0,P|85:42|69:126,1,179.999994506836,2|0,0:2|0:2,0:2:0:0:
136,208,54584,1,10,0:2:0:0:
40,224,54751,1,2,0:2:0:0:
287,64,54918,38,0,P|352:83|418:95,1,134.999995880127,4|0,1:2|0:2,0:2:0:0:
480,64,55251,1,10,0:2:0:0:
288,184,55418,2,0,B|264:224|264:224|277:265,1,89.9999972534181,2|0,0:2|1:2,0:2:0:0:
440,368,55751,1,2,0:2:0:0:
464,176,55918,2,0,P|399:176|367:232,1,134.999995880127,10|0,0:2|0:2,0:2:0:0:
400,296,56251,5,2,1:2:0:0:
344,112,56418,1,2,0:2:0:0:
160,168,56584,1,10,0:2:0:0:
216,352,56751,1,2,1:2:0:0:
224,336,56834,1,2,1:2:0:0:
232,320,56918,37,2,1:2:0:0:
42,120,57084,1,10,0:2:0:0:
50,160,57168,1,10,0:2:0:0:
58,200,57251,1,10,0:2:0:0:
66,240,57334,1,10,0:2:0:0:
82,282,57418,1,10,0:2:0:0:
82,282,57501,1,10,0:2:0:0:
82,282,57584,6,0,P|161:252|159:167,1,179.999994506836,4|8,1:2|0:2,0:2:0:0:
344,112,58084,1,2,0:2:0:0:
344,112,58168,1,2,0:2:0:0:
344,111,58251,2,0,P|348:66|357:22,1,89.9999972534181,2|0,1:2|0:2,0:2:0:0:
48,56,58584,2,0,B|96:56|96:56|122:88,1,89.9999972534181,10|0,0:2|0:2,0:2:0:0:
256,0,58918,37,2,1:2:0:0:
230,125,59084,1,2,0:2:0:0:
205,250,59251,1,10,0:2:0:0:
180,375,59418,2,0,P|224:366|268:358,1,89.9999972534181,2|0,0:2|1:2,0:2:0:0:
320,288,59751,1,2,0:2:0:0:
360,368,59918,1,10,0:2:0:0:
416,296,60084,1,10,0:2:0:0:
416,296,60168,1,10,0:2:0:0:
416,296,60251,5,10,1:2:0:0:
416,296,60584,2,0,B|433:256|433:256|413:213,1,89.9999972534181,12|0,1:2|0:2,0:2:0:0:
304,144,60918,1,2,1:2:0:0:
184,184,61084,1,2,1:2:0:0:
288,248,61251,1,10,0:2:0:0:
88,377,61418,38,0,P|75:288|58:200,1,179.999994506836,4|0,1:2|0:2,0:2:0:0:
216,72,61918,1,10,0:2:0:0:
376,152,62084,1,2,1:2:0:0:
296,312,62251,1,2,1:2:0:0:
136,232,62418,1,2,1:2:0:0:
264,208,62584,5,10,0:2:0:0:
253,179,62667,37,10,0:2:0:0:
264,208,62750,5,10,0:2:0:0:
253,179,62834,37,10,0:2:0:0:
304,128,62918,6,0,B|365:111|365:111|397:136|397:136|470:116,1,179.999994506836,4|8,1:2|0:2,0:2:0:0:
152,16,63418,2,0,B|130:56|130:56|146:97,1,89.9999972534181,2|0,0:2|1:2,0:2:0:0:
312,40,63751,1,2,0:2:0:0:
144,216,63918,2,0,P|99:220|54:228,1,89.9999972534181,10|0,0:2|0:2,0:2:0:0:
240,0,64251,37,2,1:2:0:0:
272,123,64418,1,2,0:2:0:0:
305,246,64584,1,10,0:2:0:0:
338,369,64751,2,0,P|416:338|410:254,1,179.999994506836,2|2,0:2|0:2,0:2:0:0:
232,192,65251,1,10,0:2:0:0:
352,40,65418,1,2,1:2:0:0:
352,40,65501,1,2,1:2:0:0:
352,40,65584,6,0,B|398:16|446:32|446:32|462:80|502:87,1,179.999994506836,4|8,1:2|0:2,0:2:0:0:
160,344,66084,2,0,B|113:367|65:351|65:351|49:303|9:296,1,179.999994506836,2|0,1:2|1:2,0:2:0:0:
304,224,66584,1,10,0:2:0:0:
56,160,66751,38,0,B|9:144|9:144|-22:80|42:29,1,179.999994506836,4|0,1:2|1:2,0:2:0:0:
264,0,67251,1,10,0:2:0:0:
208,192,67418,1,2,1:2:0:0:
152,384,67584,1,2,1:2:0:0:
312,240,67751,5,10,0:2:0:0:
333,234,67834,1,10,0:2:0:0:
355,235,67917,1,10,0:2:0:0:
376,244,68000,1,10,0:2:0:0:
392,260,68084,1,10,0:2:0:0:
401,280,68167,1,10,0:2:0:0:
404,302,68251,38,0,B|350:284|320:325|322:333|300:372|245:360,1,179.999994506836,4|8,1:2|0:2,0:2:0:0:
392,72,68751,2,0,P|473:97|485:181,1,179.999994506836,2|0,1:2|1:2,0:2:0:0:
208,192,69251,1,10,0:2:0:0:
165,183,69334,1,10,0:2:0:0:
123,174,69418,1,10,0:2:0:0:
81,165,69501,1,10,0:2:0:0:
39,156,69584,5,4,1:2:0:0:
128,112,69751,1,2,1:2:0:0:
122,212,69918,1,10,0:2:0:0:
328,376,70084,38,0,P|340:286|362:199,1,179.999994506836,4|0,1:2|1:2,0:2:0:0:
218,5,70584,1,10,0:2:0:0:
173,3,70667,1,10,0:2:0:0:
136,27,70750,1,10,0:2:0:0:
119,68,70833,1,10,0:2:0:0:
128,112,70917,5,10,1:2:0:0:
128,112,71251,2,0,P|172:114|214:130,1,89.9999972534181,12|0,1:2|1:2,0:2:0:0:
214,130,71501,1,2,1:2:0:0:
214,130,71584,1,2,1:2:0:0:
200,208,71751,1,2,1:2:0:0:
184,280,71918,1,2,1:2:0:0:
360,375,72084,38,0,P|351:292|269:273,1,179.999994506836,4|8,1:2|0:2,0:2:0:0:
168,352,72584,1,10,0:2:0:0:
376,280,72751,1,10,0:2:0:0:
304,72,72918,1,10,0:2:0:0:
96,144,73084,1,10,0:2:0:0:
111,148,73168,1,10,0:2:0:0:
126,152,73252,1,10,0:2:0:0:
142,156,73335,1,10,0:2:0:0:
157,160,73418,1,10,0:2:0:0:
173,164,73502,1,10,0:2:0:0:
188,168,73585,5,12,1:2:0:0:
188,168,73918,1,4,1:2:0:0:
188,168,74251,2,0,B|210:128|210:128|191:87,1,89.9999972534181,12|0,1:2|1:2,0:2:0:0:
8,208,74584,1,2,1:2:0:0:
201,317,74751,38,0,B|255:299|285:340|283:348|305:387|360:375,1,179.999994506836,4|8,1:2|0:2,0:2:0:0:
384,248,75251,1,10,0:2:0:0:
409,121,75418,2,0,L|403:76,1,44.999998626709,2|0,1:2|1:2,0:2:0:0:
336,31,75584,5,10,1:2:0:0:
330,53,75667,1,10,0:2:0:0:
326,75,75750,1,10,0:2:0:0:
321,97,75833,1,10,0:2:0:0:
288,104,75918,37,10,1:2:0:0:
296,143,76001,1,10,0:2:0:0:
304,182,76084,1,10,0:2:0:0:
311,222,76167,1,10,0:2:0:0:
319,261,76251,37,12,1:2:0:0:
240,248,76417,1,2,0:2:0:0:
88,168,76584,5,10,0:2:0:0:
208,144,76751,1,2,0:2:0:0:
120,264,76917,37,2,1:2:0:0:
136,96,77084,1,2,0:2:0:0:
240,248,77251,5,10,0:2:0:0:
242,255,77306,1,2,0:2:0:0:
244,263,77362,1,2,0:2:0:0:
246,271,77417,1,2,0:2:0:0:
304,322,77585,37,2,1:2:0:0:
232,344,77751,1,2,0:2:0:0:
304,144,77917,5,10,0:2:0:0:
376,168,78083,1,2,0:2:0:0:
304,24,78251,37,2,1:2:0:0:
272,32,78417,1,10,0:2:0:0:
360,72,78584,5,2,1:2:0:0:
376,0,78751,1,2,0:2:0:0:
208,144,78917,37,10,0:2:0:0:
240,248,79084,1,2,0:2:0:0:
72,112,79251,5,2,1:2:0:0:
74,105,79306,1,2,0:2:0:0:
76,97,79362,1,2,0:2:0:0:
78,89,79417,1,2,0:2:0:0:
136,48,79584,37,10,0:2:0:0:
144,112,79751,1,2,0:2:0:0:
88,200,79917,5,2,1:2:0:0:
200,16,80084,1,2,0:2:0:0:
408,104,80251,37,10,0:2:0:0:
208,144,80417,1,2,0:2:0:0:
8,184,80584,1,2,1:2:0:0:
0,200,80751,1,10,0:2:0:0:
160,240,80917,5,4,1:2:0:0:
152,224,81084,1,2,0:2:0:0:
104,288,81251,37,10,0:2:0:0:
168,312,81417,1,2,0:2:0:0:
320,208,81584,5,2,1:2:0:0:
224,216,81751,1,2,0:2:0:0:
344,328,81917,37,10,0:2:0:0:
351,326,81972,1,2,0:2:0:0:
359,324,82028,1,2,0:2:0:0:
367,322,82083,1,2,0:2:0:0:
400,256,82251,5,2,1:2:0:0:
392,184,82417,1,2,0:2:0:0:
272,48,82584,37,10,0:2:0:0:
264,120,82750,1,2,0:2:0:0:
72,216,82917,5,2,1:2:0:0:
48,88,83084,1,10,0:2:0:0:
200,224,83251,37,2,1:2:0:0:
200,224,83417,1,2,0:2:0:0:
200,224,83584,1,10,0:2:0:0:
200,224,83750,1,2,0:2:0:0:
126,305,83917,5,2,1:2:0:0:
124,313,83972,1,2,0:2:0:0:
122,321,84028,1,2,0:2:0:0:
120,328,84083,1,2,0:2:0:0:
192,352,84250,37,10,0:2:0:0:
272,192,84417,1,2,1:2:0:0:
200,88,84584,5,2,1:2:0:0:
264,376,84750,1,10,0:2:0:0:
328,288,84917,37,2,0:2:0:0:
248,304,85084,1,2,0:2:0:0:
320,304,85250,5,2,0:2:0:0:
256,288,85417,1,2,0:2:0:0:
432,168,85584,6,0,P|415:110|408:50,1,120,4|0,1:2|0:2,0:2:0:0:
248,178,86084,2,0,P|264:236|272:296,1,120,2|0,1:2|0:2,0:2:0:0:
336,160,86584,2,0,P|325:131|320:102,1,60,2|0,1:2|0:2,0:2:0:0:
504,224,86917,1,10,0:2:0:0:
504,224,87584,38,0,B|444:215|444:215|405:259,1,120,2|0,1:2|0:2,0:2:0:0:
464,368,88084,2,0,L|470:308,1,60,2|0,1:2|0:2,0:2:0:0:
392,344,88417,1,2,0:2:0:0:
272,296,88584,1,10,0:2:0:0:
268,273,88667,1,10,0:2:0:0:
265,251,88750,1,10,0:2:0:0:
261,229,88833,1,10,0:2:0:0:
258,207,88917,1,10,0:2:0:0:
0,368,89250,1,2,1:2:0:0:
152,384,89584,6,0,P|159:326|115:289,1,120,2|0,1:2|0:2,0:2:0:0:
0,184,90084,2,0,P|45:219|100:200,1,120,2|0,1:2|0:2,0:2:0:0:
112,128,90584,1,2,1:2:0:0:
168,176,90750,1,2,0:2:0:0:
256,0,90917,1,10,0:2:0:0:
256,0,91584,38,0,P|231:53|235:113,1,120,2|0,1:2|0:2,0:2:0:0:
112,257,92084,2,0,P|109:227|99:199,1,60,2|0,1:2|0:2,0:2:0:0:
256,200,92417,1,0,0:2:0:0:
232,368,92584,1,10,0:2:0:0:
209,369,92667,1,10,0:2:0:0:
187,372,92750,1,10,0:2:0:0:
165,376,92833,1,10,0:2:0:0:
143,382,92917,2,0,B|133:354|133:354|141:324,1,60,10|0,0:2|0:2,0:2:0:0:
360,192,93250,2,0,B|384:232|384:232|367:272,1,90,10|0,0:2|0:2,0:2:0:0:
322,325,93583,6,0,P|264:321|232:368,1,120,4|0,1:2|0:2,0:2:0:0:
472,384,94083,2,0,P|456:326|453:266,1,120,2|0,1:2|0:2,0:2:0:0:
448,192,94583,1,2,1:2:0:0:
512,216,94750,1,2,0:2:0:0:
256,200,94917,1,10,0:2:0:0:
256,200,95583,38,0,B|232:144|232:144|261:92,1,120,2|0,1:2|0:2,0:2:0:0:
384,136,96083,2,0,P|354:141|325:148,1,60,2|0,1:2|0:2,0:2:0:0:
288,288,96417,1,2,0:2:0:0:
160,200,96583,1,10,0:2:0:0:
137,195,96666,1,10,0:2:0:0:
116,190,96749,1,10,0:2:0:0:
94,184,96832,1,10,0:2:0:0:
73,176,96916,1,10,0:2:0:0:
336,24,97250,1,2,1:2:0:0:
160,0,97583,6,0,P|126:47|142:102,1,120,2|0,1:2|0:2,0:2:0:0:
96,264,98083,2,0,P|67:256|37:255,1,60,2|0,1:2|0:2,0:2:0:0:
48,96,98417,1,2,0:2:0:0:
160,200,98583,38,0,P|188:192|218:191,1,60,2|0,1:2|0:2,0:2:0:0:
72,368,98917,1,10,0:2:0:0:
72,368,99250,1,2,0:2:0:0:
200,280,99417,1,2,0:2:0:0:
328,360,99583,6,0,P|387:365|444:382,1,120,2|0,1:2|0:2,0:2:0:0:
512,208,100083,2,0,P|482:210|452:216,1,60,2|0,1:2|0:2,0:2:0:0:
392,280,100417,1,2,1:2:0:0:
312,32,100583,37,8,0:2:0:0:
392,32,100750,1,10,0:2:0:0:
387,47,100833,1,10,0:2:0:0:
383,62,100917,1,10,0:2:0:0:
379,78,101000,1,10,0:2:0:0:
375,93,101083,1,10,0:2:0:0:
371,109,101167,1,10,0:2:0:0:
366,124,101250,2,0,P|322:110|278:102,1,90,10|0,0:2|0:2,0:2:0:0:
240,160,101583,6,0,B|162:147|178:209|100:200,1,150,4|0,1:2|0:2,0:2:0:0:
101,200,102083,1,2,1:2:0:0:
224,240,102250,2,0,B|237:274|237:274|228:311,1,75,10|0,0:2|0:2,0:2:0:0:
392,280,102583,38,0,P|428:288|465:294,1,75,2|0,1:2|0:2,0:2:0:0:
368,152,102917,2,0,P|342:179|318:208,1,75,2|0,1:2|0:2,0:2:0:0:
490,195,103250,2,0,P|479:159|465:124,1,75,10|0,0:2|0:2,0:2:0:0:
312,24,103583,6,0,B|298:58|298:58|307:95,1,75,2|0,1:2|0:2,0:2:0:0:
376,64,103917,1,0,0:2:0:0:
192,0,104083,1,2,1:2:0:0:
144,56,104250,2,0,P|106:61|70:70,1,75,8|2,0:2|0:2,0:2:0:0:
56,296,104583,37,2,1:2:0:0:
128,272,104750,1,2,0:2:0:0:
104,200,104917,1,2,1:2:0:0:
32,224,105083,1,2,0:2:0:0:
128,272,105250,2,0,P|183:282|234:304,1,112.5,10|0,0:2|0:2,0:2:0:0:
271,367,105583,6,0,P|341:354|358:285,1,150,4|0,1:2|0:2,0:2:0:0:
440,320,106083,1,2,1:2:0:0:
320,216,106250,2,0,P|312:179|301:143,1,75,10|0,0:2|0:2,0:2:0:0:
424,24,106583,38,0,P|407:97|400:171,2,150,2|0|8,1:2|1:2|0:2,0:2:0:0:
216,200,107583,6,0,P|146:186|129:117,1,150,2|0,1:2|0:2,0:2:0:0:
56,72,108083,1,2,1:2:0:0:
216,8,108250,2,0,P|205:43|197:80,1,75,8|2,0:2|0:2,0:2:0:0:
0,240,108583,37,4,1:2:0:0:
152,288,108750,1,10,0:2:0:0:
152,288,108833,1,10,0:2:0:0:
152,288,108917,1,10,0:2:0:0:
304,336,109083,1,10,1:2:0:0:
456,384,109250,1,10,1:2:0:0:
448,368,109417,1,10,1:2:0:0:
304,152,109583,6,0,B|284:186|284:186|294:220,1,75,4|0,1:2|0:2,0:2:0:0:
480,296,109917,2,0,B|499:261|499:261|489:227,1,75,0|0,1:2|0:2,0:2:0:0:
432,176,110250,1,10,0:2:0:0:
504,152,110417,1,2,0:2:0:0:
320,32,110583,38,0,P|282:35|246:45,1,75,2|2,1:2|0:2,0:2:0:0:
246,45,110833,1,2,0:2:0:0:
246,45,110917,1,2,1:2:0:0:
240,120,111083,1,2,0:2:0:0:
64,200,111250,1,10,0:2:0:0:
58,125,111416,1,0,0:2:0:0:
184,248,111583,5,2,1:2:0:0:
112,272,111750,1,2,0:2:0:0:
112,272,111833,1,2,0:2:0:0:
112,272,111917,1,2,1:2:0:0:
232,368,112083,1,2,0:2:0:0:
256,217,112250,1,10,0:2:0:0:
280,66,112417,1,2,0:2:0:0:
144,176,112583,37,2,1:2:0:0:
288,296,112750,1,10,0:2:0:0:
311,293,112833,1,10,0:2:0:0:
335,291,112917,2,0,L|372:287,1,37.5,10|0,0:2|0:2,0:2:0:0:
456,352,113083,1,10,0:2:0:0:
456,344,113139,1,10,0:2:0:0:
457,336,113195,1,10,0:2:0:0:
458,328,113250,2,0,L|460:303,5,25,10|0|0|0|0|0,1:2|1:2|1:2|1:2|1:2|1:2,0:2:0:0:
512,256,113583,5,12,1:2:0:0:
368,192,113749,1,2,1:2:0:0:
240,284,113916,1,2,1:2:0:0:
392,384,114083,37,10,1:2:0:0:
432,224,114249,1,2,1:2:0:0:
472,64,114416,1,2,1:2:0:0:
256,144,114583,5,10,1:2:0:0:
232,72,114749,1,2,1:2:0:0:
306,87,114916,1,2,1:2:0:0:
139,189,115083,37,10,1:2:0:0:
208,7,115249,1,2,1:2:0:0:
331,157,115416,1,2,1:2:0:0:
331,157,115500,1,2,1:2:0:0:
331,157,115583,5,12,1:2:0:0:
184,128,115749,1,2,1:2:0:0:
37,99,115916,1,12,1:2:0:0:
45,139,115999,1,2,1:2:0:0:
53,179,116083,1,2,1:2:0:0:
61,219,116166,1,2,1:2:0:0:
69,259,116249,37,12,1:2:0:0:
232,312,116416,1,2,1:2:0:0:
359,197,116583,1,2,1:2:0:0:
208,7,116749,5,10,1:2:0:0:
264,167,116916,1,2,1:2:0:0:
320,327,117083,1,2,1:2:0:0:
512,192,117249,37,10,1:2:0:0:
448,152,117416,1,2,1:2:0:0:
446,228,117583,1,2,1:2:0:0:
496,64,117749,5,10,1:2:0:0:
332,20,117916,1,2,1:2:0:0:
376,184,118083,1,2,1:2:0:0:
376,184,118166,1,2,1:2:0:0:
376,184,118249,37,10,1:2:0:0:
400,96,118416,1,2,1:2:0:0:
248,16,118583,5,8,0:2:0:0:
241,19,118639,1,8,0:2:0:0:
233,21,118694,1,8,0:2:0:0:
226,24,118749,2,0,L|234:64,2,25,8|8|8,0:2|0:2|0:2,0:2:0:0:
160,32,118916,6,0,L|155:70,1,37.5,10|0,1:2|0:2,0:2:0:0:
96,104,119083,2,0,L|110:139,1,37.5,2|0,1:2|0:2,0:2:0:0:
72,200,119249,2,0,L|102:223,1,37.5,10|0,0:2|0:2,0:2:0:0:
144,280,119416,5,10,0:2:0:0:
171,271,119499,1,10,0:2:0:0:
202,269,119582,1,2,1:2:0:0:
230,276,119665,1,0,0:2:0:0:
257,291,119749,1,2,1:2:0:0:
278,312,119832,1,2,1:2:0:0:
328,360,119916,21,2,1:2:0:0:
320,384,119999,37,2,1:2:0:0:
328,360,120083,5,2,1:2:0:0:
320,384,120166,37,2,1:2:0:0:
400,336,120249,6,0,P|402:250|326:212,1,179.999994506836,4|8,1:2|0:2,0:2:0:0:
480,24,120749,2,0,B|506:59|506:59|498:104,1,89.9999972534181,2|0,0:2|1:2,0:2:0:0:
326,212,121082,1,2,0:2:0:0:
288,16,121249,2,0,P|332:11|376:1,1,89.9999972534181,10|0,0:2|0:2,0:2:0:0:
448,240,121582,37,2,1:2:0:0:
326,212,121749,1,2,0:2:0:0:
204,184,121916,1,10,0:2:0:0:
82,156,122082,2,0,B|42:101|82:37|82:37|114:45|123:69,1,179.999994506836,2|0,0:2|0:2,0:2:0:0:
64,240,122582,1,10,0:2:0:0:
0,184,122749,1,2,0:2:0:0:
208,320,122916,6,0,P|295:314|362:371,1,179.999994506836,4|10,1:2|0:2,0:2:0:0:
488,112,123416,2,0,P|480:67|479:22,1,89.9999972534181,2|0,0:2|1:2,0:2:0:0:
272,56,123749,1,2,0:2:0:0:
384,224,123916,2,0,B|428:222|428:222|466:247,1,89.9999972534181,10|0,0:2|0:2,0:2:0:0:
136,368,124249,37,2,1:2:0:0:
88,176,124416,1,2,0:2:0:0:
280,128,124582,1,10,0:2:0:0:
328,320,124749,1,2,1:2:0:0:
320,336,124832,1,2,1:2:0:0:
312,352,124916,5,2,1:2:0:0:
208,192,125082,1,10,0:2:0:0:
201,151,125166,1,10,0:2:0:0:
195,111,125249,1,10,0:2:0:0:
189,71,125332,1,10,0:2:0:0:
190,26,125416,1,10,0:2:0:0:
190,26,125499,1,10,0:2:0:0:
190,26,125582,38,0,B|244:8|274:49|272:57|294:96|349:84,1,179.999994506836,4|8,1:2|0:2,0:2:0:0:
89,260,126082,2,0,B|73:220|73:220|88:176,1,89.9999972534181,2|2,0:2|1:2,0:2:0:0:
216,96,126416,1,0,0:2:0:0:
192,328,126582,2,0,P|125:338|61:358,1,134.999995880127,10|0,0:2|0:2,0:2:0:0:
0,384,126916,5,2,1:2:0:0:
32,256,127082,1,2,0:2:0:0:
64,128,127249,1,10,0:2:0:0:
96,0,127416,2,0,P|137:16|182:23,1,89.9999972534181,2|0,0:2|1:2,0:2:0:0:
280,0,127749,1,2,0:2:0:0:
251,97,127916,1,10,0:2:0:0:
349,74,128082,1,10,0:2:0:0:
349,74,128166,1,10,0:2:0:0:
349,74,128249,37,10,1:2:0:0:
349,74,128582,2,0,B|370:114|370:114|359:157,1,89.9999972534181,12|0,1:2|0:2,0:2:0:0:
216,200,128916,1,2,1:2:0:0:
85,130,129082,1,2,1:2:0:0:
228,87,129249,1,10,0:2:0:0:
199,312,129416,6,0,P|111:326|25:352,1,179.999994506836,4|0,1:2|0:2,0:2:0:0:
256,368,129916,1,10,0:2:0:0:
352,192,130082,1,2,1:2:0:0:
176,96,130249,1,10,0:2:0:0:
143,104,130332,1,10,0:2:0:0:
120,128,130415,1,10,0:2:0:0:
111,160,130498,1,10,0:2:0:0:
147,219,130582,37,10,0:2:0:0:
176,208,130666,5,10,0:2:0:0:
147,219,130749,37,10,0:2:0:0:
176,208,130832,5,10,0:2:0:0:
136,288,130916,38,0,P|53:269|38:186,1,179.999994506836,4|8,1:2|0:2,0:2:0:0:
312,280,131416,2,0,P|355:291|396:309,1,89.9999972534181,2|0,0:2|1:2,0:2:0:0:
488,80,131749,1,2,0:2:0:0:
256,80,131916,2,0,B|233:119|233:119|238:163,1,89.9999972534181,10|0,0:2|0:2,0:2:0:0:
512,176,132249,5,2,1:2:0:0:
384,128,132416,1,2,0:2:0:0:
256,80,132582,1,10,0:2:0:0:
127,31,132749,2,0,P|48:61|45:146,1,179.999994506836,2|2,0:2|0:2,0:2:0:0:
238,163,133249,1,10,0:2:0:0:
144,344,133416,1,2,1:2:0:0:
144,344,133499,1,2,1:2:0:0:
144,344,133582,38,0,B|96:384|24:352|24:352|32:328|52:308,1,179.999994506836,4|8,1:2|0:2,0:2:0:0:
368,40,134082,2,0,B|416:0|488:32|488:32|480:56|459:75,1,179.999994506836,2|0,1:2|1:2,0:2:0:0:
216,240,134582,1,10,0:2:0:0:
440,368,134749,6,0,B|483:338|493:289|493:289|459:251|473:213,1,179.999994506836,4|0,1:2|1:2,0:2:0:0:
288,8,135249,1,10,0:2:0:0:
264,184,135416,1,2,1:2:0:0:
240,360,135582,1,2,1:2:0:0:
64,240,135749,37,10,0:2:0:0:
63,210,135832,1,10,0:2:0:0:
72,181,135915,1,10,0:2:0:0:
90,157,135999,1,10,0:2:0:0:
114,140,136082,1,10,0:2:0:0:
143,132,136165,1,10,0:2:0:0:
173,133,136249,6,0,B|157:180|157:180|93:211|42:147,1,179.999994506836,4|8,1:2|0:2,0:2:0:0:
288,8,136749,2,0,P|365:44|364:129,1,179.999994506836,2|0,1:2|1:2,0:2:0:0:
188,242,137249,1,10,0:2:0:0:
147,258,137332,1,10,0:2:0:0:
121,294,137415,1,10,0:2:0:0:
120,339,137499,1,10,0:2:0:0:
144,377,137582,38,0,B|214:364|214:364|232:328|232:328|299:317,1,179.999994506836,4|10,1:2|0:2,0:2:0:0:
296,88,138082,2,0,P|218:124|219:209,1,179.999994506836,4|0,1:2|1:2,0:2:0:0:
432,368,138582,1,10,0:2:0:0:
450,327,138665,1,10,0:2:0:0:
443,283,138748,1,10,0:2:0:0:
413,250,138832,1,10,0:2:0:0:
370,239,138915,5,10,1:2:0:0:
370,239,139249,2,0,B|340:278|340:278|350:317,1,89.9999972534181,12|0,1:2|1:2,0:2:0:0:
350,317,139499,1,2,1:2:0:0:
350,317,139582,1,2,1:2:0:0:
480,200,139749,1,2,1:2:0:0:
314,146,139916,1,2,1:2:0:0:
183,263,140082,38,0,P|96:281|14:318,1,179.999994506836,4|8,1:2|0:2,0:2:0:0:
224,376,140582,1,10,0:2:0:0:
248,200,140749,1,10,0:2:0:0:
272,24,140916,1,10,0:2:0:0:
64,80,141082,1,10,0:2:0:0:
58,109,141165,1,10,0:2:0:0:
64,138,141248,1,10,0:2:0:0:
81,163,141332,1,10,0:2:0:0:
106,179,141415,1,10,0:2:0:0:
135,185,141498,1,10,0:2:0:0:
164,179,141582,5,12,1:2:0:0:
164,179,141916,1,4,1:2:0:0:
164,179,142249,2,0,B|182:137|182:137|160:98,1,89.9999972534181,12|0,1:2|1:2,0:2:0:0:
320,0,142582,1,2,1:2:0:0:
432,224,142749,38,0,B|378:206|348:247|350:255|328:294|273:282,1,179.999994506836,4|8,1:2|0:2,0:2:0:0:
152,256,143249,1,10,0:2:0:0:
32,224,143416,2,0,L|26:179,1,44.999998626709,2|0,1:2|1:2,0:2:0:0:
0,104,143582,5,10,1:2:0:0:
22,98,143665,1,10,0:2:0:0:
44,94,143748,1,10,0:2:0:0:
66,89,143831,1,10,0:2:0:0:
73,56,143916,37,10,1:2:0:0:
112,64,143999,1,10,0:2:0:0:
151,72,144082,1,10,0:2:0:0:
191,79,144165,1,10,0:2:0:0:
230,87,144249,37,4,1:2:0:0:
296,48,144415,1,2,0:2:0:0:
230,11,144582,1,2,1:2:0:0:
104,152,144749,21,10,0:2:0:0:
256,192,144915,1,2,1:2:0:0:
408,232,145082,1,2,0:2:0:0:
368,48,145249,21,2,1:2:0:0:
376,120,145415,1,2,1:2:0:0:
184,272,145582,21,10,0:2:0:0:
176,200,145748,1,2,0:2:0:0:
400,304,145915,21,4,1:2:0:0:
336,336,146082,1,2,0:2:0:0:
340,264,146249,1,2,1:2:0:0:
400,384,146415,21,10,0:2:0:0:
248,344,146582,1,2,1:2:0:0:
96,304,146749,1,2,0:2:0:0:
272,200,146915,21,2,1:2:0:0:
336,184,147082,1,2,1:2:0:0:
256,40,147249,21,10,0:2:0:0:
160,8,147415,1,2,1:2:0:0:
24,184,147582,21,4,1:2:0:0:
96,160,147749,1,2,0:2:0:0:
40,110,147915,1,2,1:2:0:0:
96,304,148082,21,10,0:2:0:0:
184,176,148249,1,2,1:2:0:0:
118,36,148415,1,2,0:2:0:0:
0,256,148582,21,2,1:2:0:0:
72,240,148749,1,2,1:2:0:0:
224,88,148915,21,10,0:2:0:0:
152,104,149082,1,2,0:2:0:0:
240,320,149249,21,4,1:2:0:0:
216,247,149416,1,2,0:2:0:0:
290,263,149582,1,2,1:2:0:0:
120,376,149749,21,10,0:2:0:0:
280,384,149915,1,2,1:2:0:0:
366,249,150082,1,2,0:2:0:0:
224,24,150249,37,8,0:2:0:0:
192,48,150360,5,8,0:2:0:0:
200,88,150471,37,8,0:2:0:0:
272,112,150582,5,8,0:2:0:0:
320,160,150693,37,8,0:2:0:0:
304,224,150804,5,8,0:2:0:0:
224,240,150915,37,8,0:2:0:0:
176,296,151026,5,8,0:2:0:0:
216,360,151137,37,8,0:2:0:0:
272,304,151249,37,4,1:2:0:0:
176,272,151415,1,2,0:2:0:0:
197,372,151582,1,10,0:2:0:0:
392,216,151749,21,2,0:2:0:0:
240,232,151915,1,2,1:2:0:0:
88,248,152082,1,2,0:2:0:0:
264,72,152249,21,10,0:2:0:0:
328,120,152415,1,2,1:2:0:0:
328,120,152499,1,2,1:2:0:0:
328,120,152582,1,10,0:2:0:0:
254,151,152749,1,2,1:2:0:0:
392,24,152915,21,4,1:2:0:0:
509,175,153082,1,2,0:2:0:0:
320,200,153249,1,10,0:2:0:0:
464,56,153415,21,2,0:2:0:0:
400,104,153582,1,10,0:2:0:0:
409,140,153665,1,10,0:2:0:0:
419,176,153748,1,10,0:2:0:0:
429,212,153832,1,10,0:2:0:0:
439,248,153915,1,2,1:2:0:0:
220,378,154082,21,10,0:2:0:0:
200,351,154165,1,10,0:2:0:0:
182,325,154249,1,10,0:2:0:0:
164,299,154332,1,10,0:2:0:0:
177,270,154415,1,10,0:2:0:0:
190,241,154499,1,10,0:2:0:0:
204,212,154582,21,4,1:2:0:0:
297,206,154749,1,2,0:2:0:0:
254,291,154915,1,10,0:2:0:0:
112,192,155082,21,2,0:2:0:0:
256,136,155249,1,2,1:2:0:0:
377,233,155415,1,2,0:2:0:0:
176,134,155582,21,10,0:2:0:0:
219,65,155749,1,2,1:2:0:0:
219,65,155832,1,2,1:2:0:0:
219,65,155915,1,10,0:2:0:0:
256,136,156082,1,2,1:2:0:0:
57,60,156249,21,4,1:2:0:0:
219,65,156415,1,2,0:2:0:0:
133,203,156582,1,10,0:2:0:0:
128,0,156749,21,2,0:2:0:0:
144,72,156915,1,2,1:2:0:0:
160,144,157082,1,10,0:2:0:0:
24,296,157249,21,12,1:2:0:0:
42,300,157332,1,10,0:2:0:0:
60,304,157415,1,10,0:2:0:0:
78,308,157499,1,10,0:2:0:0:
96,344,157582,21,10,1:2:0:0:
133,339,157665,1,10,0:2:0:0:
170,334,157748,1,10,0:2:0:0:
207,329,157832,1,10,0:2:0:0:
216,288,157915,21,10,1:2:0:0:
262,296,157998,1,10,0:2:0:0:
308,305,158081,1,10,0:2:0:0:
354,314,158165,1,10,0:2:0:0:
400,323,158249,38,0,P|481:303|487:219,1,179.999994506836,4|8,1:2|0:2,0:2:0:0:
264,56,158749,2,0,B|240:96|240:96|253:137,1,89.9999972534181,2|0,0:2|1:2,0:2:0:0:
448,160,159082,1,2,1:2:0:0:
336,8,159249,1,10,0:2:0:0:
192,200,159415,6,0,B|138:182|108:223|110:231|88:270|33:258,1,179.999994506836,4|0,1:2|1:2,0:2:0:0:
248,384,159915,2,0,P|256:339|267:296,1,89.9999972534181,10|0,0:2|0:2,0:2:0:0:
368,128,160249,1,2,1:2:0:0:
368,128,160332,1,2,0:2:0:0:
367,128,160415,2,0,P|345:121|326:109,1,44.999998626709,0|0,1:2|0:2,0:2:0:0:
272,56,160582,1,10,0:2:0:0:
264,216,160749,1,2,1:2:0:0:
456,160,160915,38,0,B|423:209|448:254|448:254|488:264|494:313,1,179.999994506836,4|8,1:2|0:2,0:2:0:0:
267,296,161415,2,0,P|222:299|179:312,1,89.9999972534181,2|0,0:2|1:2,0:2:0:0:
336,200,161749,1,2,1:2:0:0:
392,368,161915,1,10,0:2:0:0:
216,184,162082,6,0,P|238:96|247:7,1,179.999994506836,4|0,1:2|1:2,0:2:0:0:
18,272,162582,2,0,B|31:282|67:263|67:263|102:294|102:294|152:287|179:311,1,179.999994506836,10|0,0:2|1:2,0:2:0:0:
392,368,163082,2,0,P|408:352|422:335,1,44.999998626709,10|8,0:2|0:2,0:2:0:0:
383,270,163249,2,0,P|389:248|393:226,1,44.999998626709,10|8,0:2|0:2,0:2:0:0:
326,189,163415,2,0,P|321:167|313:146,1,44.999998626709,10|8,0:2|0:2,0:2:0:0:
224,104,163582,37,2,1:2:0:0:
180,111,163665,1,2,0:2:0:0:
148,142,163748,1,2,0:2:0:0:
138,185,163832,1,2,0:2:0:0:
154,226,163915,1,10,0:2:0:0:
165,223,163998,1,2,0:2:0:0:
176,221,164081,1,2,0:2:0:0:
187,219,164165,1,2,0:2:0:0:
197,216,164249,2,0,P|205:238|210:260,1,44.999998626709,2|2,1:2|0:2,0:2:0:0:
370,313,164415,2,0,P|375:291|383:270,1,44.999998626709,2|2,1:2|0:2,0:2:0:0:
313,146,164582,1,10,0:2:0:0:
184,344,164749,6,0,P|94:339|10:369,1,179.999994506836,4|0,1:2|1:2,0:2:0:0:
40,184,165249,1,10,0:2:0:0:
197,216,165415,1,2,0:2:0:0:
354,248,165582,2,0,B|373:209|373:209|356:159,1,89.9999972534181,2|2,1:2|0:2,0:2:0:0:
358,165,165832,1,2,0:2:0:0:
358,165,165915,1,10,0:2:0:0:
440,152,166082,1,2,1:2:0:0:
88,40,166249,38,0,B|41:47|41:47|-6:111|39:169,1,179.999994506836,4|8,1:2|0:2,0:2:0:0:
424,344,166749,2,0,B|470:336|470:336|518:272|472:214,1,179.999994506836,2|0,1:2|1:2,0:2:0:0:
184,320,167249,1,10,0:2:0:0:
360,170,167415,6,0,B|376:108|376:108|353:68|353:68|372:0,1,179.999994506836,4|0,1:2|1:2,0:2:0:0:
296,352,167915,1,10,0:2:0:0:
100,209,168082,2,0,B|83:147|83:147|106:107|106:107|87:39,1,179.999994506836,4|8,1:2|0:2,0:2:0:0:
334,239,168582,1,10,0:2:0:0:
344,282,168665,1,10,0:2:0:0:
330,324,168748,1,10,0:2:0:0:
296,352,168832,1,10,0:2:0:0:
252,357,168915,38,0,P|230:351|208:346,1,44.999998626709,4|0,1:2|0:2,0:2:0:0:
192,280,169082,2,0,P|170:286|148:292,1,44.999998626709,2|0,0:2|0:2,0:2:0:0:
80,264,169249,6,0,P|74:285|69:307,1,44.999998626709,10|0,0:2|0:2,0:2:0:0:
3,324,169416,2,0,P|9:345|15:367,1,44.999998626709,2|0,0:2|0:2,0:2:0:0:
144,216,169582,38,0,P|147:193|153:171,1,44.999998626709,2|0,1:2|0:2,0:2:0:0:
216,104,169749,2,0,P|210:82|206:59,1,44.999998626709,2|0,0:2|0:2,0:2:0:0:
72,80,169915,6,0,P|94:83|116:89,1,44.999998626709,10|0,0:2|0:2,0:2:0:0:
232,184,170082,2,0,P|253:178|276:174,1,44.999998626709,2|0,0:2|0:2,0:2:0:0:
344,88,170249,38,0,P|336:66|333:44,1,44.999998626709,2|0,1:2|0:2,0:2:0:0:
448,128,170415,2,0,P|444:150|437:171,1,44.999998626709,2|0,0:2|0:2,0:2:0:0:
296,256,170582,6,0,P|299:278|306:299,1,44.999998626709,10|0,0:2|0:2,0:2:0:0:
496,384,170749,2,0,P|503:362|506:340,1,44.999998626709,2|0,0:2|0:2,0:2:0:0:
368,208,170915,38,0,P|373:252|385:295,1,89.9999972534181,2|8,1:2|0:2,0:2:0:0:
385,295,171165,1,10,0:2:0:0:
385,295,171249,1,10,0:2:0:0:
381,339,171332,1,10,0:2:0:0:
352,372,171415,1,10,0:2:0:0:
309,382,171499,1,10,0:2:0:0:
272,367,171582,6,0,P|249:370|227:375,1,44.999998626709,10|2,1:2|0:2,0:2:0:0:
88,224,171749,2,0,P|65:221|43:216,3,44.999998626709,2|2|2|2,1:2|0:2|0:2|0:2,0:2:0:0:
200,256,172082,38,0,P|220:247|242:242,3,44.999998626709,10|2|2|2,0:2|0:2|0:2|0:2,0:2:0:0:
336,152,172415,2,0,P|358:155|379:161,3,44.999998626709,10|2|2|2,0:2|0:2|0:2|0:2,0:2:0:0:
456,88,172748,6,0,P|438:26|375:11,1,134.999995880127,4|0,1:2|0:2,0:2:0:0:
328,64,173082,1,10,0:2:0:0:
328,64,173165,1,10,0:2:0:0:
328,64,173248,2,0,P|283:68|239:78,1,89.9999972534181,10|8,0:2|0:2,0:2:0:0:
136,8,173582,1,8,0:2:0:0:
88,64,173748,1,8,0:2:0:0:
56,48,173915,1,8,0:2:0:0:
40,56,174082,1,8,0:2:0:0:
40,56,174248,5,4,1:2:0:0:
368,176,182915,5,8,0:2:0:0:
368,176,183415,6,0,P|319:208|316:266,1,120,4|0,1:2|1:2,0:2:0:0:
424,336,183915,2,0,L|429:276,1,60,10|8,0:2|0:2,0:2:0:0:
429,276,184165,1,10,0:2:0:0:
429,276,184248,1,10,0:2:0:0:
504,256,184415,1,8,0:2:0:0:
344,368,184582,1,8,0:2:0:0:
269,347,184749,1,8,0:2:0:0:
208,256,184915,6,0,P|178:258|148:264,1,60,4|0,1:2|0:2,0:2:0:0:
148,264,185248,1,2,1:2:0:0:
112,328,185415,2,0,P|82:325|52:319,1,60,2|0,0:2|1:2,0:2:0:0:
16,256,185748,1,2,0:2:0:0:
96,192,185915,2,0,P|100:162|106:132,1,60,2|0,1:2|0:2,0:2:0:0:
152,80,186165,1,2,0:2:0:0:
152,80,186248,38,0,P|145:50|141:20,1,60,2|0,1:2|0:2,0:2:0:0:
224,0,186582,2,0,P|266:38|258:95,1,120,2|0,1:2|1:2,0:2:0:0:
208,144,187082,1,2,0:2:0:0:
240,208,187248,1,10,0:2:0:0:
208,272,187415,1,2,0:2:0:0:
208,272,187498,1,2,0:2:0:0:
208,271,187582,6,0,P|202:301|200:331,1,60,0|0,1:2|0:2,0:2:0:0:
144,368,187915,1,2,1:2:0:0:
272,320,188082,2,0,P|277:349|279:379,1,60,2|0,0:2|1:2,0:2:0:0:
376,296,188415,2,0,P|405:301|435:303,1,60,2|0,0:2|1:2,0:2:0:0:
512,176,188748,1,2,0:2:0:0:
512,176,188915,38,0,P|482:178|452:185,1,60,2|0,1:2|0:2,0:2:0:0:
400,136,189248,2,0,P|370:133|340:126,1,60,2|0,1:2|0:2,0:2:0:0:
128,176,189582,1,10,0:2:0:0:
105,176,189665,1,10,0:2:0:0:
83,170,189748,1,10,0:2:0:0:
64,159,189832,1,10,0:2:0:0:
48,143,189915,1,10,0:2:0:0:
38,123,189998,1,10,0:2:0:0:
33,101,190082,1,10,0:2:0:0:
35,79,190165,1,10,0:2:0:0:
42,58,190248,6,0,B|80:19|136:27|136:27|152:75|187:78,1,179.999994506836,4|8,1:2|0:2,0:2:0:0:
400,135,190748,2,0,P|413:52|340:7,1,179.999994506836,4|0,1:2|1:2,0:2:0:0:
240,168,191248,1,10,0:2:0:0:
232,200,191331,1,10,0:2:0:0:
226,234,191414,1,10,0:2:0:0:
223,267,191498,1,10,0:2:0:0:
222,301,191582,38,0,B|276:283|306:324|304:332|326:371|381:359,1,179.999994506836,4|8,1:2|0:2,0:2:0:0:
187,75,192082,2,0,B|138:103|67:107|67:107|91:115|106:141,1,179.999994506836,4|0,1:2|1:2,0:2:0:0:
440,208,192582,1,10,0:2:0:0:
480,190,192665,1,10,0:2:0:0:
506,154,192748,1,10,0:2:0:0:
510,110,192832,1,10,0:2:0:0:
491,70,192915,6,0,B|440:6|360:32|360:32|370:79,1,194.999991073609,4|0,1:2|1:2,0:2:0:0:
21,314,193415,2,0,B|72:378|152:352|152:352|141:304,1,194.999991073609,4|0,1:2|1:2,0:2:0:0:
24,120,193915,1,10,0:2:0:0:
264,8,194082,38,0,B|252:71|252:71|272:98|272:98|264:146,1,146.249993305207,4|0,1:2|0:2,0:2:0:0:
248,216,194415,1,10,0:2:0:0:
424,360,194582,1,10,0:2:0:0:
456,104,194748,1,10,0:2:0:0:
415,106,194831,1,10,0:2:0:0:
378,122,194914,1,10,0:2:0:0:
351,151,194998,1,10,0:2:0:0:
336,190,195081,1,10,0:2:0:0:
336,230,195164,1,10,0:2:0:0:
351,267,195249,1,10,0:2:0:0:
362,271,195332,1,10,0:2:0:0:
374,275,195415,1,10,0:2:0:0:
386,278,195499,1,10,0:2:0:0:
397,282,195582,22,0,L|360:291,1,37.5,10|0,1:2|0:2,0:2:0:0:
328,352,195748,2,0,L|291:341,1,37.5,2|0,1:2|0:2,0:2:0:0:
233,378,195915,2,0,L|206:351,1,37.5,10|0,0:2|0:2,0:2:0:0:
128,336,196082,5,10,0:2:0:0:
119,309,196165,1,10,0:2:0:0:
117,278,196248,1,2,1:2:0:0:
124,250,196331,1,2,0:2:0:0:
139,223,196415,1,2,1:2:0:0:
160,202,196498,1,2,0:2:0:0:
208,152,196582,21,2,1:2:0:0:
232,160,196665,37,2,1:2:0:0:
208,152,196749,5,2,1:2:0:0:
232,160,196832,37,2,1:2:0:0:
168,88,196915,6,0,B|114:106|84:65|86:57|64:18|9:30,1,179.999994506836,4|8,1:2|0:2,0:2:0:0:
360,0,197415,2,0,B|378:39|378:39|361:83,1,89.9999972534181,2|0,0:2|1:2,0:2:0:0:
160,16,197748,1,2,0:2:0:0:
184,224,197915,2,0,P|227:234|270:247,1,89.9999972534181,10|0,0:2|0:2,0:2:0:0:
88,384,198248,37,2,1:2:0:0:
65,263,198415,1,2,0:2:0:0:
42,143,198582,1,10,0:2:0:0:
19,23,198748,2,0,P|106:48|194:63,1,179.999994506836,2|0,0:2|0:2,0:2:0:0:
304,0,199248,1,10,0:2:0:0:
416,64,199415,1,2,1:2:0:0:
416,64,199498,1,2,1:2:0:0:
416,64,199582,6,0,B|388:112|383:183|383:183|376:160|349:144,1,179.999994506836,4|10,1:2|0:2,0:2:0:0:
248,336,200082,1,2,1:2:0:0:
248,336,200165,1,2,1:2:0:0:
248,336,200248,2,0,P|203:342|159:350,1,89.9999972534181,0|2,1:2|0:2,0:2:0:0:
32,112,200582,2,0,P|93:130|110:192,1,134.999995880127,10|0,0:2|0:2,0:2:0:0:
72,248,200915,37,2,1:2:0:0:
248,336,201082,1,2,0:2:0:0:
336,160,201248,1,10,0:2:0:0:
160,72,201415,1,2,1:2:0:0:
164,87,201499,1,2,1:2:0:0:
168,102,201582,1,2,1:2:0:0:
352,248,201748,1,10,0:2:0:0:
392,229,201831,1,10,0:2:0:0:
420,194,201914,1,10,0:2:0:0:
427,150,201998,1,10,0:2:0:0:
413,108,202081,1,10,0:2:0:0:
413,108,202165,1,10,0:2:0:0:
413,108,202248,6,0,P|328:102|298:22,1,179.999994506836,4|8,1:2|0:2,0:2:0:0:
504,264,202748,2,0,P|492:307|483:351,1,89.9999972534181,2|2,0:2|1:2,0:2:0:0:
296,168,203082,1,0,0:2:0:0:
213,369,203248,2,0,B|257:379|257:379|294:354,1,89.9999972534181,10|2,0:2|0:2,0:2:0:0:
294,354,203498,1,2,0:2:0:0:
294,354,203582,37,2,1:2:0:0:
325,237,203748,1,2,0:2:0:0:
350,119,203915,1,10,0:2:0:0:
375,3,204082,2,0,P|332:15|288:25,1,89.9999972534181,2|0,0:2|1:2,0:2:0:0:
216,128,204415,1,2,0:2:0:0:
163,15,204582,1,10,0:2:0:0:
92,118,204748,1,10,0:2:0:0:
92,118,204832,1,10,0:2:0:0:
92,118,204915,5,10,1:2:0:0:
92,118,205248,2,0,B|68:84|68:84|75:36,1,89.9999972534181,12|0,1:2|0:2,0:2:0:0:
216,128,205582,1,2,1:2:0:0:
192,248,205748,1,2,1:2:0:0:
168,368,205915,1,10,0:2:0:0:
398,180,206082,38,0,P|381:92|375:3,1,179.999994506836,4|0,1:2|0:2,0:2:0:0:
512,224,206582,1,10,0:2:0:0:
311,351,206748,1,10,0:2:0:0:
286,315,206831,1,10,0:2:0:0:
251,286,206914,1,10,0:2:0:0:
210,268,206998,1,10,0:2:0:0:
166,261,207081,1,10,0:2:0:0:
121,266,207164,1,10,0:2:0:0:
64,304,207248,5,10,0:2:0:0:
56,328,207331,37,10,0:2:0:0:
64,304,207415,5,10,0:2:0:0:
56,328,207498,37,10,0:2:0:0:
7,255,207582,6,0,P|15:170|94:136,1,179.999994506836,4|8,1:2|0:2,0:2:0:0:
232,368,208082,2,0,P|187:374|143:382,1,89.9999972534181,2|0,0:2|1:2,0:2:0:0:
168,144,208415,1,2,0:2:0:0:
384,208,208582,2,0,B|401:253|401:253|384:292,1,89.9999972534181,10|0,0:2|0:2,0:2:0:0:
232,368,208915,37,2,1:2:0:0:
248,248,209082,1,2,0:2:0:0:
264,128,209248,1,10,0:2:0:0:
280,7,209415,2,0,P|361:31|368:115,1,179.999994506836,2|2,0:2|0:2,0:2:0:0:
480,184,209915,1,10,0:2:0:0:
472,312,210082,1,2,1:2:0:0:
472,312,210165,1,2,1:2:0:0:
472,312,210248,6,0,B|418:294|388:335|390:343|368:382|313:370,1,179.999994506836,4|8,1:2|0:2,0:2:0:0:
40,72,210748,2,0,B|94:90|124:49|122:41|144:2|199:14,1,179.999994506836,2|0,1:2|1:2,0:2:0:0:
336,224,211248,1,10,0:2:0:0:
104,368,211415,38,0,B|64:313|104:249|104:249|136:257|145:281,1,179.999994506836,4|0,1:2|1:2,0:2:0:0:
0,256,211915,1,10,0:2:0:0:
256,200,212082,1,2,1:2:0:0:
512,144,212248,1,10,0:2:0:0:
489,139,212331,1,8,0:2:0:0:
467,135,212414,1,10,0:2:0:0:
445,131,212498,1,10,0:2:0:0:
423,127,212582,22,0,B|406:96|406:96|414:64,1,67.4999979400635,12|0,1:2|0:2,0:2:0:0:
368,16,212915,38,0,P|287:39|285:123,1,179.999994506836,4|8,1:2|0:2,0:2:0:0:
64,224,213415,2,0,P|80:135|87:45,1,179.999994506836,2|0,1:2|1:2,0:2:0:0:
256,200,213915,1,10,0:2:0:0:
300,205,213998,1,10,0:2:0:0:
344,217,214081,1,10,0:2:0:0:
385,234,214165,1,10,0:2:0:0:
424,256,214248,38,0,B|456:328|416:376|416:376|384:360|376:342,1,179.999994506836,4|10,1:2|0:2,0:2:0:0:
285,123,214748,2,0,B|308:71|306:0|306:0|316:23|343:36,1,179.999994506836,4|0,1:2|1:2,0:2:0:0:
304,288,215248,1,10,0:2:0:0:
259,295,215331,1,10,0:2:0:0:
215,306,215414,1,10,0:2:0:0:
173,320,215498,1,10,0:2:0:0:
131,338,215581,5,10,1:2:0:0:
131,338,215915,2,0,B|109:301|109:301|119:255,1,89.9999972534181,12|0,1:2|1:2,0:2:0:0:
119,255,216165,1,2,1:2:0:0:
119,255,216248,1,2,1:2:0:0:
144,184,216415,1,2,1:2:0:0:
160,112,216582,1,2,1:2:0:0:
304,288,216748,38,0,B|358:270|388:311|386:319|408:358|463:346,1,179.999994506836,4|8,1:2|0:2,0:2:0:0:
304,384,217248,1,10,0:2:0:0:
256,208,217415,1,10,0:2:0:0:
256,208,217498,1,10,0:2:0:0:
256,208,217582,1,10,0:2:0:0:
208,32,217748,1,10,0:2:0:0:
171,22,217831,1,10,0:2:0:0:
135,28,217914,1,10,0:2:0:0:
103,49,217998,1,10,0:2:0:0:
83,80,218081,1,10,0:2:0:0:
77,116,218164,1,10,0:2:0:0:
86,152,218248,5,12,1:2:0:0:
86,152,218582,1,4,1:2:0:0:
86,152,218915,2,0,B|113:192|113:192|99:231,1,89.9999972534181,12|0,1:2|1:2,0:2:0:0:
0,360,219248,1,2,1:2:0:0:
232,312,219415,38,0,B|302:324|302:324|320:360|320:360|387:371,1,179.999994506836,4|8,1:2|0:2,0:2:0:0:
416,280,219915,1,10,0:2:0:0:
440,184,220082,1,2,1:2:0:0:
464,80,220248,5,10,1:2:0:0:
442,74,220331,1,10,0:2:0:0:
420,70,220414,1,10,0:2:0:0:
398,65,220497,1,10,0:2:0:0:
391,32,220582,37,10,1:2:0:0:
352,40,220665,1,10,0:2:0:0:
313,48,220748,1,10,0:2:0:0:
273,55,220831,1,10,0:2:0:0:
234,63,220915,37,4,1:2:0:0:
216,128,221080,1,2,0:2:0:0:
88,232,221247,5,10,0:2:0:0:
64,104,221414,1,2,0:2:0:0:
184,208,221580,37,2,1:2:0:0:
24,176,221747,1,2,0:2:0:0:
128,360,221914,5,10,0:2:0:0:
135,358,221969,1,2,0:2:0:0:
143,356,222025,1,2,0:2:0:0:
151,354,222080,1,2,0:2:0:0:
208,288,222248,37,2,1:2:0:0:
224,384,222414,1,2,0:2:0:0:
344,240,222580,5,10,0:2:0:0:
332,307,222746,1,2,0:2:0:0:
216,168,222914,37,2,1:2:0:0:
368,128,223080,1,10,0:2:0:0:
456,240,223247,5,2,1:2:0:0:
480,248,223414,1,2,0:2:0:0:
432,368,223580,37,10,0:2:0:0:
408,304,223747,1,2,0:2:0:0:
272,224,223914,5,2,1:2:0:0:
270,232,223969,1,2,0:2:0:0:
268,240,224025,1,2,0:2:0:0:
266,247,224080,1,2,0:2:0:0:
200,280,224247,37,10,0:2:0:0:
128,304,224414,1,2,0:2:0:0:
264,320,224580,5,2,1:2:0:0:
240,152,224747,1,2,0:2:0:0:
8,176,224914,37,10,0:2:0:0:
200,208,225081,1,2,0:2:0:0:
392,240,225248,1,2,1:2:0:0:
384,224,225414,1,10,0:2:0:0:
448,160,225580,5,4,1:2:0:0:
456,144,225746,1,2,0:2:0:0:
360,80,225914,37,10,0:2:0:0:
376,152,226080,1,2,0:2:0:0:
272,224,226247,5,2,1:2:0:0:
288,88,226414,1,2,0:2:0:0:
168,0,226580,37,10,0:2:0:0:
166,7,226635,1,2,0:2:0:0:
164,15,226691,1,2,0:2:0:0:
162,23,226746,1,2,0:2:0:0:
151,100,226914,5,2,1:2:0:0:
216,80,227080,1,2,0:2:0:0:
152,200,227247,37,10,0:2:0:0:
64,176,227413,1,2,0:2:0:0:
144,376,227580,5,2,1:2:0:0:
296,344,227747,1,10,0:2:0:0:
128,288,227914,37,2,1:2:0:0:
128,288,228080,1,2,0:2:0:0:
224,384,228247,5,10,0:2:0:0:
256,192,228414,1,2,0:2:0:0:
208,72,228580,37,2,1:2:0:0:
272,272,228747,1,2,0:2:0:0:
224,384,228914,5,10,0:2:0:0:
280,48,229080,1,2,0:2:0:0:
184,152,229247,37,2,1:2:0:0:
328,208,229414,1,10,0:2:0:0:
352,200,229497,1,10,0:2:0:0:
376,192,229580,5,10,0:2:0:0:
288,344,229747,1,10,0:2:0:0:
224,304,229914,37,2,1:2:0:0:
216,302,229969,1,2,1:2:0:0:
208,300,230025,1,2,1:2:0:0:
201,298,230080,1,2,1:2:0:0:
128,312,230247,5,4,1:2:0:0:
176,368,230414,1,2,0:2:0:0:
256,240,230580,37,10,0:2:0:0:
160,224,230747,1,2,0:2:0:0:
288,344,230914,5,2,1:2:0:0:
312,184,231080,1,2,0:2:0:0:
216,48,231247,37,10,0:2:0:0:
209,46,231302,1,2,0:2:0:0:
201,44,231358,1,2,0:2:0:0:
193,42,231413,1,2,0:2:0:0:
124,79,231581,5,2,1:2:0:0:
144,144,231747,1,2,0:2:0:0:
40,272,231914,37,10,0:2:0:0:
56,200,232080,1,2,0:2:0:0:
160,312,232247,5,10,0:2:0:0:
192,320,232331,1,10,0:2:0:0:
224,328,232414,1,10,0:2:0:0:
256,336,232497,1,10,0:2:0:0:
288,344,232581,37,2,1:2:0:0:
360,328,232747,1,2,0:2:0:0:
488,208,232914,5,10,0:2:0:0:
400,192,233080,1,2,0:2:0:0:
312,176,233247,37,2,1:2:0:0:
310,168,233302,1,2,0:2:0:0:
308,160,233358,1,2,0:2:0:0:
306,153,233413,1,2,0:2:0:0:
256,88,233581,5,10,0:2:0:0:
328,72,233747,1,2,0:2:0:0:
224,168,233914,37,10,1:2:0:0:
192,160,233998,1,10,0:2:0:0:
160,152,234081,1,10,0:2:0:0:
128,144,234164,1,10,0:2:0:0:
96,136,234247,5,10,1:2:0:0:
73,159,234331,1,10,0:2:0:0:
50,183,234414,1,10,0:2:0:0:
27,207,234497,1,10,0:2:0:0:
4,230,234581,37,10,1:2:0:0:
72,264,234747,1,2,0:2:0:0:
152,376,234914,5,4,1:2:0:0:
184,368,235080,1,2,0:2:0:0:
184,216,235247,37,10,0:2:0:0:
152,288,235413,1,2,0:2:0:0:
280,376,235580,5,2,1:2:0:0:
256,248,235747,1,2,0:2:0:0:
472,320,235913,37,10,0:2:0:0:
470,313,235968,1,2,0:2:0:0:
468,305,236024,1,2,0:2:0:0:
466,297,236079,1,2,0:2:0:0:
393,268,236247,5,2,1:2:0:0:
400,336,236413,1,2,0:2:0:0:
336,208,236580,37,10,0:2:0:0:
352,112,236746,1,2,0:2:0:0:
272,16,236913,5,10,0:2:0:0:
260,41,236996,1,10,0:2:0:0:
247,67,237080,1,10,0:2:0:0:
262,92,237163,1,10,0:2:0:0:
279,116,237247,37,2,1:2:0:0:
336,40,237413,1,2,0:2:0:0:
184,96,237580,5,10,0:2:0:0:
256,232,237747,1,2,0:2:0:0:
216,304,237913,37,2,1:2:0:0:
218,311,237968,1,2,0:2:0:0:
220,319,238024,1,2,0:2:0:0:
222,327,238079,1,2,0:2:0:0:
296,336,238247,5,10,0:2:0:0:
368,352,238413,1,2,1:2:0:0:
264,208,238580,37,2,1:2:0:0:
232,216,238663,1,2,1:2:0:0:
200,224,238747,1,2,1:2:0:0:
112,80,238913,5,10,0:2:0:0:
160,88,238997,1,2,1:2:0:0:
208,96,239080,1,10,0:2:0:0:
256,104,239163,1,2,1:2:0:0:
304,112,239247,1,2,1:2:0:0:
352,120,239330,1,10,0:2:0:0:
400,128,239413,1,2,1:2:0:0:
256,8,239580,5,10,1:2:0:0:
256,8,239747,1,10,1:2:0:0:
