osu file format v14

[General]
AudioFilename: audio.mp3
AudioLeadIn: 0
PreviewTime: 119833
Countdown: 0
SampleSet: Soft
StackLeniency: 0.2
Mode: 0
LetterboxInBreaks: 0
WidescreenStoryboard: 1

[Editor]
Bookmarks: 587,8253,24252,52251,76251,85584,120249,144249,158249,174248,196915,220914,239580
DistanceSpacing: 1
BeatDivisor: 4
GridSize: 8
TimelineZoom: 2.4

[Metadata]
Title:Junpaku Toroimerai
TitleUnicode:純白トロイメライ
Artist:L'Antica
ArtistUnicode:アンティーカ
Creator:Atalanta
Version:Insane
Source:アイドルマスター シャイニーカラーズ
Tags:THE iDOLM@STER SHINY COLORS GR@DATE WING 03 Japanese Rock 月岡恋鐘 Tsukioka Kogane 礒部花凜 Isobe Carin 田中摩美々 Tanaka Mamimi 菅沼千紗 Suganuma Chisa 白瀬咲耶 Shirase Sakuya 八巻アンナ Yamaki Anna 三峰結華 Mitsumine Yuika 成海 瑠奈 Narumi Runa 幽谷霧子 Yukoku Kiriko 結名 美月 Yuina Mizuki
BeatmapID:2906716
BeatmapSetID:1402084

[Difficulty]
HPDrainRate:5
CircleSize:4
OverallDifficulty:8
ApproachRate:9
SliderMultiplier:1.5
SliderTickRate:1

[Events]
//Background and Video events
0,0,"The.iDOLM@STER .Shiny.Colors.full.2832667.png",0,0
//Break Periods
2,174448,182315
//Storyboard Layer 0 (Background)
//Storyboard Layer 1 (Fail)
//Storyboard Layer 2 (Pass)
//Storyboard Layer 3 (Foreground)
//Storyboard Layer 4 (Overlay)
//Storyboard Sound Samples

[TimingPoints]
587,333.333333333333,3,2,1,60,1,0
587,-125,3,2,1,60,0,0
1670,-125,3,2,1,5,0,0
1920,-125,3,2,1,60,0,0
2003,-125,3,2,1,5,0,0
2586,-125,3,2,1,60,0,0
3670,-125,3,2,1,5,0,0
3920,-125,3,2,1,60,0,0
4003,-125,3,2,1,5,0,0
4253,333.333333333333,3,2,1,60,1,0
4253,-125,3,2,1,60,0,0
5336,-125,3,2,1,5,0,0
5586,-125,3,2,1,60,0,0
5669,-125,3,2,1,5,0,0
6252,-125,3,2,1,60,0,0
7336,-125,3,2,1,5,0,0
7586,-125,3,2,1,60,0,0
7669,-125,3,2,1,5,0,0
7919,-125,3,2,1,60,0,0
24252,333.333333333333,7,2,2,80,1,0
32585,-100,7,2,1,80,0,0
32918,-100,7,2,3,80,0,0
33140,-100,7,2,4,80,0,0
33363,-100,7,2,5,80,0,0
33474,-100,7,2,6,80,0,0
33586,333.333333333333,3,2,1,60,1,0
41085,-100,3,2,3,70,0,0
41252,-100,3,2,4,70,0,0
41419,-100,3,2,5,70,0,0
41585,-100,3,2,1,70,0,0
45585,333.333333333333,4,2,1,70,1,0
50918,-125,4,2,1,70,0,0
51918,-100,4,2,2,70,0,0
52251,-83.3333333333333,4,2,1,90,0,1
60251,-83.3333333333333,4,2,1,90,0,0
60584,-83.3333333333333,4,2,1,90,0,1
62584,-83.3333333333333,4,2,2,90,0,1
62918,-83.3333333333333,4,2,1,90,0,1
70918,-83.3333333333333,4,2,1,90,0,0
71251,-83.3333333333333,4,2,1,90,0,1
73584,-83.3333333333333,4,2,1,90,0,0
74251,-83.3333333333333,4,2,1,90,0,1
76251,333.333333333333,7,2,2,80,1,0
85584,333.333333333333,3,2,1,60,1,0
85584,-125,3,2,1,60,0,0
101083,-125,3,2,3,60,0,0
101250,-125,3,2,4,60,0,0
101417,-125,3,2,5,60,0,0
101583,-100,3,2,1,60,0,0
108583,-100,3,2,1,70,0,0
109083,-100,3,2,3,70,0,0
109250,-100,3,2,4,70,0,0
109417,-100,3,2,5,70,0,0
109583,-100,3,2,1,70,0,0
113583,333.333333333333,4,2,1,70,1,0
118916,-125,4,2,1,70,0,0
119916,-100,4,2,1,70,0,0
120249,-83.3333333333333,4,2,1,90,0,1
128249,-83.3333333333333,4,2,1,90,0,0
128582,-83.3333333333333,4,2,1,90,0,1
130582,-83.3333333333333,4,2,2,90,0,1
130916,-83.3333333333333,4,2,1,90,0,1
138916,-83.3333333333333,4,2,1,90,0,0
139249,-83.3333333333333,4,2,1,90,0,1
141582,-83.3333333333333,4,2,1,90,0,0
142249,-83.3333333333333,4,2,1,90,0,1
144249,333.333333333333,5,2,2,80,1,0
151249,333.333333333333,5,2,2,80,1,0
158249,333.333333333333,4,2,1,80,1,0
158249,-83.3333333333333,4,2,1,80,0,0
171249,-83.3333333333333,4,2,3,80,0,0
171332,-83.3333333333333,4,2,4,80,0,0
171415,-83.3333333333333,4,2,5,80,0,0
171499,-83.3333333333333,4,2,6,80,0,0
171582,-83.3333333333333,4,2,1,80,0,0
173748,-100,4,2,4,80,0,0
173915,-100,4,2,5,80,0,0
174082,-100,4,2,6,80,0,0
174248,-100,4,2,1,80,0,0
182915,-125,4,2,4,60,0,0
183415,-125,4,2,1,60,0,0
184415,-125,4,2,3,60,0,0
184582,-125,4,2,4,60,0,0
184748,-125,4,2,5,60,0,0
184915,-125,4,2,1,60,0,0
189582,-125,4,2,1,90,0,0
190248,-83.3333333333333,4,2,1,90,0,1
192915,-76.9230769230769,4,2,1,90,0,1
195582,-125,4,2,1,70,0,0
196582,-100,4,2,2,70,0,0
196915,-83.3333333333333,4,2,1,90,0,1
204915,-83.3333333333333,4,2,1,90,0,0
205248,-83.3333333333333,4,2,1,90,0,1
207248,-83.3333333333333,4,2,2,90,0,1
207582,-83.3333333333333,4,2,1,90,0,1
212582,-166.666666666667,4,2,1,90,0,0
212915,-83.3333333333333,4,2,1,90,0,1
215582,-83.3333333333333,4,2,1,90,0,0
215915,-83.3333333333333,4,2,1,90,0,1
218248,-83.3333333333333,4,2,1,90,0,0
218915,-83.3333333333333,4,2,1,90,0,1
220914,333.333333333333,7,2,2,80,1,0

[Colours]
Combo1 : 223,96,130
Combo2 : 174,167,166
Combo3 : 136,140,139
Combo4 : 154,101,154

[HitObjects]
168,200,587,6,0,P|225:206|248:258,1,120,4|0,1:2|0:2,0:2:0:0:
103,359,1086,2,0,P|93:300|73:244,1,120,2|0,0:2|0:2,0:2:0:0:
16,168,1586,2,0,L|20:138,1,30,2|0,0:2|0:2,0:2:0:0:
96,88,1920,2,0,L|85:59,1,30,2|0,0:2|0:2,0:2:0:0:
96,88,2586,6,0,P|153:105|212:117,1,120,2|0,0:2|0:2,0:2:0:0:
335,24,3086,2,0,P|303:72|315:130,1,120,2|0,0:2|0:2,0:2:0:0:
392,192,3586,2,0,L|421:196,1,30,2|0,0:2|0:2,0:2:0:0:
432,288,3920,2,0,L|455:307,1,30,2|0,0:2|0:2,0:2:0:0:
375,359,4253,38,0,P|326:327|267:318,1,120,2|0,1:2|0:2,0:2:0:0:
120,272,4752,2,0,P|178:263|228:230,1,120,2|0,0:2|0:2,0:2:0:0:
296,160,5252,2,0,L|291:130,1,30,2|0,0:2|0:2,0:2:0:0:
352,56,5586,2,0,L|333:32,1,30,2|0,0:2|0:2,0:2:0:0:
352,56,6252,6,0,P|380:108|391:167,1,120,2|0,1:2|0:2,0:2:0:0:
288,304,6752,2,0,B|224:292|224:292|179:325,1,120,2|0,0:2|0:2,0:2:0:0:
88,368,7252,2,0,L|83:338,1,30,2|0,0:2|0:2,0:2:0:0:
8,288,7586,2,0,L|12:258,1,30,2|0,0:2|0:2,0:2:0:0:
104,216,7919,38,0,P|126:177|123:133,1,90,2|0,0:2|0:2,0:2:0:0:
95,127,8252,22,0,P|88:69|124:23,1,120,4|0,1:2|0:2,0:2:0:0:
264,104,8752,2,0,P|271:162|235:208,1,120,2|0,1:2|0:2,0:2:0:0:
192,64,9252,1,2,1:2:0:0:
192,64,9419,1,2,0:2:0:0:
352,104,9586,1,10,0:2:0:0:
352,104,10252,6,0,B|392:64|392:64|453:77,1,120,2|0,1:2|0:2,0:2:0:0:
360,216,10752,2,0,P|365:275|378:334,1,120,2|0,1:2|0:2,0:2:0:0:
464,384,11252,2,0,P|474:356|479:326,1,60,2|2,1:2|0:2,0:2:0:0:
440,240,11586,1,2,1:2:0:0:
256,376,11919,1,10,0:2:0:0:
208,184,12252,38,0,P|256:215|263:273,1,120,2|0,1:2|0:2,0:2:0:0:
152,368,12752,2,0,P|103:336|96:278,1,120,2|0,1:2|0:2,0:2:0:0:
112,184,13252,1,2,1:2:0:0:
112,184,13419,1,2,0:2:0:0:
32,40,13586,1,10,0:2:0:0:
32,40,14252,6,0,P|90:53|149:62,1,120,2|0,1:2|0:2,0:2:0:0:
112,184,14752,2,0,P|83:191|54:200,1,60,2|0,1:2|0:2,0:2:0:0:
8,128,15086,1,2,0:2:0:0:
199,124,15252,38,0,P|206:154|208:184,1,60,2|0,1:2|0:2,0:2:0:0:
304,264,15586,2,0,P|325:243|350:226,1,60,8|0,0:2|0:2,0:2:0:0:
372,103,15919,2,0,P|343:94|316:80,1,60,10|0,0:2|0:2,0:2:0:0:
440,32,16252,6,0,P|472:80|460:138,1,120,4|0,1:2|0:2,0:2:0:0:
304,264,16752,2,0,P|271:215|283:157,1,120,2|0,1:2|0:2,0:2:0:0:
376,192,17252,1,2,1:2:0:0:
376,192,17419,1,2,0:2:0:0:
336,352,17586,1,10,0:2:0:0:
335,352,18252,38,0,P|276:358|220:379,1,120,2|0,1:2|0:2,0:2:0:0:
71,295,18752,2,0,P|93:242|149:230,1,120,2|0,1:2|0:2,0:2:0:0:
248,272,19252,2,0,P|249:242|256:212,1,60,2|2,1:2|0:2,0:2:0:0:
320,136,19586,1,2,1:2:0:0:
192,16,19919,1,10,0:2:0:0:
192,16,20252,6,0,B|152:64|152:64|164:120,1,120,2|0,1:2|0:2,0:2:0:0:
40,232,20752,2,0,B|52:175|52:175|12:127,1,120,2|0,1:2|0:2,0:2:0:0:
64,48,21252,1,2,1:2:0:0:
64,48,21419,1,2,0:2:0:0:
128,200,21586,1,10,0:2:0:0:
128,200,22252,38,0,P|185:215|231:252,1,120,2|0,1:2|0:2,0:2:0:0:
136,376,22752,2,0,P|129:346|127:316,1,60,2|0,1:2|0:2,0:2:0:0:
224,344,23086,1,2,1:2:0:0:
360,208,23252,6,0,P|366:178|368:148,1,60,10|0,0:2|0:2,0:2:0:0:
216,96,23586,2,0,P|238:116|263:132,1,60,2|0,0:2|0:2,0:2:0:0:
385,28,23919,2,0,P|356:37|329:51,1,60,2|0,0:2|0:2,0:2:0:0:
152,24,24252,21,4,1:2:0:0:
120,112,24418,1,2,0:2:0:0:
32,144,24585,5,2,1:2:0:0:
64,232,24751,1,2,0:2:0:0:
24,328,24918,38,0,P|61:333|95:348,1,75,2|2,1:2|0:2,0:2:0:0:
168,288,25252,2,0,L|160:256,2,25,10|2|2,0:2|0:2|0:2,0:2:0:0:
184,296,25418,2,0,P|221:290|255:275,1,75,2|2,0:2|1:2,0:2:0:0:
336,344,25752,1,2,0:2:0:0:
416,288,25918,5,2,1:2:0:0:
416,288,26085,1,2,0:2:0:0:
352,224,26251,37,10,0:2:0:0:
352,224,26418,1,2,0:2:0:0:
400,144,26585,5,2,1:2:0:0:
336,72,26751,1,2,0:2:0:0:
235,90,26918,2,0,P|244:53|252:17,1,75,2|2,1:2|0:2,0:2:0:0:
88,184,27251,2,0,L|64:174,3,25,2|2|2|2,1:2|0:2|0:2|0:2,0:2:0:0:
152,32,27585,37,10,0:2:0:0:
168,160,27751,1,2,0:2:0:0:
56,56,27918,5,2,1:2:0:0:
235,90,28085,1,2,0:2:0:0:
64,174,28251,37,2,1:2:0:0:
160,144,28418,1,2,0:2:0:0:
120,272,28585,5,10,0:2:0:0:
136,280,28751,1,10,0:2:0:0:
184,368,28918,37,4,1:2:0:0:
272,336,29085,1,2,0:2:0:0:
360,376,29251,5,2,1:2:0:0:
384,280,29418,1,2,0:2:0:0:
464,216,29585,38,0,P|451:180|447:143,1,75,2|2,1:2|0:2,0:2:0:0:
352,112,29918,2,0,L|320:120,2,25,10|2|2,0:2|0:2|0:2,0:2:0:0:
360,96,30085,2,0,P|372:60|376:23,1,75,2|2,0:2|1:2,0:2:0:0:
272,56,30418,1,2,0:2:0:0:
176,32,30585,5,2,1:2:0:0:
176,32,30751,1,2,0:2:0:0:
128,112,30918,37,10,0:2:0:0:
128,112,31084,1,2,0:2:0:0:
184,192,31251,5,2,1:2:0:0:
184,192,31418,1,2,0:2:0:0:
184,192,31585,1,2,1:2:0:0:
184,192,31751,1,2,0:2:0:0:
144,288,31918,38,0,L|120:298,3,25,2|2|2|2,1:2|0:2|0:2|0:2,0:2:0:0:
264,352,32251,5,10,0:2:0:0:
288,224,32418,1,2,0:2:0:0:
448,272,32585,38,0,P|452:296|455:321,2,50,10|10|10,1:2|0:2|0:2,0:2:0:0:
408,200,32918,1,10,0:2:0:0:
392,216,33029,2,0,P|387:191|384:166,1,50,10|10,0:2|0:2,0:2:0:0:
448,120,33251,1,10,0:2:0:0:
456,96,33363,1,10,0:2:0:0:
464,72,33474,1,10,0:2:0:0:
472,40,33586,6,0,P|402:22|357:78,1,150,4|0,1:2|0:2,0:2:0:0:
264,40,34086,1,2,1:2:0:0:
264,40,34252,2,0,P|226:42|190:50,1,75,10|0,0:2|0:2,0:2:0:0:
24,136,34586,6,0,B|10:169|10:169|23:205,1,75,2|0,1:2|0:2,0:2:0:0:
176,176,34919,2,0,B|154:147|154:147|115:140,1,75,2|0,1:2|0:2,0:2:0:0:
65,287,35252,2,0,B|100:282|100:282|125:252,1,75,10|0,0:2|0:2,0:2:0:0:
216,312,35586,38,0,P|288:324|332:382,1,150,2|0,1:2|0:2,0:2:0:0:
456,336,36086,1,2,1:2:0:0:
456,336,36252,2,0,P|460:298|468:262,1,75,8|2,0:2|0:2,0:2:0:0:
336,240,36586,5,2,1:2:0:0:
324,164,36752,1,2,0:2:0:0:
313,89,36919,1,2,1:2:0:0:
294,13,37086,1,2,0:2:0:0:
294,13,37252,2,0,P|349:17|403:34,1,112.5,10|0,0:2|0:2,0:2:0:0:
403,34,37585,38,0,P|381:102|311:115,1,150,4|0,1:2|0:2,0:2:0:0:
248,192,38085,1,2,1:2:0:0:
104,120,38252,2,0,B|98:85|98:85|118:50,1,75,10|0,0:2|0:2,0:2:0:0:
208,0,38585,6,0,P|193:73|180:147,2,150,2|0|8,1:2|1:2|0:2,0:2:0:0:
120,208,39585,38,0,P|50:221|20:288,1,150,2|0,1:2|0:2,0:2:0:0:
72,368,40085,1,2,1:2:0:0:
192,272,40252,2,0,P|229:275|265:285,1,75,8|2,0:2|0:2,0:2:0:0:
408,384,40585,5,4,1:2:0:0:
464,256,40752,1,10,0:2:0:0:
464,256,40835,1,10,0:2:0:0:
464,256,40919,1,10,0:2:0:0:
344,184,41085,1,10,1:2:0:0:
384,248,41252,1,10,1:2:0:0:
424,184,41419,1,10,1:2:0:0:
288,272,41585,38,0,P|214:286|154:330,1,150,4|0,1:2|1:2,0:2:0:0:
7,384,42085,2,0,P|19:348|24:311,1,75,2|10,0:2|0:2,0:2:0:0:
168,216,42419,1,2,0:2:0:0:
96,176,42585,6,0,P|84:140|79:103,1,75,2|2,1:2|0:2,0:2:0:0:
96,72,42835,1,2,0:2:0:0:
95,71,42919,2,0,B|128:54|128:54|165:60,1,75,2|2,1:2|0:2,0:2:0:0:
280,144,43252,1,10,0:2:0:0:
320,16,43419,1,2,0:2:0:0:
456,104,43585,38,0,P|446:140|441:177,1,75,2|2,1:2|0:2,0:2:0:0:
504,256,43919,1,2,1:2:0:0:
344,248,44085,2,0,P|353:284|368:318,1,75,2|10,0:2|0:2,0:2:0:0:
464,360,44419,1,2,0:2:0:0:
441,177,44585,5,2,1:2:0:0:
344,248,44752,1,10,0:2:0:0:
344,248,44835,1,10,0:2:0:0:
344,248,44919,1,10,0:2:0:0:
216,184,45085,37,10,0:2:0:0:
216,184,45169,1,2,1:2:0:0:
216,184,45252,2,0,L|220:160,5,25,10|0|0|0|0|0,1:2|1:2|1:2|1:2|1:2|1:2,0:2:0:0:
200,200,45585,6,0,P|164:188|127:183,1,75,12|2,1:2|1:2,0:2:0:0:
40,224,45918,1,2,1:2:0:0:
192,368,46085,38,0,P|227:356|264:351,1,75,10|2,1:2|1:2,0:2:0:0:
360,384,46418,1,2,1:2:0:0:
440,208,46585,5,10,1:2:0:0:
320,272,46751,1,2,1:2:0:0:
436,344,46918,1,2,1:2:0:0:
352,184,47085,38,0,B|336:151|336:151|346:113,1,75,10|2,1:2|1:2,0:2:0:0:
488,32,47418,1,2,1:2:0:0:
488,32,47501,1,2,1:2:0:0:
488,32,47585,2,0,L|414:18,1,75,12|2,1:2|1:2,0:2:0:0:
352,184,47918,1,12,1:2:0:0:
352,184,48001,1,2,1:2:0:0:
352,184,48085,1,2,1:2:0:0:
352,184,48168,1,2,1:2:0:0:
352,184,48251,6,0,P|315:191|279:202,1,75,12|2,1:2|1:2,0:2:0:0:
248,296,48585,1,2,1:2:0:0:
96,216,48751,38,0,P|107:180|115:143,1,75,10|2,1:2|1:2,0:2:0:0:
64,64,49085,1,2,1:2:0:0:
264,8,49251,5,10,1:2:0:0:
195,117,49418,1,2,1:2:0:0:
134,4,49584,1,2,1:2:0:0:
288,96,49751,38,0,B|304:131|304:131|293:166,1,75,10|2,1:2|1:2,0:2:0:0:
168,272,50084,1,2,1:2:0:0:
168,272,50168,1,2,1:2:0:0:
168,272,50251,2,0,L|94:258,1,75,10|2,1:2|1:2,0:2:0:0:
256,384,50584,2,0,L|280:379,5,25,8|8|8|8|8|8,0:2|0:2|0:2|0:2|0:2|0:2,0:2:0:0:
256,384,50918,22,0,B|221:301|275:283|291:287|340:259|313:172,1,240,10|2,1:2|1:2,0:2:0:0:
208,100,51751,5,2,1:2:0:0:
208,100,51834,1,2,0:2:0:0:
208,100,51918,22,0,L|171:109,1,37.5,2|2,1:2|1:2,0:2:0:0:
96,32,52084,38,0,L|60:23,1,37.5,2|2,1:2|1:2,0:2:0:0:
8,152,52251,6,0,P|35:231|119:232,1,179.999994506836,4|8,1:2|0:2,0:2:0:0:
240,384,52751,2,0,P|241:339|248:294,1,89.9999972534181,2|0,0:2|1:2,0:2:0:0:
336,200,53084,1,2,0:2:0:0:
456,344,53251,2,0,B|409:356|409:356|375:332,1,89.9999972534181,10|0,0:2|0:2,0:2:0:0:
184,152,53584,37,2,1:2:0:0:
288,128,53751,1,2,0:2:0:0:
392,104,53918,1,10,0:2:0:0:
495,79,54084,2,0,P|500:162|422:193,1,179.999994506836,2|0,0:2|0:2,0:2:0:0:
312,24,54584,1,10,0:2:0:0:
288,128,54751,1,2,0:2:0:0:
176,32,54918,6,0,B|85:16|107:93|11:82,1,179.999994506836,4|10,1:2|0:2,0:2:0:0:
184,128,55418,2,0,P|196:171|206:215,1,89.9999972534181,2|0,0:2|1:2,0:2:0:0:
144,304,55751,1,2,0:2:0:0:
0,192,55918,2,0,P|43:179|84:161,1,89.9999972534181,10|0,0:2|0:2,0:2:0:0:
312,216,56251,37,2,1:2:0:0:
274,336,56418,1,2,0:2:0:0:
154,298,56584,1,10,0:2:0:0:
191,178,56751,1,2,1:2:0:0:
191,178,56834,1,2,1:2:0:0:
191,178,56918,1,2,1:2:0:0:
312,216,57084,5,10,0:2:0:0:
341,216,57167,1,10,0:2:0:0:
369,204,57250,1,10,0:2:0:0:
389,182,57334,1,10,0:2:0:0:
398,154,57417,1,10,0:2:0:0:
394,124,57500,1,10,0:2:0:0:
379,99,57584,38,0,B|350:55|300:45|300:45|276:86|233:85,1,179.999994506836,4|8,1:2|0:2,0:2:0:0:
88,16,58084,2,0,B|63:54|63:54|70:97,1,89.9999972534181,2|2,0:2|1:2,0:2:0:0:
160,160,58418,1,0,0:2:0:0:
87,304,58584,2,0,P|44:313|1:328,1,89.9999972534181,10|0,0:2|0:2,0:2:0:0:
0,208,58918,5,2,1:2:0:0:
105,221,59085,1,2,0:2:0:0:
211,234,59252,1,10,0:2:0:0:
317,245,59418,2,0,P|308:200|296:157,1,89.9999972534181,2|0,0:2|1:2,0:2:0:0:
216,96,59751,1,2,0:2:0:0:
304,48,59918,1,10,0:2:0:0:
216,0,60084,1,10,0:2:0:0:
216,0,60168,1,10,0:2:0:0:
216,0,60251,37,10,1:2:0:0:
216,0,60584,2,0,B|173:-10|173:-10|135:15,1,89.9999972534181,12|0,1:2|0:2,0:2:0:0:
112,112,60918,1,2,1:2:0:0:
88,208,61084,1,2,1:2:0:0:
64,304,61251,1,10,0:2:0:0:
200,384,61418,6,0,P|274:344|259:261,1,179.999994506836,4|0,1:2|0:2,0:2:0:0:
392,159,61918,2,0,P|398:204|406:248,1,89.9999972534181,10|2,0:2|1:2,0:2:0:0:
192,168,62251,2,0,P|200:123|206:79,1,89.9999972534181,2|2,1:2|1:2,0:2:0:0:
320,8,62584,38,0,L|313:52,1,44.999998626709,10|10,0:2|0:2,0:2:0:0:
385,115,62751,6,0,L|391:159,1,44.999998626709,10|10,0:2|0:2,0:2:0:0:
258,261,62918,38,0,P|172:284|86:312,1,179.999994506836,4|8,1:2|0:2,0:2:0:0:
344,384,63418,2,0,B|360:346|360:346|341:300,1,89.9999972534181,2|0,0:2|1:2,0:2:0:0:
416,232,63751,1,2,0:2:0:0:
312,104,63918,2,0,P|267:96|223:90,1,89.9999972534181,10|0,0:2|0:2,0:2:0:0:
113,32,64251,5,2,1:2:0:0:
126,137,64418,1,2,0:2:0:0:
139,243,64585,1,10,0:2:0:0:
149,348,64751,2,0,P|233:341|258:260,1,179.999994506836,2|2,0:2|0:2,0:2:0:0:
208,176,65251,1,10,0:2:0:0:
320,56,65418,1,2,1:2:0:0:
320,56,65501,1,2,1:2:0:0:
320,56,65584,38,0,B|383:67|383:67|427:42|427:42|491:53,1,179.999994506836,4|8,1:2|0:2,0:2:0:0:
258,260,66084,2,0,B|194:271|194:271|150:246|150:246|86:257,1,179.999994506836,2|0,1:2|1:2,0:2:0:0:
232,88,66584,1,10,0:2:0:0:
384,224,66751,6,0,B|432:264|400:336|400:336|368:336|349:311,1,179.999994506836,4|0,1:2|1:2,0:2:0:0:
176,344,67251,1,10,0:2:0:0:
224,184,67418,1,2,1:2:0:0:
272,352,67584,1,2,1:2:0:0:
80,312,67751,1,10,0:2:0:0:
72,290,67834,1,10,0:2:0:0:
66,269,67917,1,10,0:2:0:0:
62,246,68000,1,10,0:2:0:0:
60,224,68084,1,10,0:2:0:0:
59,202,68167,1,10,0:2:0:0:
64,176,68251,38,0,B|104:144|104:144|104:64|71:21,1,179.999994506836,4|8,1:2|0:2,0:2:0:0:
272,104,68751,2,0,B|325:110|392:85|392:85|365:103|355:127,1,179.999994506836,2|0,1:2|1:2,0:2:0:0:
288,272,69251,1,10,0:2:0:0:
290,305,69334,1,10,0:2:0:0:
309,332,69417,1,10,0:2:0:0:
339,346,69500,1,10,0:2:0:0:
372,341,69584,6,0,P|329:268|244:277,1,179.999994506836,4|10,1:2|0:2,0:2:0:0:
88,312,70084,2,0,P|96:222|103:132,1,179.999994506836,4|0,1:2|1:2,0:2:0:0:
215,17,70584,1,10,0:2:0:0:
247,27,70667,1,10,0:2:0:0:
279,35,70750,1,10,0:2:0:0:
312,42,70833,1,10,0:2:0:0:
346,48,70917,37,10,1:2:0:0:
346,48,71251,2,0,B|370:88|370:88|356:129,1,89.9999972534181,12|0,1:2|1:2,0:2:0:0:
356,129,71501,1,2,1:2:0:0:
356,129,71584,1,2,1:2:0:0:
336,224,71751,1,2,1:2:0:0:
312,312,71918,1,2,1:2:0:0:
488,384,72084,6,0,P|470:295|458:206,1,179.999994506836,4|8,1:2|0:2,0:2:0:0:
311,312,72584,2,0,P|268:321|225:336,1,89.9999972534181,10|10,0:2|0:2,0:2:0:0:
112,248,72918,1,10,0:2:0:0:
96,376,73084,1,10,0:2:0:0:
200,248,73251,1,10,0:2:0:0:
207,215,73334,1,10,0:2:0:0:
206,181,73417,1,10,0:2:0:0:
197,148,73500,1,10,0:2:0:0:
181,119,73584,37,12,1:2:0:0:
181,119,73918,1,4,1:2:0:0:
181,119,74251,2,0,B|165:79|165:79|177:33,1,89.9999972534181,12|0,1:2|1:2,0:2:0:0:
280,120,74584,1,2,1:2:0:0:
144,240,74751,6,0,P|58:246|23:324,1,179.999994506836,4|8,1:2|0:2,0:2:0:0:
232,336,75251,2,0,P|238:291|240:246,1,89.9999972534181,10|0,0:2|1:2,0:2:0:0:
352,296,75584,1,10,1:2:0:0:
432,208,75751,1,10,0:2:0:0:
441,179,75834,1,10,0:2:0:0:
441,149,75917,1,10,1:2:0:0:
430,121,76000,1,10,0:2:0:0:
411,99,76084,1,10,0:2:0:0:
385,84,76167,1,10,0:2:0:0:
356,79,76250,21,12,1:2:0:0:
264,104,76417,1,2,0:2:0:0:
200,176,76584,5,10,0:2:0:0:
108,151,76750,1,2,0:2:0:0:
24,88,76917,38,0,P|11:123|10:160,1,75,2|2,1:2|0:2,0:2:0:0:
72,232,77251,2,0,L|104:224,2,25,10|2|2,0:2|0:2|0:2,0:2:0:0:
64,248,77417,2,0,P|61:285|49:320,1,75,2|2,0:2|1:2,0:2:0:0:
136,376,77751,1,2,0:2:0:0:
208,312,77917,5,10,0:2:0:0:
208,312,78084,1,2,0:2:0:0:
296,360,78250,37,2,1:2:0:0:
296,360,78417,1,10,0:2:0:0:
400,360,78584,5,2,1:2:0:0:
384,264,78750,1,2,0:2:0:0:
480,216,78917,2,0,P|489:179|497:143,1,75,10|2,0:2|0:2,0:2:0:0:
360,48,79250,2,0,L|336:58,3,25,2|2|2|2,1:2|0:2|0:2|0:2,0:2:0:0:
408,176,79584,37,10,0:2:0:0:
440,24,79750,1,2,0:2:0:0:
318,136,79917,5,2,1:2:0:0:
505,102,80084,1,2,0:2:0:0:
392,224,80250,37,10,0:2:0:0:
488,248,80417,1,2,0:2:0:0:
400,344,80584,5,2,1:2:0:0:
416,336,80750,1,10,0:2:0:0:
368,256,80917,37,4,1:2:0:0:
272,272,81084,1,2,0:2:0:0:
256,360,81250,5,10,0:2:0:0:
168,336,81417,1,2,0:2:0:0:
80,376,81584,38,0,P|67:340|63:303,1,75,2|2,1:2|0:2,0:2:0:0:
120,224,81917,2,0,L|88:216,2,25,10|2|2,0:2|0:2|0:2,0:2:0:0:
136,232,82084,2,0,P|148:196|152:159,1,75,2|2,0:2|1:2,0:2:0:0:
88,88,82417,1,2,0:2:0:0:
168,32,82584,5,10,0:2:0:0:
168,32,82750,1,2,0:2:0:0:
256,88,82917,37,2,1:2:0:0:
256,88,83083,1,10,0:2:0:0:
336,24,83250,5,2,1:2:0:0:
336,24,83417,1,2,0:2:0:0:
336,24,83584,1,10,0:2:0:0:
336,24,83750,1,2,0:2:0:0:
456,56,83917,38,0,L|462:80,3,25,2|2|2|2,1:2|0:2|0:2|0:2,0:2:0:0:
360,216,84250,5,10,0:2:0:0:
384,96,84417,1,2,1:2:0:0:
448,248,84584,37,2,1:2:0:0:
304,312,84750,1,10,0:2:0:0:
472,360,84917,5,2,0:2:0:0:
392,328,85084,1,2,0:2:0:0:
472,344,85250,37,2,0:2:0:0:
400,344,85417,1,2,0:2:0:0:
293,227,85584,6,0,B|229:221|229:221|189:260,1,120,4|0,1:2|0:2,0:2:0:0:
127,383,86084,2,0,P|115:325|96:268,1,120,2|0,1:2|0:2,0:2:0:0:
48,208,86584,1,2,1:2:0:0:
16,280,86750,1,0,0:2:0:0:
168,168,86917,1,10,0:2:0:0:
168,168,87584,6,0,P|167:109|212:73,1,120,2|0,1:2|0:2,0:2:0:0:
360,176,88084,2,0,P|360:234|315:270,1,120,2|2,1:2|0:2,0:2:0:0:
272,176,88584,1,10,0:2:0:0:
275,153,88667,1,10,0:2:0:0:
281,131,88750,1,10,0:2:0:0:
287,110,88833,1,10,0:2:0:0:
295,89,88917,1,10,0:2:0:0:
480,208,89250,1,2,1:2:0:0:
279,351,89584,38,0,P|221:338|162:330,1,120,2|0,1:2|0:2,0:2:0:0:
32,368,90084,2,0,B|4:316|4:316|25:258,1,120,2|0,1:2|0:2,0:2:0:0:
80,200,90584,1,2,1:2:0:0:
104,272,90750,1,2,0:2:0:0:
0,112,90917,1,10,0:2:0:0:
0,112,91584,6,0,P|57:95|113:74,1,120,2|0,1:2|0:2,0:2:0:0:
215,160,92084,2,0,P|245:164|273:175,1,60,2|0,1:2|0:2,0:2:0:0:
368,96,92417,1,0,0:2:0:0:
472,152,92584,1,10,0:2:0:0:
481,172,92667,1,10,0:2:0:0:
486,194,92750,1,10,0:2:0:0:
489,216,92833,1,10,0:2:0:0:
488,239,92917,2,0,P|476:266|471:295,1,60,10|0,0:2|0:2,0:2:0:0:
359,383,93250,2,0,P|352:339|341:296,1,90,10|0,0:2|0:2,0:2:0:0:
341,296,93583,38,0,P|282:294|243:337,1,120,4|0,1:2|0:2,0:2:0:0:
120,376,94083,2,0,P|150:326|132:270,1,120,2|0,1:2|0:2,0:2:0:0:
72,224,94583,1,2,1:2:0:0:
64,304,94750,1,2,0:2:0:0:
232,208,94917,1,10,0:2:0:0:
232,208,95583,6,0,B|256:152|256:152|232:98,1,120,2|0,1:2|0:2,0:2:0:0:
48,128,96083,2,0,P|106:139|165:154,1,120,2|2,1:2|0:2,0:2:0:0:
136,248,96583,1,10,0:2:0:0:
116,257,96666,1,10,0:2:0:0:
95,264,96749,1,10,0:2:0:0:
73,270,96832,1,10,0:2:0:0:
50,272,96916,1,10,0:2:0:0:
216,376,97250,1,2,1:2:0:0:
360,264,97583,38,0,P|375:207|345:157,1,120,2|0,1:2|0:2,0:2:0:0:
496,80,98083,2,0,P|489:109|487:139,1,60,2|0,1:2|0:2,0:2:0:0:
400,88,98417,1,2,0:2:0:0:
271,208,98583,2,0,P|243:216|215:227,1,60,2|0,1:2|0:2,0:2:0:0:
288,368,98917,1,10,0:2:0:0:
288,368,99250,1,2,0:2:0:0:
200,320,99417,1,2,0:2:0:0:
119,383,99583,6,0,P|63:363|4:352,1,120,2|0,1:2|0:2,0:2:0:0:
100,259,100083,2,0,P|156:238|215:227,1,120,2|2,1:2|1:2,0:2:0:0:
64,160,100583,1,8,0:2:0:0:
128,88,100750,1,10,0:2:0:0:
128,88,100833,1,10,0:2:0:0:
128,88,100917,1,10,0:2:0:0:
128,88,101000,1,10,0:2:0:0:
128,88,101083,1,10,0:2:0:0:
128,88,101167,1,10,0:2:0:0:
128,88,101250,2,0,P|170:102|214:112,1,90,10|0,0:2|0:2,0:2:0:0:
214,112,101583,38,0,P|260:57|328:76,1,150,4|0,1:2|0:2,0:2:0:0:
416,24,102083,1,2,1:2:0:0:
416,24,102250,2,0,P|418:62|426:98,1,75,10|0,0:2|0:2,0:2:0:0:
504,200,102583,6,0,B|471:214|471:214|435:201,1,75,2|0,1:2|0:2,0:2:0:0:
320,184,102916,2,0,B|349:206|349:206|356:245,1,75,2|0,1:2|0:2,0:2:0:0:
398,351,103250,2,0,B|402:314|402:314|432:289,1,75,10|0,0:2|0:2,0:2:0:0:
280,304,103583,38,0,P|208:316|164:374,1,150,2|0,1:2|0:2,0:2:0:0:
40,304,104083,1,2,1:2:0:0:
40,304,104250,2,0,P|36:266|28:230,1,75,8|2,0:2|0:2,0:2:0:0:
80,80,104583,5,2,1:2:0:0:
156,92,104749,1,2,0:2:0:0:
144,168,104916,1,2,1:2:0:0:
68,156,105083,1,2,0:2:0:0:
156,92,105250,2,0,P|211:88|265:71,1,112.5,10|0,0:2|0:2,0:2:0:0:
265,70,105583,38,0,P|333:92|346:162,1,150,4|0,1:2|0:2,0:2:0:0:
416,240,106082,1,2,1:2:0:0:
296,296,106250,2,0,B|276:331|276:331|282:366,1,75,10|0,0:2|0:2,0:2:0:0:
512,320,106583,6,0,P|439:335|365:348,2,150,2|0|8,1:2|1:2|0:2,0:2:0:0:
296,296,107583,38,0,P|226:283|196:216,1,150,2|0,1:2|0:2,0:2:0:0:
256,144,108082,1,2,1:2:0:0:
144,88,108250,2,0,P|133:51|130:14,1,75,8|2,0:2|0:2,0:2:0:0:
32,176,108582,5,4,1:2:0:0:
195,216,108749,1,10,0:2:0:0:
195,216,108832,1,10,0:2:0:0:
195,216,108916,1,10,0:2:0:0:
88,344,109082,1,10,1:2:0:0:
72,272,109249,1,10,1:2:0:0:
144,288,109416,1,10,1:2:0:0:
280,376,109583,38,0,P|312:309|313:234,1,150,4|0,1:2|1:2,0:2:0:0:
448,168,110083,2,0,P|453:205|464:240,1,75,0|10,0:2|0:2,0:2:0:0:
400,296,110417,1,2,0:2:0:0:
336,136,110583,2,0,P|298:130|263:119,1,75,2|2,1:2|0:2,0:2:0:0:
120,200,110916,2,0,B|114:237|114:237|131:270,1,75,2|2,1:2|0:2,0:2:0:0:
263,119,111249,1,10,0:2:0:0:
120,56,111416,1,0,0:2:0:0:
216,200,111583,6,0,P|253:204|289:215,1,75,2|2,1:2|0:2,0:2:0:0:
392,176,111916,1,2,1:2:0:0:
312,312,112083,2,0,P|346:296|382:287,1,75,2|10,0:2|0:2,0:2:0:0:
416,368,112416,1,2,0:2:0:0:
232,288,112582,37,2,1:2:0:0:
144,384,112749,1,10,0:2:0:0:
144,384,112832,1,10,0:2:0:0:
144,384,112916,1,10,0:2:0:0:
32,320,113082,5,10,0:2:0:0:
32,320,113166,1,2,1:2:0:0:
32,320,113250,2,0,L|8:324,5,25,10|0|0|0|0|0,1:2|1:2|1:2|1:2|1:2|1:2,0:2:0:0:
48,312,113582,38,0,P|36:276|31:239,1,75,12|2,1:2|1:2,0:2:0:0:
88,160,113915,1,2,1:2:0:0:
232,288,114082,6,0,P|267:276|304:271,1,75,10|2,1:2|1:2,0:2:0:0:
400,304,114415,1,2,1:2:0:0:
496,144,114582,37,10,1:2:0:0:
376,208,114748,1,2,1:2:0:0:
492,280,114915,1,2,1:2:0:0:
400,112,115082,6,0,B|367:96|367:96|329:106,1,75,10|2,1:2|1:2,0:2:0:0:
216,208,115415,1,2,1:2:0:0:
216,208,115498,1,2,1:2:0:0:
216,208,115582,2,0,L|142:194,1,75,12|2,1:2|1:2,0:2:0:0:
80,80,115915,1,12,1:2:0:0:
80,80,115998,1,2,1:2:0:0:
80,80,116082,1,2,1:2:0:0:
80,80,116165,1,2,1:2:0:0:
80,80,116249,38,0,P|43:87|7:98,1,75,12|2,1:2|1:2,0:2:0:0:
128,8,116582,1,2,1:2:0:0:
256,136,116749,6,0,P|292:143|328:154,1,75,10|2,1:2|1:2,0:2:0:0:
224,56,117082,1,2,1:2:0:0:
176,288,117248,37,10,1:2:0:0:
285,219,117415,1,2,1:2:0:0:
172,158,117583,1,2,1:2:0:0:
264,320,117749,6,0,B|299:336|299:336|334:325,1,75,10|2,1:2|1:2,0:2:0:0:
464,384,118083,1,2,1:2:0:0:
464,384,118165,1,2,1:2:0:0:
464,384,118249,2,0,L|478:310,1,75,10|2,1:2|1:2,0:2:0:0:
376,184,118583,2,0,L|381:208,5,25,8|8|8|8|8|8,0:2|0:2|0:2|0:2|0:2|0:2,0:2:0:0:
376,184,118916,6,0,B|335:151|299:171|299:171|291:218|271:239|271:239|236:209|197:246,1,240,10|2,1:2|1:2,0:2:0:0:
104,328,119748,5,2,1:2:0:0:
104,328,119833,1,2,1:2:0:0:
104,328,119916,22,0,L|113:365,1,37.5,2|2,1:2|1:2,0:2:0:0:
8,280,120083,38,0,L|17:244,1,37.5,2|2,1:2|1:2,0:2:0:0:
136,176,120249,6,0,P|109:97|25:96,1,179.999994506836,4|8,1:2|0:2,0:2:0:0:
224,0,120749,2,0,P|217:44|216:89,1,89.9999972534181,2|0,0:2|1:2,0:2:0:0:
280,168,121081,1,2,0:2:0:0:
432,32,121249,2,0,B|398:8|398:8|351:20,1,89.9999972534181,10|0,0:2|0:2,0:2:0:0:
112,24,121581,37,2,1:2:0:0:
136,128,121748,1,2,0:2:0:0:
160,232,121915,1,10,0:2:0:0:
185,335,122082,2,0,P|102:340|71:262,1,179.999994506836,2|0,0:2|0:2,0:2:0:0:
280,272,122582,1,10,0:2:0:0:
264,376,122749,1,2,0:2:0:0:
160,232,122916,6,0,B|169:176|169:176|208:142|208:142|220:71,1,179.999994506836,4|10,1:2|0:2,0:2:0:0:
40,16,123415,2,0,P|52:59|62:103,1,89.9999972534181,2|0,0:2|1:2,0:2:0:0:
0,176,123748,1,2,0:2:0:0:
32,336,123916,2,0,P|75:324|119:314,1,89.9999972534181,10|0,0:2|0:2,0:2:0:0:
272,208,124248,37,2,1:2:0:0:
391,245,124415,1,2,0:2:0:0:
354,365,124581,1,10,0:2:0:0:
234,327,124748,1,2,1:2:0:0:
234,327,124831,1,2,1:2:0:0:
234,327,124915,1,2,1:2:0:0:
272,208,125082,5,10,0:2:0:0:
272,179,125166,1,10,0:2:0:0:
284,151,125249,1,10,0:2:0:0:
306,131,125332,1,10,0:2:0:0:
334,122,125416,1,10,0:2:0:0:
364,126,125499,1,10,0:2:0:0:
390,143,125582,38,0,B|424:192|400:264|400:264|368:272|352:247,1,179.999994506836,4|8,1:2|0:2,0:2:0:0:
480,96,126082,2,0,B|505:58|505:58|498:15,1,89.9999972534181,2|2,0:2|1:2,0:2:0:0:
400,0,126416,1,0,0:2:0:0:
306,131,126582,2,0,P|263:140|220:155,1,89.9999972534181,10|0,0:2|0:2,0:2:0:0:
136,32,126916,5,2,1:2:0:0:
123,137,127082,1,2,0:2:0:0:
110,243,127249,1,10,0:2:0:0:
99,349,127415,2,0,P|142:362|184:377,1,89.9999972534181,2|0,0:2|1:2,0:2:0:0:
240,288,127748,1,2,0:2:0:0:
288,376,127915,1,10,0:2:0:0:
336,288,128081,1,10,0:2:0:0:
336,288,128165,1,10,0:2:0:0:
336,288,128248,37,10,1:2:0:0:
336,288,128582,2,0,B|361:250|361:250|351:207,1,89.9999972534181,12|0,1:2|0:2,0:2:0:0:
256,176,128916,1,2,1:2:0:0:
160,152,129082,1,2,1:2:0:0:
64,128,129249,1,10,0:2:0:0:
264,0,129415,6,0,P|338:40|323:123,1,179.999994506836,4|0,1:2|0:2,0:2:0:0:
456,128,129915,2,0,P|447:83|442:39,1,89.9999972534181,10|2,0:2|1:2,0:2:0:0:
232,96,130249,2,0,P|225:140|218:184,1,89.9999972534181,10|10,0:2|0:2,0:2:0:0:
416,288,130582,38,0,L|372:281,1,44.999998626709,10|10,0:2|0:2,0:2:0:0:
309,353,130749,6,0,L|265:359,1,44.999998626709,10|10,0:2|0:2,0:2:0:0:
184,288,130916,38,0,P|98:260|11:236,1,179.999994506836,4|8,1:2|0:2,0:2:0:0:
112,104,131416,2,0,B|128:142|128:142|109:187,1,89.9999972534181,2|0,0:2|1:2,0:2:0:0:
11,236,131749,1,2,0:2:0:0:
88,384,131916,2,0,P|132:376|176:370,1,89.9999972534181,10|0,0:2|0:2,0:2:0:0:
304,384,132249,5,2,1:2:0:0:
317,279,132416,1,2,0:2:0:0:
330,173,132582,1,10,0:2:0:0:
340,67,132748,2,0,P|420:90|419:174,1,179.999994506836,2|2,0:2|0:2,0:2:0:0:
464,264,133248,1,10,0:2:0:0:
330,173,133415,1,2,1:2:0:0:
330,173,133498,1,2,1:2:0:0:
330,173,133582,38,0,P|241:187|156:217,1,179.999994506836,4|8,1:2|0:2,0:2:0:0:
16,0,134082,2,0,P|100:30|189:44,1,179.999994506836,2|0,1:2|1:2,0:2:0:0:
72,192,134582,1,10,0:2:0:0:
272,40,134749,6,0,B|312:-8|384:24|384:24|384:56|359:75,1,179.999994506836,4|0,1:2|1:2,0:2:0:0:
464,224,135249,1,10,0:2:0:0:
288,160,135416,1,2,1:2:0:0:
472,128,135582,1,2,1:2:0:0:
392,288,135749,1,10,0:2:0:0:
368,288,135832,1,10,0:2:0:0:
346,289,135916,1,10,0:2:0:0:
323,293,135999,1,10,0:2:0:0:
302,299,136082,1,10,0:2:0:0:
281,305,136166,1,10,0:2:0:0:
258,316,136249,38,0,B|168:349|83:356,1,179.999994506836,4|8,1:2|0:2,0:2:0:0:
8,151,136749,2,0,P|92:157|119:237,1,179.999994506836,2|0,1:2|1:2,0:2:0:0:
258,316,137249,1,10,0:2:0:0:
291,314,137332,1,10,0:2:0:0:
318,295,137416,1,10,0:2:0:0:
332,265,137499,1,10,0:2:0:0:
328,234,137582,6,0,P|307:146|297:57,1,179.999994506836,4|10,1:2|0:2,0:2:0:0:
456,192,138082,2,0,P|435:279|425:368,1,179.999994506836,4|0,1:2|1:2,0:2:0:0:
232,240,138582,1,10,0:2:0:0:
200,230,138666,1,10,0:2:0:0:
168,222,138749,1,10,0:2:0:0:
135,215,138832,1,10,0:2:0:0:
101,209,138916,37,10,1:2:0:0:
101,209,139249,2,0,B|77:249|77:249|91:290,1,89.9999972534181,12|0,1:2|1:2,0:2:0:0:
91,290,139499,1,2,1:2:0:0:
91,290,139582,1,2,1:2:0:0:
192,328,139749,1,2,1:2:0:0:
288,360,139916,1,2,1:2:0:0:
384,192,140082,6,0,P|298:190|263:267,1,179.999994506836,4|8,1:2|0:2,0:2:0:0:
432,336,140582,2,0,P|441:293|456:250,1,89.9999972534181,10|10,0:2|0:2,0:2:0:0:
352,96,140916,1,10,0:2:0:0:
496,144,141082,1,10,0:2:0:0:
363,270,141249,1,10,0:2:0:0:
330,277,141332,1,10,0:2:0:0:
296,276,141416,1,10,0:2:0:0:
263,267,141499,1,10,0:2:0:0:
234,251,141582,37,12,1:2:0:0:
234,251,141916,1,4,1:2:0:0:
234,251,142249,2,0,B|218:211|218:211|230:165,1,89.9999972534181,12|0,1:2|1:2,0:2:0:0:
296,88,142582,1,2,1:2:0:0:
88,24,142749,6,0,P|113:110|126:199,1,179.999994506836,4|8,1:2|0:2,0:2:0:0:
72,368,143249,2,0,P|116:361|161:359,1,89.9999972534181,10|0,0:2|1:2,0:2:0:0:
264,288,143582,1,10,1:2:0:0:
376,336,143749,1,10,0:2:0:0:
398,315,143832,1,10,0:2:0:0:
413,289,143915,1,10,1:2:0:0:
417,259,143998,1,10,0:2:0:0:
412,231,144082,1,10,0:2:0:0:
397,205,144165,1,10,0:2:0:0:
374,186,144248,21,4,1:2:0:0:
280,200,144415,1,2,0:2:0:0:
186,214,144582,1,2,1:2:0:0:
304,376,144749,21,10,0:2:0:0:
413,289,144915,2,0,P|376:278|340:271,1,75,2|2,1:2|0:2,0:2:0:0:
208,120,145249,21,2,1:2:0:0:
186,214,145415,1,2,1:2:0:0:
258,294,145582,21,10,0:2:0:0:
280,200,145748,1,2,0:2:0:0:
72,176,145915,21,4,1:2:0:0:
86,270,146082,1,2,0:2:0:0:
100,364,146249,1,2,1:2:0:0:
258,294,146415,21,10,0:2:0:0:
186,213,146582,2,0,P|175:249|166:286,1,75,2|2,1:2|0:2,0:2:0:0:
328,384,146915,21,2,1:2:0:0:
328,384,147082,1,2,1:2:0:0:
328,384,147249,2,0,P|338:348|347:311,1,75,10|2,0:2|1:2,0:2:0:0:
440,272,147582,21,4,1:2:0:0:
426,178,147749,1,2,0:2:0:0:
412,84,147916,1,2,1:2:0:0:
272,8,148082,21,10,0:2:0:0:
320,144,148249,2,0,P|323:106|329:69,1,75,2|2,1:2|0:2,0:2:0:0:
152,64,148582,21,2,1:2:0:0:
240,88,148749,1,2,1:2:0:0:
168,160,148915,21,10,0:2:0:0:
80,136,149082,1,2,0:2:0:0:
40,256,149249,21,4,1:2:0:0:
134,242,149416,1,2,0:2:0:0:
228,228,149583,1,2,1:2:0:0:
272,384,149749,21,10,0:2:0:0:
136,320,149915,2,0,P|173:323|210:330,1,75,2|2,1:2|0:2,0:2:0:0:
360,232,150249,6,0,P|384:226|407:216,2,50,8|8|8,0:2|0:2|0:2,0:2:0:0:
288,200,150582,5,8,0:2:0:0:
280,168,150693,1,8,0:2:0:0:
272,136,150804,1,8,0:2:0:0:
263,104,150915,2,0,P|268:79|271:54,2,50,8|8|8,0:2|0:2|0:2,0:2:0:0:
172,81,151249,21,4,1:2:0:0:
102,150,151415,1,2,0:2:0:0:
197,175,151582,1,10,0:2:0:0:
40,288,151749,21,2,0:2:0:0:
160,256,151915,2,0,P|149:291|141:328,1,75,2|2,1:2|0:2,0:2:0:0:
312,352,152249,21,10,0:2:0:0:
224,376,152415,1,2,1:2:0:0:
352,248,152582,21,10,0:2:0:0:
264,272,152748,1,2,1:2:0:0:
448,368,152915,21,4,1:2:0:0:
496,280,153082,1,2,0:2:0:0:
444,195,153249,1,10,0:2:0:0:
288,136,153415,21,2,0:2:0:0:
392,63,153582,2,0,P|384:100|378:137,1,75,10|10,0:2|0:2,0:2:0:0:
224,240,153915,21,2,1:2:0:0:
222,230,153998,1,0,1:2:0:0:
221,221,154081,1,10,0:2:0:0:
219,212,154165,1,10,0:2:0:0:
217,202,154248,1,10,0:2:0:0:
216,193,154331,1,10,0:2:0:0:
214,184,154415,1,10,0:2:0:0:
212,175,154498,1,10,0:2:0:0:
210,166,154581,21,4,1:2:0:0:
112,144,154749,1,2,0:2:0:0:
142,240,154915,1,10,0:2:0:0:
72,376,155082,21,2,0:2:0:0:
208,312,155249,2,0,P|170:317|134:326,1,75,2|2,1:2|0:2,0:2:0:0:
16,144,155582,21,10,0:2:0:0:
108,163,155749,1,2,1:2:0:0:
112,144,155832,1,2,1:2:0:0:
116,126,155915,1,10,0:2:0:0:
119,108,155999,1,0,0:2:0:0:
122,89,156082,1,2,1:2:0:0:
248,40,156249,21,4,1:2:0:0:
312,120,156415,1,2,0:2:0:0:
275,216,156582,1,10,0:2:0:0:
112,248,156749,21,2,0:2:0:0:
184,168,156915,2,0,P|191:204|197:241,1,75,2|10,1:2|0:2,0:2:0:0:
272,360,157249,21,12,1:2:0:0:
306,373,157332,1,10,0:2:0:0:
342,366,157415,1,10,0:2:0:0:
368,339,157499,1,10,0:2:0:0:
375,303,157582,22,0,L|366:266,1,37.5,10|10,1:2|0:2,0:2:0:0:
448,216,157749,2,0,L|456:179,1,37.5,10|10,0:2|0:2,0:2:0:0:
392,104,157915,21,10,1:2:0:0:
392,104,157999,1,10,0:2:0:0:
392,104,158082,1,10,0:2:0:0:
392,104,158165,1,10,0:2:0:0:
391,103,158249,6,0,P|307:72|218:63,1,179.999994506836,4|8,1:2|0:2,0:2:0:0:
104,176,158749,2,0,B|124:134|124:134|104:95,1,89.9999972534181,2|0,0:2|1:2,0:2:0:0:
8,128,159082,1,2,1:2:0:0:
192,208,159249,1,10,0:2:0:0:
120,272,159415,6,0,P|37:290|23:374,1,179.999994506836,4|0,1:2|1:2,0:2:0:0:
184,352,159915,2,0,P|227:361|270:375,1,89.9999972534181,10|0,0:2|0:2,0:2:0:0:
400,328,160249,1,2,1:2:0:0:
400,328,160332,1,2,0:2:0:0:
400,328,160415,2,0,L|444:335,1,44.999998626709,0|0,1:2|0:2,0:2:0:0:
360,240,160582,2,0,P|317:253|273:263,1,89.9999972534181,10|2,0:2|1:2,0:2:0:0:
360,56,160915,38,0,P|435:94|427:179,1,179.999994506836,4|8,1:2|0:2,0:2:0:0:
272,96,161415,2,0,P|267:51|258:7,1,89.9999972534181,2|0,0:2|1:2,0:2:0:0:
192,136,161749,1,2,1:2:0:0:
48,64,161915,1,10,0:2:0:0:
96,240,162082,6,0,P|107:150|126:62,1,179.999994506836,4|0,1:2|1:2,0:2:0:0:
272,192,162582,2,0,B|304:192|336:208|336:208|368:192|368:192|400:208|424:243,1,179.999994506836,10|0,0:2|1:2,0:2:0:0:
297,331,163082,2,0,L|252:325,1,44.999998626709,10|8,0:2|0:2,0:2:0:0:
209,259,163249,2,0,L|167:276,1,44.999998626709,10|8,0:2|0:2,0:2:0:0:
96,240,163415,2,0,L|68:275,1,44.999998626709,10|8,0:2|0:2,0:2:0:0:
72,383,163582,37,2,1:2:0:0:
106,383,163665,1,2,0:2:0:0:
135,367,163748,1,2,0:2:0:0:
155,340,163832,1,2,0:2:0:0:
160,306,163915,2,0,L|152:261,3,44.999998626709,10|2|2|2,0:2|0:2|0:2|0:2,0:2:0:0:
80,208,164249,6,0,L|87:163,1,44.999998626709,2|2,1:2|0:2,0:2:0:0:
168,88,164415,2,0,L|175:132,1,44.999998626709,2|2,1:2|0:2,0:2:0:0:
272,160,164582,1,10,0:2:0:0:
375,32,164749,38,0,P|455:63|461:149,1,179.999994506836,4|0,1:2|1:2,0:2:0:0:
384,216,165249,1,10,0:2:0:0:
360,120,165415,1,2,0:2:0:0:
480,247,165582,6,0,P|466:290|463:335,1,89.9999972534181,2|2,1:2|0:2,0:2:0:0:
472,368,165832,1,2,0:2:0:0:
472,368,165915,2,0,B|429:376|429:376|392:348,1,89.9999972534181,10|2,0:2|1:2,0:2:0:0:
168,376,166249,38,0,P|215:301|205:214,1,179.999994506836,4|8,1:2|0:2,0:2:0:0:
442,85,166749,2,0,P|432:172|480:247,1,179.999994506836,2|0,1:2|1:2,0:2:0:0:
240,296,167249,1,10,0:2:0:0:
304,208,167415,6,0,B|280:115|358:129|331:37,1,179.999994506836,4|0,1:2|1:2,0:2:0:0:
200,384,167915,1,10,0:2:0:0:
112,296,168082,2,0,B|135:203|57:217|84:125,1,179.999994506836,4|8,1:2|0:2,0:2:0:0:
144,0,168582,1,10,0:2:0:0:
186,13,168665,1,10,0:2:0:0:
215,46,168748,1,10,0:2:0:0:
222,90,168832,1,10,0:2:0:0:
204,131,168915,38,0,L|198:175,3,44.999998626709,4|0|2|0,1:2|0:2|0:2|0:2,0:2:0:0:
128,224,169249,2,0,L|155:259,1,44.999998626709,10|0,0:2|0:2,0:2:0:0:
140,343,169415,2,0,L|184:348,1,44.999998626709,2|0,0:2|0:2,0:2:0:0:
280,384,169582,6,0,L|274:339,3,44.999998626709,2|0|2|0,1:2|0:2|0:2|0:2,0:2:0:0:
344,304,169915,2,0,L|361:262,1,44.999998626709,10|0,0:2|0:2,0:2:0:0:
439,266,170082,2,0,L|474:238,1,44.999998626709,2|0,0:2|0:2,0:2:0:0:
512,152,170249,38,0,L|468:141,1,44.999998626709,2|0,1:2|0:2,0:2:0:0:
400,72,170415,2,0,L|356:82,1,44.999998626709,2|0,0:2|0:2,0:2:0:0:
296,160,170582,2,0,L|252:149,1,44.999998626709,10|0,0:2|0:2,0:2:0:0:
200,64,170749,2,0,L|156:74,1,44.999998626709,2|0,0:2|0:2,0:2:0:0:
40,120,170915,6,0,B|21:162|21:162|40:201,1,89.9999972534181,2|8,1:2|0:2,0:2:0:0:
72,224,171165,1,10,0:2:0:0:
72,224,171249,2,0,L|160:208,1,89.9999972534181,10|10,0:2|0:2,0:2:0:0:
274,339,171582,37,10,1:2:0:0:
416,272,171749,2,0,B|430:231|430:231|410:188,1,89.9999972534181,2|2,1:2|0:2,0:2:0:0:
248,80,172082,6,0,P|291:91|335:100,1,89.9999972534181,10|2,0:2|0:2,0:2:0:0:
200,296,172415,2,0,P|156:305|112:316,1,89.9999972534181,10|2,0:2|0:2,0:2:0:0:
31,40,172748,38,0,P|115:25|154:100,1,179.999994506836,4|10,1:2|0:2,0:2:0:0:
144,128,173165,1,10,0:2:0:0:
144,128,173248,2,0,P|136:172|131:217,1,89.9999972534181,10|8,0:2|0:2,0:2:0:0:
248,368,173582,1,8,0:2:0:0:
296,296,173748,1,8,0:2:0:0:
272,256,173915,1,8,0:2:0:0:
280,232,174082,1,8,0:2:0:0:
280,232,174248,21,4,1:2:0:0:
160,112,182915,5,8,0:2:0:0:
160,112,183415,6,0,P|218:98|277:88,1,120,4|0,1:2|1:2,0:2:0:0:
344,24,183915,1,10,0:2:0:0:
432,64,184082,1,8,0:2:0:0:
432,64,184165,1,10,0:2:0:0:
432,64,184248,2,0,P|425:93|423:123,1,60,10|8,0:2|0:2,0:2:0:0:
352,176,184582,2,0,P|361:204|374:231,1,60,8|8,0:2|0:2,0:2:0:0:
456,288,184915,6,0,P|452:345|402:373,1,120,4|2,1:2|1:2,0:2:0:0:
312,328,185415,2,0,P|282:325|252:319,1,60,2|0,0:2|1:2,0:2:0:0:
200,240,185748,1,2,0:2:0:0:
200,240,185915,2,0,P|170:242|140:248,1,60,2|0,1:2|0:2,0:2:0:0:
112,272,186165,1,2,0:2:0:0:
112,272,186248,38,0,L|106:331,1,60,2|0,1:2|0:2,0:2:0:0:
24,376,186582,2,0,L|29:316,1,60,2|0,1:2|0:2,0:2:0:0:
0,232,186915,1,0,1:2:0:0:
72,168,187082,1,2,0:2:0:0:
32,88,187248,1,10,0:2:0:0:
96,24,187415,1,2,0:2:0:0:
96,24,187498,1,2,0:2:0:0:
95,23,187582,6,0,P|125:28|155:34,1,60,0|0,1:2|0:2,0:2:0:0:
216,112,187915,1,2,1:2:0:0:
216,112,188082,2,0,P|245:105|275:101,1,60,2|0,0:2|1:2,0:2:0:0:
360,136,188415,2,0,L|366:76,1,60,2|0,0:2|1:2,0:2:0:0:
443,24,188748,1,2,0:2:0:0:
443,24,188915,38,0,L|449:83,1,60,2|0,1:2|0:2,0:2:0:0:
507,154,189248,2,0,L|500:213,1,60,2|0,1:2|0:2,0:2:0:0:
344,272,189582,5,10,0:2:0:0:
321,269,189665,1,10,0:2:0:0:
299,266,189748,1,10,0:2:0:0:
277,261,189832,1,10,0:2:0:0:
255,256,189915,1,10,0:2:0:0:
234,249,189998,1,10,0:2:0:0:
212,242,190082,1,10,0:2:0:0:
191,234,190165,1,10,0:2:0:0:
170,225,190248,38,0,B|126:271|144:318|144:318|186:342|182:379,1,179.999994506836,4|8,1:2|0:2,0:2:0:0:
288,168,190748,2,0,P|293:82|219:39,1,179.999994506836,4|0,1:2|1:2,0:2:0:0:
32,88,191248,1,10,0:2:0:0:
48,117,191331,1,10,0:2:0:0:
75,137,191414,1,10,0:2:0:0:
107,144,191498,1,10,0:2:0:0:
140,137,191582,6,0,B|178:167|178:167|194:239|126:276,1,179.999994506836,4|8,1:2|0:2,0:2:0:0:
336,360,192082,2,0,B|320:288|336:232|336:232|320:264|302:269,1,179.999994506836,4|0,1:2|1:2,0:2:0:0:
160,367,192582,1,10,0:2:0:0:
126,372,192665,1,10,0:2:0:0:
93,365,192748,1,10,0:2:0:0:
65,347,192832,1,10,0:2:0:0:
44,321,192915,38,0,B|28:257|84:193|84:193|135:212,1,194.999991073609,4|0,1:2|1:2,0:2:0:0:
379,59,193415,2,0,B|395:123|339:187|339:187|287:167,1,194.999991073609,4|0,1:2|1:2,0:2:0:0:
128,40,193915,1,10,0:2:0:0:
224,248,194082,6,0,L|241:343,1,97.4999955368044,4|0,1:2|0:2,0:2:0:0:
424,208,194415,1,10,0:2:0:0:
248,88,194582,1,10,0:2:0:0:
320,264,194748,1,10,0:2:0:0:
504,128,194915,37,10,0:2:0:0:
505,79,194998,1,10,0:2:0:0:
479,39,195081,1,10,0:2:0:0:
435,20,195165,1,10,0:2:0:0:
388,29,195248,2,0,L|340:40,1,48.7499977684022,10|10,0:2|0:2,0:2:0:0:
248,88,195415,2,0,L|200:76,1,48.7499977684022,10|10,0:2|0:2,0:2:0:0:
80,16,195582,22,0,B|111:62|91:104|91:104|48:116|48:116|7:158|24:208,1,240,10|2,1:2|1:2,0:2:0:0:
128,304,196415,5,2,1:2:0:0:
128,304,196498,1,2,0:2:0:0:
128,304,196582,22,0,L|165:299,1,37.5,2|2,1:2|1:2,0:2:0:0:
232,368,196748,38,0,L|269:372,1,37.5,2|2,1:2|1:2,0:2:0:0:
360,264,196915,6,0,P|439:294|440:379,1,179.999994506836,4|8,1:2|0:2,0:2:0:0:
272,288,197415,2,0,P|265:244|264:199,1,89.9999972534181,2|0,0:2|1:2,0:2:0:0:
344,136,197747,1,2,0:2:0:0:
256,0,197915,2,0,B|209:-12|209:-12|175:12,1,89.9999972534181,10|0,0:2|0:2,0:2:0:0:
56,150,198247,37,2,1:2:0:0:
160,174,198414,1,2,0:2:0:0:
264,198,198581,1,10,0:2:0:0:
367,223,198748,2,0,P|369:306|288:325,1,179.999994506836,2|0,0:2|0:2,0:2:0:0:
200,264,199248,1,10,0:2:0:0:
184,360,199415,1,2,1:2:0:0:
32,272,199582,6,0,P|23:182|2:95,1,179.999994506836,4|10,1:2|0:2,0:2:0:0:
120,272,200081,2,0,P|110:315|97:359,1,89.9999972534181,2|0,1:2|1:2,0:2:0:0:
0,352,200414,1,2,0:2:0:0:
120,184,200582,2,0,P|163:172|207:162,1,89.9999972534181,10|0,0:2|0:2,0:2:0:0:
320,280,200914,37,2,1:2:0:0:
450,309,201081,1,2,0:2:0:0:
480,178,201247,1,10,0:2:0:0:
349,149,201414,1,2,1:2:0:0:
349,149,201497,1,0,0:2:0:0:
349,149,201581,1,2,1:2:0:0:
320,280,201748,5,10,0:2:0:0:
305,305,201832,1,10,0:2:0:0:
281,323,201915,1,10,0:2:0:0:
252,329,201998,1,10,0:2:0:0:
223,323,202082,1,10,0:2:0:0:
199,305,202165,1,10,0:2:0:0:
184,277,202248,38,0,P|167:195|83:193,1,179.999994506836,4|8,1:2|0:2,0:2:0:0:
192,24,202748,2,0,B|199:67|199:67|174:105,1,89.9999972534181,2|2,0:2|1:2,0:2:0:0:
80,88,203082,1,0,0:2:0:0:
8,240,203248,2,0,P|22:282|32:326,1,89.9999972534181,10|2,0:2|0:2,0:2:0:0:
224,384,203582,5,2,1:2:0:0:
237,279,203748,1,2,0:2:0:0:
250,173,203915,1,10,0:2:0:0:
261,67,204081,2,0,P|304:80|346:95,1,89.9999972534181,2|0,0:2|1:2,0:2:0:0:
400,176,204414,1,2,0:2:0:0:
448,88,204581,1,10,0:2:0:0:
496,176,204747,1,10,0:2:0:0:
496,176,204831,1,10,0:2:0:0:
496,176,204914,37,10,1:2:0:0:
496,176,205248,2,0,B|506:219|506:219|481:257,1,89.9999972534181,12|0,1:2|0:2,0:2:0:0:
400,320,205582,1,2,1:2:0:0:
304,296,205748,1,2,1:2:0:0:
208,272,205915,1,10,0:2:0:0:
32,368,206081,6,0,P|106:328|91:245,1,179.999994506836,4|0,1:2|0:2,0:2:0:0:
0,108,206581,2,0,P|44:102|88:94,1,89.9999972534181,10|10,0:2|0:2,0:2:0:0:
216,160,206915,1,10,0:2:0:0:
216,160,206998,1,10,0:2:0:0:
216,160,207082,1,10,0:2:0:0:
216,160,207165,1,10,0:2:0:0:
216,160,207248,38,0,L|209:204,1,44.999998626709,10|10,0:2|0:2,0:2:0:0:
90,244,207415,6,0,L|96:288,1,44.999998626709,10|10,0:2|0:2,0:2:0:0:
176,384,207582,38,0,P|262:356|349:332,1,179.999994506836,4|8,1:2|0:2,0:2:0:0:
456,200,208082,2,0,B|475:155|475:155|459:117,1,89.9999972534181,2|0,0:2|1:2,0:2:0:0:
360,144,208415,1,2,0:2:0:0:
424,288,208582,2,0,P|468:294|512:302,1,89.9999972534181,10|0,0:2|0:2,0:2:0:0:
272,384,208915,5,2,1:2:0:0:
259,279,209082,1,2,0:2:0:0:
249,172,209248,1,10,0:2:0:0:
236,67,209414,2,0,P|148:47|62:20,1,179.999994506836,2|2,0:2|0:2,0:2:0:0:
40,112,209914,1,10,0:2:0:0:
32,208,210081,1,2,1:2:0:0:
32,208,210164,1,2,1:2:0:0:
30,208,210248,38,0,P|107:246|105:332,1,179.999994506836,4|8,1:2|0:2,0:2:0:0:
312,384,210748,2,0,P|310:298|386:259,1,179.999994506836,2|0,1:2|1:2,0:2:0:0:
224,336,211248,1,10,0:2:0:0:
376,152,211415,6,0,B|424:112|392:40|392:40|360:40|341:65,1,179.999994506836,4|0,1:2|1:2,0:2:0:0:
456,208,211915,1,10,0:2:0:0:
288,168,212082,1,2,1:2:0:0:
120,128,212248,1,10,0:2:0:0:
122,135,212331,1,8,0:2:0:0:
124,143,212414,1,10,0:2:0:0:
126,151,212498,1,10,0:2:0:0:
128,157,212582,6,0,P|117:190|110:223,1,67.4999979400635,12|0,1:2|0:2,0:2:0:0:
110,223,212915,38,0,P|194:229|220:310,1,179.999994506836,4|8,1:2|0:2,0:2:0:0:
416,382,213415,2,0,B|423:297|456:207,1,179.999994506836,2|0,1:2|1:2,0:2:0:0:
512,96,213915,1,10,0:2:0:0:
510,63,213998,1,10,0:2:0:0:
491,36,214082,1,10,0:2:0:0:
461,22,214165,1,10,0:2:0:0:
430,26,214248,38,0,P|342:47|253:57,1,179.999994506836,4|10,1:2|0:2,0:2:0:0:
119,7,214748,2,0,P|40:40|33:125,1,179.999994506836,4|0,1:2|1:2,0:2:0:0:
160,192,215248,1,10,0:2:0:0:
170,224,215332,1,10,0:2:0:0:
178,256,215415,1,10,0:2:0:0:
185,289,215498,1,10,0:2:0:0:
191,323,215582,5,10,1:2:0:0:
191,323,215915,2,0,B|151:347|151:347|110:333,1,89.9999972534181,12|0,1:2|1:2,0:2:0:0:
110,333,216165,1,2,1:2:0:0:
110,333,216248,1,2,1:2:0:0:
88,248,216415,1,2,1:2:0:0:
64,152,216582,1,2,1:2:0:0:
176,56,216748,38,0,P|257:83|264:167,1,179.999994506836,4|8,1:2|0:2,0:2:0:0:
384,224,217248,2,0,P|376:179|375:134,1,89.9999972534181,10|10,0:2|0:2,0:2:0:0:
472,112,217582,1,10,0:2:0:0:
480,272,217748,1,10,0:2:0:0:
464,297,217831,1,10,0:2:0:0:
442,317,217914,1,10,0:2:0:0:
415,330,217998,1,10,0:2:0:0:
386,335,218081,1,10,0:2:0:0:
356,331,218164,1,10,0:2:0:0:
329,318,218248,5,12,1:2:0:0:
329,318,218582,1,4,1:2:0:0:
329,318,218915,2,0,B|313:278|313:278|325:232,1,89.9999972534181,12|0,1:2|1:2,0:2:0:0:
408,176,219248,1,2,1:2:0:0:
320,56,219415,38,0,P|234:31|145:18,1,179.999994506836,4|8,1:2|0:2,0:2:0:0:
0,160,219915,2,0,P|1:204|8:249,1,89.9999972534181,10|0,0:2|1:2,0:2:0:0:
128,272,220248,1,10,1:2:0:0:
168,376,220415,1,10,0:2:0:0:
193,359,220498,1,10,0:2:0:0:
220,347,220581,1,10,1:2:0:0:
249,339,220665,1,10,0:2:0:0:
279,336,220748,1,10,0:2:0:0:
309,337,220831,1,10,0:2:0:0:
338,342,220915,37,4,1:2:0:0:
424,376,221080,1,2,0:2:0:0:
440,280,221247,5,10,0:2:0:0:
512,222,221414,1,2,0:2:0:0:
456,144,221580,38,0,P|445:107|434:72,1,75,2|2,1:2|0:2,0:2:0:0:
336,88,221914,2,0,L|328:56,2,25,10|2|2,0:2|0:2|0:2,0:2:0:0:
344,104,222080,2,0,P|307:94|271:86,1,75,2|2,0:2|1:2,0:2:0:0:
184,32,222414,1,2,0:2:0:0:
96,96,222580,5,10,0:2:0:0:
96,96,222747,1,2,0:2:0:0:
144,176,222914,37,2,1:2:0:0:
144,176,223081,1,10,0:2:0:0:
72,240,223247,5,2,1:2:0:0:
112,336,223414,1,2,0:2:0:0:
224,328,223580,2,0,P|261:330|298:336,1,75,10|2,0:2|0:2,0:2:0:0:
408,272,223914,2,0,L|414:296,3,25,2|2|2|2,1:2|0:2|0:2|0:2,0:2:0:0:
472,184,224247,37,10,0:2:0:0:
320,240,224414,1,2,0:2:0:0:
336,56,224580,5,2,1:2:0:0:
384,184,224747,1,2,0:2:0:0:
240,240,224914,37,10,0:2:0:0:
256,144,225080,1,2,0:2:0:0:
144,136,225247,5,2,1:2:0:0:
152,160,225414,1,10,0:2:0:0:
72,216,225580,37,4,1:2:0:0:
48,128,225747,1,2,0:2:0:0:
136,96,225914,5,10,0:2:0:0:
175,11,226081,1,2,0:2:0:0:
263,47,226247,38,0,P|301:53|336:64,1,75,2|2,1:2|0:2,0:2:0:0:
368,160,226580,2,0,L|336:152,2,25,10|2|2,0:2|0:2|0:2,0:2:0:0:
384,160,226747,2,0,P|419:148|456:143,1,75,2|2,0:2|1:2,0:2:0:0:
512,224,227080,1,2,0:2:0:0:
456,304,227247,5,10,0:2:0:0:
456,304,227414,1,2,0:2:0:0:
360,272,227580,37,2,1:2:0:0:
360,272,227747,1,10,0:2:0:0:
288,360,227914,5,2,1:2:0:0:
288,360,228080,1,2,0:2:0:0:
200,312,228247,37,10,0:2:0:0:
232,232,228414,1,2,0:2:0:0:
184,160,228580,5,2,1:2:0:0:
216,320,228747,1,2,0:2:0:0:
144,384,228914,37,10,0:2:0:0:
200,152,229080,1,2,0:2:0:0:
136,80,229247,5,2,1:2:0:0:
48,104,229414,1,10,0:2:0:0:
48,104,229497,1,10,0:2:0:0:
48,104,229580,2,0,B|29:141|29:141|36:173,1,75,10|10,0:2|0:2,0:2:0:0:
207,238,229914,2,0,L|232:232,3,25,2|2|2|2,1:2|1:2|1:2|1:2,0:2:0:0:
88,336,230247,37,4,1:2:0:0:
176,368,230414,1,2,0:2:0:0:
248,312,230580,5,10,0:2:0:0:
336,272,230747,1,2,0:2:0:0:
328,168,230914,38,0,P|334:131|336:93,1,75,2|2,1:2|0:2,0:2:0:0:
456,32,231247,2,0,L|424:24,2,25,10|2|2,0:2|0:2|0:2,0:2:0:0:
464,48,231414,2,0,P|457:84|455:122,1,75,2|2,0:2|1:2,0:2:0:0:
512,200,231747,1,2,0:2:0:0:
440,256,231914,5,10,0:2:0:0:
440,256,232080,1,2,0:2:0:0:
438,359,232247,37,10,0:2:0:0:
438,359,232330,1,10,0:2:0:0:
438,359,232414,1,10,0:2:0:0:
438,359,232497,1,10,0:2:0:0:
438,359,232580,6,0,P|474:349|511:344,1,75,2|2,1:2|0:2,0:2:0:0:
440,256,232914,2,0,P|403:246|366:241,1,75,10|2,0:2|0:2,0:2:0:0:
272,152,233247,2,0,L|266:127,3,25,2|2|2|2,1:2|0:2|0:2|0:2,0:2:0:0:
176,96,233580,1,10,1:2:0:0:
112,176,233747,1,2,0:2:0:0:
160,272,233914,37,10,1:2:0:0:
156,291,233997,1,10,0:2:0:0:
153,309,234080,1,10,0:2:0:0:
149,328,234164,1,10,0:2:0:0:
147,346,234247,2,0,L|157:394,3,37.5,10|10|10|10,1:2|0:2|0:2|0:2,0:2:0:0:
80,384,234580,2,0,B|66:351|66:351|79:314,1,75,10|2,1:2|0:2,0:2:0:0:
248,272,234914,5,4,1:2:0:0:
278,187,235080,1,2,0:2:0:0:
201,143,235247,37,10,0:2:0:0:
186,56,235413,1,2,0:2:0:0:
88,56,235580,6,0,P|51:49|13:47,1,75,2|2,1:2|0:2,0:2:0:0:
8,160,235913,2,0,L|0:192,2,25,10|2|2,0:2|0:2|0:2,0:2:0:0:
24,152,236080,2,0,P|60:158|98:160,1,75,2|2,0:2|1:2,0:2:0:0:
184,224,236413,1,2,0:2:0:0:
264,144,236580,37,10,0:2:0:0:
264,144,236747,1,2,0:2:0:0:
376,184,236913,1,10,0:2:0:0:
376,184,236997,1,10,0:2:0:0:
376,184,237080,1,10,0:2:0:0:
376,184,237163,1,10,0:2:0:0:
376,184,237247,6,0,P|385:220|396:255,1,75,2|2,1:2|0:2,0:2:0:0:
256,376,237580,2,0,P|267:340|276:304,1,75,10|2,0:2|0:2,0:2:0:0:
184,224,237913,2,0,L|160:230,3,25,2|2|2|2,1:2|0:2|0:2|1:2,0:2:0:0:
304,112,238247,37,10,0:2:0:0:
224,80,238413,1,2,1:2:0:0:
160,8,238580,5,2,1:2:0:0:
160,8,238663,1,2,1:2:0:0:
160,8,238747,1,2,1:2:0:0:
64,64,238913,37,10,0:2:0:0:
69,81,238997,1,10,0:2:0:0:
74,98,239080,1,10,0:2:0:0:
79,115,239163,1,2,1:2:0:0:
84,132,239247,1,2,1:2:0:0:
89,149,239330,1,10,0:2:0:0:
94,166,239413,1,2,1:2:0:0:
256,112,239580,21,10,1:2:0:0:
256,112,239747,1,10,1:2:0:0:
