osu file format v14

[General]
AudioFilename: audio.mp3
AudioLeadIn: 0
PreviewTime: -1
Countdown: 0
SampleSet: Soft
StackLeniency: 0.2
Mode: 0
LetterboxInBreaks: 1
StoryFireInFront: 0
WidescreenStoryboard: 0

[Editor]
DistanceSpacing: 1.3
BeatDivisor: 4
GridSize: 8
TimelineZoom: 1.8

[Metadata]
Title:Avenger
TitleUnicode:Avenger
Artist:L Plus
ArtistUnicode:L Plus
Creator:m11maximus
Version:Brainwash
Source:
Tags:
BeatmapID:1346847
BeatmapSetID:634789

[Difficulty]
HPDrainRate:5
CircleSize:3.5
OverallDifficulty:5
ApproachRate:9
SliderMultiplier:1.8
SliderTickRate:2

[Events]
//Background and Video events
//Break Periods
//Storyboard Layer 0 (Background)
//Storyboard Layer 1 (Fail)
//Storyboard Layer 2 (Pass)
//Storyboard Layer 3 (Foreground)
//Storyboard Sound Samples

[TimingPoints]
106,689.655172413793,4,2,0,100,1,0
2864,-66.6666666666667,4,2,0,100,0,0
4243,-200,4,2,0,100,0,0
5623,-66.6666666666667,4,2,0,100,0,0
6657,-133.333333333333,4,2,0,100,0,0
7174,-66.6666666666667,4,2,0,100,0,0
7347,-133.333333333333,4,2,0,100,0,0
8381,-100,4,2,0,100,0,0
11830,-66.6666666666667,4,2,0,100,0,0
12002,-100,4,2,0,100,0,0
13899,-66.6666666666667,4,2,0,100,0,0
14933,-100,4,2,0,100,0,0
16312,-66.6666666666667,4,2,0,100,0,0
16651,-55.5555555555556,4,2,0,100,0,0
18381,-100,4,2,0,100,0,0
19243,-66.6666666666667,4,2,0,100,0,0
20795,-100,4,2,0,100,0,0
21485,-133.333333333333,4,2,0,100,0,0
22174,-125,4,2,0,100,0,0
22864,-100,4,2,0,100,0,0
24243,-125,4,2,0,100,0,0
24588,-100,4,2,0,100,0,0
24933,-83.3333333333333,4,2,0,100,0,0
25623,-66.6666666666667,4,2,0,100,0,0
27692,-76.9230769230769,4,2,0,100,0,0
28209,-66.6666666666667,4,2,0,100,0,0
29071,-76.9230769230769,4,2,0,100,0,0
29416,-66.6666666666667,4,2,0,100,0,0
31830,-133.333333333333,4,2,0,100,0,0
32174,-100,4,2,0,100,0,0
35968,-66.6666666666667,4,2,0,100,0,0
38381,-50,4,2,0,100,0,0
38554,-66.6666666666667,4,2,0,100,0,0
39071,-57.1428571428571,4,2,0,100,0,0
39761,-55.5555555555556,4,2,0,100,0,0
40450,-52.6315789473684,4,2,0,100,0,0
40795,-66.6666666666667,4,2,0,100,0,0
41485,-66.6666666666667,4,2,0,100,0,0
44243,-100,4,2,0,100,0,0
44416,-50,4,2,0,100,0,0
45623,-133.333333333333,4,2,0,100,0,0
45795,-66.6666666666667,4,2,0,100,0,0
47002,-50,4,2,0,100,0,0
47174,-66.6666666666667,4,2,0,100,0,0
47347,-133.333333333333,4,2,0,100,0,0
47519,-66.6666666666667,4,2,0,100,0,0
48726,-83.3333333333333,4,2,0,100,0,0
49071,-66.6666666666667,4,2,0,100,0,0
49416,-50,4,2,0,100,0,0
50106,-133.333333333333,4,2,0,100,0,0
50278,-66.6666666666667,4,2,0,100,0,0
51140,-100,4,2,0,100,0,0
51312,-66.6666666666667,4,2,0,100,0,0
52519,-50,4,2,0,100,0,0
52692,-66.6666666666667,4,2,0,100,0,0
54761,-50,4,2,0,100,0,0
56657,-66.6666666666667,4,2,0,100,0,0
58037,-50,4,2,0,100,0,0
58554,-50,4,2,0,100,0,0
59761,-50,4,2,0,100,0,0
60105,-50,4,2,0,100,0,0
60795,-66.6666666666667,4,2,0,100,0,0
60968,-50,4,2,0,100,0,0
61140,-133.333333333333,4,2,0,100,0,0
62174,-50,4,2,0,100,0,0
62519,-58.8235294117647,4,2,0,100,0,0
66312,-133.333333333333,4,2,0,100,0,0
66485,-66.6666666666667,4,2,0,100,0,0
68726,-133.333333333333,4,2,0,100,0,0
69071,-50,4,2,0,100,0,0
73209,-55.5555555555556,4,2,0,100,0,0
73554,-66.6666666666667,4,2,0,100,0,0
74588,-50,4,2,0,100,0,0
82864,-66.6666666666667,4,2,0,100,0,0

[HitObjects]
179,170,2864,6,0,P|140:177|97:155,1,67.5000025749208
144,80,3209,2,0,P|178:66|210:68,1,67.5000025749208
135,228,3554,2,0,P|113:195|121:151,1,67.5000025749208
208,67,3899,2,0,P|219:88|211:141,1,67.5000025749208
169,299,4243,6,0,B|154:311|154:311|154:296|154:296|140:308|140:308|139:296|139:296|108:291|108:291|141:256|135:227,1,157.5
113,167,5623,6,0,P|83:154|50:159,1,67.5000025749208
169,299,5968,2,0,P|191:273|198:241,1,67.5000025749208
113,167,6312,2,0,P|101:200|119:246,1,67.5000025749208
240,328,6657,6,0,L|368:328,1,101.250003862381
448,240,7347,2,0,L|448:144,1,67.5000025749208
341,328,7864,2,0,L|341:232,1,67.5000025749208
169,299,8381,6,0,L|100:279,2,45
336,320,8899,5,0,0:0:0:0:
230,203,9071,2,0,L|186:192,2,45
336,320,9588,2,0,L|417:341,2,45
160,270,10105,2,0,L|79:249,2,45
169,151,11140,5,0,0:0:0:0:
206,174,11312,1,0,0:0:0:0:
229,217,11485,1,0,0:0:0:0:
147,254,11657,1,0,0:0:0:0:
269,196,11830,2,0,P|317:234|323:274,1,67.5000025749208
336,320,12174,1,0,0:0:0:0:
318,237,12347,1,0,0:0:0:0:
341,336,12519,1,0,0:0:0:0:
371,175,12692,2,0,P|360:156|333:138,2,45
286,365,13209,5,0,0:0:0:0:
363,206,13899,2,0,P|361:152|345:107,1,67.5000025749208
208,208,14243,1,0,0:0:0:0:
208,208,14416,1,0,0:0:0:0:
363,206,14588,2,0,L|315:262,1,67.5000025749208
193,284,14933,6,0,L|145:266,2,45
415,332,15450,2,0,L|459:343,2,45
247,188,15968,2,0,L|202:178,2,45
119,88,16657,6,0,P|202:61|256:77,1,80.9999975280763
335,100,17002,1,0,0:0:0:0:
391,244,17174,1,0,0:0:0:0:
327,84,17347,1,0,0:0:0:0:
397,256,17519,1,0,0:0:0:0:
203,178,17692,1,0,0:0:0:0:
169,178,17864,1,0,0:0:0:0:
291,144,18381,6,0,L|410:144,1,90
434,186,18899,2,0,L|315:186,1,90
257,117,19416,5,0,0:0:0:0:
220,140,19588,1,0,0:0:0:0:
197,183,19761,1,0,0:0:0:0:
279,220,19933,1,0,0:0:0:0:
135,142,20106,2,0,P|116:209|126:260,1,67.5000025749208
170,291,20450,1,0,0:0:0:0:
119,216,20623,1,0,0:0:0:0:
177,302,20795,1,0,0:0:0:0:
205,177,20968,2,0,P|216:158|243:140,2,45
182,309,21485,6,0,P|276:290|305:273,1,101.250003862381
357,243,22174,2,0,B|369:200|369:200|358:166|358:166|370:132|370:132|362:92,1,144
270,41,23037,5,0,0:0:0:0:
270,63,23209,1,0,0:0:0:0:
269,85,23381,1,0,0:0:0:0:
261,197,23554,1,0,0:0:0:0:
195,105,23726,1,0,0:0:0:0:
309,260,23899,1,0,0:0:0:0:
372,167,24071,1,0,0:0:0:0:
165,173,24243,2,0,P|110:172|61:178,1,72
349,265,24933,6,0,B|274:307|223:222|128:284,1,215.999993408203
349,265,25968,1,0,0:0:0:0:
235,196,26140,1,0,0:0:0:0:
236,179,26226,1,0,0:0:0:0:
236,164,26312,2,0,P|237:121|236:91,1,67.5000025749208
279,0,26657,2,0,P|280:43|279:73,1,67.5000025749208
360,216,27002,5,0,0:0:0:0:
202,275,27174,1,0,0:0:0:0:
432,248,27347,1,0,0:0:0:0:
432,248,27519,1,0,0:0:0:0:
473,174,27692,6,0,B|429:167|392:182|392:182|388:151|400:131|400:131|354:128|310:112,1,175.499991966248
276,108,28381,5,0,0:0:0:0:
218,313,28554,1,0,0:0:0:0:
282,238,28726,5,0,0:0:0:0:
282,238,28899,1,0,0:0:0:0:
59,204,29071,2,0,P|136:192|222:158,1,116.999994644165
164,43,29588,1,0,0:0:0:0:
243,168,29761,2,0,P|298:177|354:230,1,135.000005149842
396,317,30278,1,0,0:0:0:0:
442,87,30451,6,0,B|388:131|328:59|279:137,1,135.000005149842
220,50,30968,5,0,0:0:0:0:
187,50,31140,1,0,0:0:0:0:
216,274,31312,1,0,0:0:0:0:
262,161,31485,1,0,0:0:0:0:
314,65,31657,1,0,0:0:0:0:
397,214,31830,6,0,B|384:232|368:240|368:240|314:250,1,67.5000025749208
238,269,32347,5,0,0:0:0:0:
216,274,32433,1,0,0:0:0:0:
194,279,32519,1,0,0:0:0:0:
302,283,32692,1,0,0:0:0:0:
325,56,32864,1,0,0:0:0:0:
363,283,33037,1,0,0:0:0:0:
255,192,33209,5,0,0:0:0:0:
325,56,33554,1,0,0:0:0:0:
342,234,33899,1,0,0:0:0:0:
253,132,34243,5,0,0:0:0:0:
243,266,34588,1,0,0:0:0:0:
151,166,34933,5,0,0:0:0:0:
143,300,35278,1,0,0:0:0:0:
118,196,35623,2,0,L|103:142,1,45
52,76,35968,6,0,B|82:77|82:77|101:69|101:69|118:70,1,67.5000025749208
241,175,36312,2,0,P|273:182|307:178,1,67.5000025749208
280,109,36657,2,0,P|247:101|213:105,1,67.5000025749208
198,239,37002,2,0,P|230:251|265:254,1,67.5000025749208
314,46,37347,2,0,P|281:33|247:31,1,67.5000025749208
262,254,37692,5,0,0:0:0:0:
283,237,38037,1,0,0:0:0:0:
301,217,38381,2,0,B|326:214|338:187|338:187|354:213|386:216,1,90
345,345,38726,5,0,0:0:0:0:
257,153,39071,2,0,B|224:149|204:109|204:109|164:130|115:117,1,157.500001502037
257,153,39761,2,0,B|224:149|200:120|200:120|136:144|96:120,1,161.999995056153
257,153,40450,2,0,B|208:160|192:136|192:136|144:168|88:144,1,170.999995433807
256,246,41140,1,0,0:0:0:0:
264,248,41485,6,0,B|295:247|288:224|269:205|240:221|242:261|272:278|316:267|323:231|276:302|235:272|211:245|226:208|249:169|266:157|328:189|364:229|355:293|259:317|207:273|211:197|273:142|356:176|383:298|284:333|209:283|199:198|254:131|304:136|370:210|353:279|296:323|197:348|337:468|462:410|369:277|342:210|305:71|348:49|348:49|336:154|429:283|429:283|396:162|408:84,1,1012.50003862381
123,152,44243,2,0,L|48:152,1,45
268,50,44588,5,0,0:0:0:0:
123,152,44761,1,0,0:0:0:0:
291,130,44933,1,0,0:0:0:0:
291,130,45106,1,0,0:0:0:0:
80,88,45278,5,0,0:0:0:0:
104,273,45450,1,0,0:0:0:0:
268,50,45623,2,0,P|310:51|324:51,1,33.7500012874604
348,287,45968,5,0,0:0:0:0:
335,141,46140,1,0,0:0:0:0:
351,308,46312,1,0,0:0:0:0:
85,287,46485,1,0,0:0:0:0:
85,287,46657,2,0,B|58:262|84:223|124:235,1,67.5000025749208
260,326,47002,6,0,P|200:313|147:274,1,90
156,176,47347,5,0,0:0:0:0:
320,320,47519,1,0,0:0:0:0:
256,48,47692,1,0,0:0:0:0:
256,48,47865,5,0,0:0:0:0:
156,186,48037,1,0,0:0:0:0:
441,161,48210,1,0,0:0:0:0:
97,242,48382,1,0,0:0:0:0:
329,166,48554,5,0,0:0:0:0:
322,168,48640,1,0,0:0:0:0:
318,169,48726,1,0,0:0:0:0:
276,295,48899,5,0,0:0:0:0:
401,55,49071,2,0,L|384:102,1,33.7500012874604
375,228,49243,2,0,L|407:178,1,33.7500012874604
276,295,49416,2,0,B|282:274|302:273|302:273|288:258|296:238|296:238|244:249,1,90
277,334,49761,2,0,P|275:270|277:194,1,90
223,164,50106,6,0,L|223:228,1,33.7500012874604
223,59,50451,1,0,0:0:0:0:
400,59,50624,1,0,0:0:0:0:
214,52,50796,1,0,0:0:0:0:
409,55,50969,1,0,0:0:0:0:
140,81,51140,2,0,B|137:93|137:93|107:107,1,45
103,84,51399,5,0,0:0:0:0:
434,143,51486,2,0,P|360:141|325:152,1,67.5000025749208
184,245,51831,1,0,0:0:0:0:
376,312,52003,1,0,0:0:0:0:
376,312,52088,1,0,0:0:0:0:
382,315,52174,2,0,B|398:304|417:312|417:312|402:298|409:277,1,67.5000025749208
313,111,52519,6,0,L|313:210,1,90
268,50,52864,5,0,0:0:0:0:
157,128,53037,1,0,0:0:0:0:
291,118,53209,1,0,0:0:0:0:
349,288,53382,1,0,0:0:0:0:
387,137,53554,1,0,0:0:0:0:
431,299,53726,1,0,0:0:0:0:
402,63,53899,2,0,P|328:61|293:72,1,67.5000025749208
348,287,54244,5,0,0:0:0:0:
335,141,54416,1,0,0:0:0:0:
454,295,54588,1,0,0:0:0:0:
230,129,54761,2,0,B|181:104|181:104|193:145|175:168,1,90
195,251,55019,5,0,0:0:0:0:
237,236,55106,1,0,0:0:0:0:
268,192,55192,1,0,0:0:0:0:
270,129,55278,2,0,B|266:102|266:102|251:109|232:101|232:101|228:144,1,90
202,338,55623,5,0,0:0:0:0:
116,311,55795,1,0,0:0:0:0:
195,251,55968,1,0,0:0:0:0:
89,227,56140,1,0,0:0:0:0:
180,154,56312,1,0,0:0:0:0:
60,111,56485,1,0,0:0:0:0:
252,115,56657,2,0,B|281:111|288:103|288:103|298:113|321:121,1,67.5000025749208
402,219,57002,5,0,0:0:0:0:
312,117,57174,1,0,0:0:0:0:
413,121,57347,1,0,0:0:0:0:
207,189,57519,2,0,L|173:178,2,33.7500012874604
90,92,58037,6,0,B|39:66|39:66|145:91,1,90
207,189,58381,1,0,0:0:0:0:
111,309,58554,2,0,B|76:325|67:334|67:334|57:320|34:316,1,90
97,79,58899,5,0,0:0:0:0:
295,184,59071,1,0,0:0:0:0:
79,248,59243,1,0,0:0:0:0:
218,127,59416,1,0,0:0:0:0:
224,320,59588,1,0,0:0:0:0:
224,352,59674,1,0,0:0:0:0:
226,370,59761,2,0,B|261:378|261:378|272:314,1,90
296,142,60105,2,0,L|296:52,2,90
296,328,60623,5,0,0:0:0:0:
296,352,60709,1,0,0:0:0:0:
293,370,60795,2,0,L|222:370,1,67.5000025749208
219,175,61140,6,0,P|185:195|178:212,1,50.6250019311906
419,347,61657,2,0,P|453:327|464:306,1,50.6250019311906
343,325,62174,2,0,B|326:277|326:277|279:282|279:282|269:319|269:319|312:349,1,180
148,321,62692,5,0,0:0:0:0:
148,321,62864,1,0,0:0:0:0:
181,142,63037,1,0,0:0:0:0:
181,142,63209,2,0,B|193:112|193:112|236:122|236:122|227:151,1,76.5000014591217
114,320,63554,5,0,0:0:0:0:
159,229,63726,1,0,0:0:0:0:
243,334,63899,1,0,0:0:0:0:
328,229,64071,2,0,L|248:229,1,76.5000014591217
73,204,64416,5,0,0:0:0:0:
84,172,64588,1,0,0:0:0:0:
94,139,64761,1,0,0:0:0:0:
243,334,64933,1,0,0:0:0:0:
360,280,65105,1,0,0:0:0:0:
334,280,65278,1,0,0:0:0:0:
184,112,65450,2,0,P|226:76|250:65,2,76.5000014591217
243,334,65968,2,0,L|266:300,1,38.2500007295609
346,222,66140,2,0,L|324:253,1,38.2500007295609
382,355,66312,2,0,B|403:336|403:336|407:301,1,33.7500012874604
160,304,66657,5,0,0:0:0:0:
346,222,66830,1,0,0:0:0:0:
346,222,67002,1,0,0:0:0:0:
476,289,67174,5,0,0:0:0:0:
345,107,67347,1,0,0:0:0:0:
345,107,67520,1,0,0:0:0:0:
144,226,67692,2,0,B|181:249|181:249|259:261,1,67.5000025749208
184,112,68037,5,0,0:0:0:0:
392,268,68209,1,0,0:0:0:0:
202,333,68381,1,0,0:0:0:0:
202,333,68554,1,0,0:0:0:0:
296,229,68726,2,0,L|359:229,1,33.7500012874604
365,80,69071,6,0,P|398:104|400:181,1,90
298,316,69416,5,0,0:0:0:0:
172,129,69588,1,0,0:0:0:0:
307,126,69761,5,0,0:0:0:0:
266,206,69933,1,0,0:0:0:0:
191,256,70105,1,0,0:0:0:0:
265,54,70278,1,0,0:0:0:0:
401,286,70450,1,0,0:0:0:0:
369,88,70623,5,0,0:0:0:0:
386,129,70709,1,0,0:0:0:0:
405,169,70795,1,0,0:0:0:0:
209,138,70968,1,0,0:0:0:0:
352,232,71140,2,0,P|325:268|295:301,2,90
224,352,71657,5,0,0:0:0:0:
224,352,71830,1,0,0:0:0:0:
319,154,72002,1,0,0:0:0:0:
111,286,72174,2,0,P|128:196|131:189,1,90
308,295,72519,1,0,0:0:0:0:
236,89,72692,1,0,0:0:0:0:
110,307,72864,1,0,0:0:0:0:
100,94,73037,5,0,0:0:0:0:
108,92,73123,1,0,0:0:0:0:
116,92,73209,2,0,P|212:92|248:101,1,80.9999975280763
236,89,73554,1,0,0:0:0:0:
433,159,73726,1,0,0:0:0:0:
233,191,73899,1,0,0:0:0:0:
433,231,74071,1,0,0:0:0:0:
168,250,74243,2,0,P|123:187|119:151,1,67.5000025749208
280,274,74588,2,0,P|228:327|158:332,1,90
189,334,74933,5,0,0:0:0:0:
188,333,75105,1,0,0:0:0:0:
25,199,75278,1,0,0:0:0:0:
25,199,75451,1,0,0:0:0:0:
280,274,75623,1,0,0:0:0:0:
280,274,75795,1,0,0:0:0:0:
184,112,75968,5,0,0:0:0:0:
361,322,76140,1,0,0:0:0:0:
117,236,76312,1,0,0:0:0:0:
317,46,76485,1,0,0:0:0:0:
269,309,76657,2,0,P|230:331|186:322,1,90
318,143,77002,1,0,0:0:0:0:
359,160,77088,1,0,0:0:0:0:
395,196,77174,1,0,0:0:0:0:
418,243,77261,1,0,0:0:0:0:
414,281,77347,2,0,P|375:304|331:311,1,90
295,311,77692,5,0,0:0:0:0:
71,291,77864,1,0,0:0:0:0:
71,291,78037,1,0,0:0:0:0:
140,77,78209,1,0,0:0:0:0:
256,194,78381,1,0,0:0:0:0:
292,193,78554,1,0,0:0:0:0:
69,192,78726,2,0,L|167:192,1,90
278,274,79071,5,0,0:0:0:0:
382,169,79243,1,0,0:0:0:0:
259,73,79416,1,0,0:0:0:0:
159,192,79588,1,0,0:0:0:0:
159,287,80105,6,0,B|121:303|121:303|76:279,1,90
245,175,80450,1,0,0:0:0:0:
424,338,80623,2,0,B|314:338,1,90
78,324,80968,1,0,0:0:0:0:
78,324,81140,5,0,0:0:0:0:
66,198,81312,1,0,0:0:0:0:
42,73,81485,1,0,0:0:0:0:
168,176,81657,5,0,0:0:0:0:
176,152,81744,1,0,0:0:0:0:
185,129,81830,1,0,0:0:0:0:
456,64,82002,1,0,0:0:0:0:
272,160,82174,2,0,L|317:162,1,45
440,80,82347,2,0,L|395:82,1,45
168,176,82864,6,0,L|152:216,2,33.7500012874604
208,272,83209,2,0,L|242:271,2,33.7500012874604
306,325,83554,6,0,L|283:351,1,22.5000008583069
419,126,83726,2,0,L|404:94,1,22.5000008583069
410,334,83899,2,0,L|408:371,1,22.5000008583069
416,80,84071,2,0,L|414:43,1,22.5000008583069
427,258,84243,2,0,P|360:250|306:211,1,135.000005149842
270,124,84761,5,0,0:0:0:0:
414,57,84933,1,0,0:0:0:0:
414,57,85106,1,0,0:0:0:0:
