osu file format v14

[General]
AudioFilename: audio.mp3
AudioLeadIn: 0
PreviewTime: 18351
Countdown: 0
SampleSet: Normal
StackLeniency: 0.4
Mode: 1
LetterboxInBreaks: 0
EpilepsyWarning: 1
WidescreenStoryboard: 0

[Editor]
Bookmarks: 1835,23988,38757,46141,56295,71064,85833,107987,122756,137526,143755,152294,167064
DistanceSpacing: 1.5
BeatDivisor: 3
GridSize: 32
TimelineZoom: 4.000004

[Metadata]
Title:"Alice in Wonderland" : crazy apple could not live in real life
TitleUnicode:"Alice in Wonderland" : crazy apple could not live in real life
Artist:kyou1110 vs. Takuya Namba
ArtistUnicode:kyou1110 vs. Takuya Namba
Creator:-Kazu-
Version:Muzukashii
Source:
Tags:Touche T_o_u_c_h_e Vulkin brostep dubstep wobble dust.c loves honey, World's endo pisum sativum L. dustcloth breakcore electronic instrumental
BeatmapID:1974515
BeatmapSetID:742005

[Difficulty]
HPDrainRate:5.5
CircleSize:5
OverallDifficulty:4
ApproachRate:5
SliderMultiplier:1.4
SliderTickRate:1

[Events]
//Background and Video events
0,0,"1.jpg",0,144
//Break Periods
//Storyboard Layer 0 (Background)
//Storyboard Layer 1 (Fail)
//Storyboard Layer 2 (Pass)
//Storyboard Layer 3 (Foreground)
//Storyboard Layer 4 (Overlay)
//Storyboard Sound Samples

[TimingPoints]
5,461.538461538462,4,1,0,5,1,0
5,-100,4,1,0,5,0,0
7274,-90.9090909090909,4,1,0,10,0,0
12351,-83.3333333333333,4,1,0,15,0,0
14774,-83.3333333333333,4,1,0,15,0,0
15697,-83.3333333333333,4,1,0,17,0,0
16158,-83.3333333333333,4,1,0,19,0,0
16620,-83.3333333333333,4,1,0,21,0,0
17081,-83.3333333333333,4,1,0,23,0,0
17543,-83.3333333333333,4,1,0,25,0,0
18005,-83.3333333333333,4,1,0,28,0,0
18466,-76.9230769230769,4,1,0,30,0,0
19389,-76.9230769230769,4,1,0,32,0,0
19851,-76.9230769230769,4,1,0,34,0,0
20312,-76.9230769230769,4,1,0,36,0,0
20774,-76.9230769230769,4,1,0,38,0,0
21235,-76.9230769230769,4,1,0,40,0,0
21581,-71.4285714285714,4,1,0,15,0,0
22101,-66.6666666666667,4,1,0,80,0,0
22158,230.769230769231,4,1,0,80,1,1
22158,-133.333333333333,4,1,0,80,0,1
36811,-133.333333333333,4,1,0,30,0,1
36927,-133.333333333333,4,1,0,30,0,0
37850,-142.857142857143,4,1,0,30,0,0
38773,-153.846153846154,4,1,0,30,0,0
39696,-166.666666666667,4,1,0,30,0,0
40619,-181.818181818182,4,1,0,30,0,0
41542,-200,4,1,0,30,0,0
51465,-200,4,1,0,45,0,0
51927,-133.333333333333,4,1,0,5,0,0
52619,-100,4,1,0,5,0,0
53542,-80,4,1,0,5,0,0
54234,-100,4,1,0,25,0,0
54465,307.692307692308,6,1,0,25,1,0
54465,-125,6,1,0,25,0,0
67224,-117.647058823529,6,1,0,25,0,0
67839,-111.111111111111,6,1,0,25,0,0
68455,-105.263157894737,6,1,0,25,0,0
69070,-100,6,1,0,55,0,0
83993,-100,6,1,0,65,0,0
106147,-100,6,1,0,75,0,0
133685,-100,6,1,0,10,0,0
135531,-100,6,1,0,50,0,0
135695,230.769230769231,4,1,0,80,1,1
135695,-121.212121212121,4,1,0,80,0,1
149541,-121.212121212121,4,1,0,80,0,0
150464,-121.212121212121,4,1,0,80,0,1
165118,-121.212121212121,4,1,0,80,0,1
165233,461.538461538462,4,1,0,40,1,0
165233,-60.6060606060606,4,1,0,40,0,0
165349,535.714285714286,4,1,0,40,1,8
165482,638.297872340426,4,1,0,40,1,8
165641,789.473684210526,4,1,0,40,1,8
165838,1034.48275862069,4,1,0,40,1,8
166096,1500,4,1,0,40,1,0
166096,-20,4,1,0,40,0,0
166471,2727.27272727273,4,1,0,40,1,8
167152,3750,4,1,0,40,1,0
167152,-10,4,1,0,40,0,0
171839,1875,4,1,0,40,1,8
172537,230.769230769231,4,1,0,40,1,0

[HitObjects]
256,192,5,5,0,0:0:0:0:
256,192,928,1,0,0:0:0:0:
256,192,1851,1,8,0:0:0:0:
256,192,2774,1,0,0:0:0:0:
256,192,3697,1,0,0:0:0:0:
256,192,4620,1,0,0:0:0:0:
256,192,5543,1,8,0:0:0:0:
256,192,6466,1,0,0:0:0:0:
256,192,7389,1,0,0:0:0:0:
256,192,8312,1,0,0:0:0:0:
256,192,8774,1,0,0:0:0:0:
256,192,9005,1,0,0:0:0:0:
256,192,9235,1,8,0:0:0:0:
256,192,10158,1,0,0:0:0:0:
256,192,10620,1,8,0:0:0:0:
256,192,10851,1,0,0:0:0:0:
256,192,11081,1,0,0:0:0:0:
256,192,12005,1,0,0:0:0:0:
256,192,12466,1,8,0:0:0:0:
256,192,12581,1,8,0:0:0:0:
256,192,12697,1,8,0:0:0:0:
256,192,12928,1,0,0:0:0:0:
256,192,13851,1,0,0:0:0:0:
256,192,14312,1,0,0:0:0:0:
256,192,14428,1,0,0:0:0:0:
256,192,14543,1,0,0:0:0:0:
256,192,14774,1,12,0:0:0:0:
256,192,15697,1,8,0:0:0:0:
256,192,16158,1,8,0:0:0:0:
256,192,16620,1,0,0:0:0:0:
256,192,17081,1,0,0:0:0:0:
256,192,17543,1,8,0:0:0:0:
256,192,18005,1,8,0:0:0:0:
256,192,18466,1,4,0:0:0:0:
256,192,19389,1,8,0:0:0:0:
256,192,19851,1,8,0:0:0:0:
256,192,20312,1,0,0:0:0:0:
256,192,20774,1,0,0:0:0:0:
256,192,21235,1,8,0:0:0:0:
256,192,22158,1,0,0:0:0:0:
256,192,22388,1,8,0:0:0:0:
256,192,22619,1,8,0:0:0:0:
256,192,22734,1,0,0:0:0:0:
256,192,22965,1,8,0:0:0:0:
256,192,23081,1,0,0:0:0:0:
256,192,23542,1,8,0:0:0:0:
256,192,24004,1,0,0:0:0:0:
256,192,24234,1,8,0:0:0:0:
256,192,24465,1,0,0:0:0:0:
256,192,24581,1,8,0:0:0:0:
256,192,24811,1,0,0:0:0:0:
256,192,24927,1,0,0:0:0:0:
256,192,25388,1,0,0:0:0:0:
256,192,25850,1,0,0:0:0:0:
256,192,26081,1,8,0:0:0:0:
256,192,26311,1,0,0:0:0:0:
256,192,26542,1,0,0:0:0:0:
256,192,26658,1,8,0:0:0:0:
256,192,26773,1,8,0:0:0:0:
256,192,27234,1,8,0:0:0:0:
256,192,27465,1,0,0:0:0:0:
256,192,27696,1,8,0:0:0:0:
256,192,27811,1,8,0:0:0:0:
256,192,28158,1,0,0:0:0:0:
256,192,28388,1,8,0:0:0:0:
256,192,28619,1,0,0:0:0:0:
256,192,28850,1,8,0:0:0:0:
256,192,28965,1,8,0:0:0:0:
256,192,29196,1,0,0:0:0:0:
256,192,29311,1,8,0:0:0:0:
256,192,29773,1,8,0:0:0:0:
256,192,30004,1,8,0:0:0:0:
256,192,30119,1,0,0:0:0:0:
256,192,30350,1,0,0:0:0:0:
256,192,30465,1,8,0:0:0:0:
256,192,30927,1,8,0:0:0:0:
256,192,31042,1,8,0:0:0:0:
256,192,31158,1,8,0:0:0:0:
256,192,31388,1,0,0:0:0:0:
256,192,31619,1,8,0:0:0:0:
256,192,31850,1,0,0:0:0:0:
256,192,32081,1,8,0:0:0:0:
256,192,32196,1,8,0:0:0:0:
256,192,32542,1,8,0:0:0:0:
256,192,32773,1,8,0:0:0:0:
256,192,33004,1,8,0:0:0:0:
256,192,33234,1,0,0:0:0:0:
256,192,33581,1,0,0:0:0:0:
256,192,33696,1,8,0:0:0:0:
256,192,33927,1,8,0:0:0:0:
256,192,34158,1,0,0:0:0:0:
256,192,34504,1,0,0:0:0:0:
256,192,34619,1,8,0:0:0:0:
256,192,34850,1,8,0:0:0:0:
256,192,35081,1,0,0:0:0:0:
256,192,35311,1,0,0:0:0:0:
256,192,35542,1,8,0:0:0:0:
256,192,35773,1,8,0:0:0:0:
256,192,36004,1,0,0:0:0:0:
256,192,36119,1,0,0:0:0:0:
256,192,36234,1,0,0:0:0:0:
256,192,36465,1,12,0:0:0:0:
256,192,36927,1,0,0:0:0:0:
256,192,37388,1,0,0:0:0:0:
256,192,37850,1,8,0:0:0:0:
256,192,38311,1,8,0:0:0:0:
256,192,38773,1,0,0:0:0:0:
256,192,39234,1,0,0:0:0:0:
256,192,39696,1,0,0:0:0:0:
256,192,40158,1,8,0:0:0:0:
256,192,40273,1,8,0:0:0:0:
256,192,40388,1,0,0:0:0:0:
256,192,40619,1,8,0:0:0:0:
256,192,41081,1,8,0:0:0:0:
256,192,41542,1,0,0:0:0:0:
256,192,42004,1,0,0:0:0:0:
256,192,42465,1,8,0:0:0:0:
256,192,42927,1,8,0:0:0:0:
256,192,43388,1,0,0:0:0:0:
256,192,43619,1,0,0:0:0:0:
256,192,43850,1,8,0:0:0:0:
256,192,43965,1,0,0:0:0:0:
256,192,44081,1,8,0:0:0:0:
256,192,44311,1,0,0:0:0:0:
256,192,44773,1,0,0:0:0:0:
256,192,45234,1,8,0:0:0:0:
256,192,45696,1,8,0:0:0:0:
256,192,46158,1,0,0:0:0:0:
256,192,46619,1,8,0:0:0:0:
256,192,47081,1,0,0:0:0:0:
256,192,47311,1,0,0:0:0:0:
256,192,47542,1,8,0:0:0:0:
256,192,47658,1,0,0:0:0:0:
256,192,47773,1,8,0:0:0:0:
256,192,48004,1,0,0:0:0:0:
256,192,48465,1,8,0:0:0:0:
256,192,48696,1,8,0:0:0:0:
256,192,48927,1,8,0:0:0:0:
256,192,49619,1,0,0:0:0:0:
256,192,49850,1,8,0:0:0:0:
256,192,50311,1,0,0:0:0:0:
256,192,50542,1,0,0:0:0:0:
256,192,50658,1,0,0:0:0:0:
256,192,50773,1,8,0:0:0:0:
256,192,51465,1,0,0:0:0:0:
256,192,51696,1,0,0:0:0:0:
256,192,54465,1,0,0:0:0:0:
256,192,54772,1,8,0:0:0:0:
256,192,55080,1,8,0:0:0:0:
256,192,55388,1,0,0:0:0:0:
256,192,55541,1,0,0:0:0:0:
256,192,55695,1,0,0:0:0:0:
256,192,56003,1,8,0:0:0:0:
256,192,56311,1,0,0:0:0:0:
256,192,56618,1,8,0:0:0:0:
256,192,56772,1,8,0:0:0:0:
256,192,56926,1,8,0:0:0:0:
256,192,57234,1,0,0:0:0:0:
256,192,57541,1,8,0:0:0:0:
256,192,58157,1,0,0:0:0:0:
256,192,58465,1,8,0:0:0:0:
256,192,58772,1,8,0:0:0:0:
256,192,59080,1,0,0:0:0:0:
256,192,59234,1,0,0:0:0:0:
256,192,59388,1,8,0:0:0:0:
256,192,59695,1,8,0:0:0:0:
256,192,60003,1,0,0:0:0:0:
256,192,60157,1,0,0:0:0:0:
256,192,60311,1,8,0:0:0:0:
256,192,60618,1,8,0:0:0:0:
256,192,60926,1,0,0:0:0:0:
256,192,61234,1,8,0:0:0:0:
256,192,61849,1,0,0:0:0:0:
256,192,62003,1,0,0:0:0:0:
256,192,62157,1,8,0:0:0:0:
256,192,62465,1,8,0:0:0:0:
256,192,62772,1,0,0:0:0:0:
256,192,62926,1,0,0:0:0:0:
256,192,63080,1,0,0:0:0:0:
256,192,63388,1,8,0:0:0:0:
256,192,63695,1,8,0:0:0:0:
256,192,63849,1,8,0:0:0:0:
256,192,64003,1,8,0:0:0:0:
256,192,64311,1,8,0:0:0:0:
256,192,64618,1,0,0:0:0:0:
256,192,64926,1,8,0:0:0:0:
256,192,65234,1,0,0:0:0:0:
256,192,65541,1,0,0:0:0:0:
256,192,65695,1,0,0:0:0:0:
256,192,65849,1,0,0:0:0:0:
256,192,66157,1,8,0:0:0:0:
256,192,66465,1,0,0:0:0:0:
256,192,66772,1,8,0:0:0:0:
256,192,67388,1,0,0:0:0:0:
256,192,67541,1,0,0:0:0:0:
256,192,67695,1,0,0:0:0:0:
256,192,68003,1,8,0:0:0:0:
256,192,68157,1,0,0:0:0:0:
256,192,68311,1,8,0:0:0:0:
256,192,68618,1,8,0:0:0:0:
256,192,69234,1,0,0:0:0:0:
256,192,69439,1,0,0:0:0:0:
256,192,69644,1,0,0:0:0:0:
256,192,69849,1,8,0:0:0:0:
256,192,70157,1,8,0:0:0:0:
256,192,70311,1,8,0:0:0:0:
256,192,70465,1,8,0:0:0:0:
256,192,70618,1,8,0:0:0:0:
256,192,70772,1,0,0:0:0:0:
256,192,71080,1,0,0:0:0:0:
256,192,71388,1,0,0:0:0:0:
256,192,71695,1,0,0:0:0:0:
256,192,72003,1,8,0:0:0:0:
256,192,72618,1,0,0:0:0:0:
256,192,72823,1,0,0:0:0:0:
256,192,72926,1,8,0:0:0:0:
256,192,73234,1,0,0:0:0:0:
256,192,73541,1,0,0:0:0:0:
256,192,73695,1,0,0:0:0:0:
256,192,73849,1,8,0:0:0:0:
256,192,74465,1,0,0:0:0:0:
256,192,74772,1,0,0:0:0:0:
256,192,74875,1,0,0:0:0:0:
256,192,74977,1,0,0:0:0:0:
256,192,75080,1,0,0:0:0:0:
256,192,75388,1,8,0:0:0:0:
256,192,75695,1,8,0:0:0:0:
256,192,76311,1,0,0:0:0:0:
256,192,76618,1,0,0:0:0:0:
256,192,76823,1,0,0:0:0:0:
256,192,77029,1,0,0:0:0:0:
256,192,77234,1,8,0:0:0:0:
256,192,77541,1,8,0:0:0:0:
256,192,77695,1,8,0:0:0:0:
256,192,77849,1,8,0:0:0:0:
256,192,78003,1,8,0:0:0:0:
256,192,78157,1,0,0:0:0:0:
256,192,78465,1,0,0:0:0:0:
256,192,78772,1,0,0:0:0:0:
256,192,79080,1,8,0:0:0:0:
256,192,79388,1,8,0:0:0:0:
256,192,80003,1,0,0:0:0:0:
256,192,80208,1,0,0:0:0:0:
256,192,80311,1,8,0:0:0:0:
256,192,80618,1,0,0:0:0:0:
256,192,80926,1,0,0:0:0:0:
256,192,81080,1,0,0:0:0:0:
256,192,81234,1,8,0:0:0:0:
256,192,81849,1,0,0:0:0:0:
256,192,82157,1,0,0:0:0:0:
256,192,82259,1,0,0:0:0:0:
256,192,82362,1,0,0:0:0:0:
256,192,82465,1,0,0:0:0:0:
256,192,82772,1,8,0:0:0:0:
256,192,83080,1,8,0:0:0:0:
256,192,83695,1,0,0:0:0:0:
256,192,84003,1,4,0:0:0:0:
256,192,84926,1,8,0:0:0:0:
256,192,85131,1,0,0:0:0:0:
256,192,85234,1,8,0:0:0:0:
256,192,85541,1,8,0:0:0:0:
256,192,85849,1,4,0:0:0:0:
256,192,86772,1,8,0:0:0:0:
256,192,86977,1,0,0:0:0:0:
256,192,87080,1,0,0:0:0:0:
256,192,87388,1,8,0:0:0:0:
256,192,87695,1,4,0:0:0:0:
256,192,88618,1,0,0:0:0:0:
256,192,88721,1,0,0:0:0:0:
256,192,88823,1,0,0:0:0:0:
256,192,88926,1,0,0:0:0:0:
256,192,89131,1,0,0:0:0:0:
256,192,89234,1,0,0:0:0:0:
256,192,89439,1,8,0:0:0:0:
256,192,89541,1,4,0:0:0:0:
256,192,89849,1,8,0:0:0:0:
256,192,90157,1,8,0:0:0:0:
256,192,90465,1,4,0:0:0:0:
256,192,90772,1,8,0:0:0:0:
256,192,91388,1,4,0:0:0:0:
256,192,92311,1,8,0:0:0:0:
256,192,92516,1,0,0:0:0:0:
256,192,92618,1,8,0:0:0:0:
256,192,92926,1,8,0:0:0:0:
256,192,93234,1,4,0:0:0:0:
256,192,94157,1,8,0:0:0:0:
256,192,94362,1,0,0:0:0:0:
256,192,94465,1,0,0:0:0:0:
256,192,94772,1,8,0:0:0:0:
256,192,95080,1,4,0:0:0:0:
256,192,96003,1,0,0:0:0:0:
256,192,96106,1,0,0:0:0:0:
256,192,96208,1,0,0:0:0:0:
256,192,96311,1,0,0:0:0:0:
256,192,96516,1,0,0:0:0:0:
256,192,96618,1,0,0:0:0:0:
256,192,96823,1,8,0:0:0:0:
256,192,96926,1,4,0:0:0:0:
256,192,97234,1,8,0:0:0:0:
256,192,97541,1,8,0:0:0:0:
256,192,97849,1,4,0:0:0:0:
256,192,98157,1,8,0:0:0:0:
256,192,98772,1,4,0:0:0:0:
256,192,99695,1,8,0:0:0:0:
256,192,99798,1,8,0:0:0:0:
256,192,99900,1,8,0:0:0:0:
256,192,100003,1,8,0:0:0:0:
256,192,100208,1,8,0:0:0:0:
256,192,100311,1,8,0:0:0:0:
256,192,100516,1,8,0:0:0:0:
256,192,100618,1,4,0:0:0:0:
256,192,101541,1,8,0:0:0:0:
256,192,101644,1,8,0:0:0:0:
256,192,101747,1,8,0:0:0:0:
256,192,102054,1,0,0:0:0:0:
256,192,102157,1,8,0:0:0:0:
256,192,102465,1,4,0:0:0:0:
256,192,103388,1,0,0:0:0:0:
256,192,103490,1,0,0:0:0:0:
256,192,103593,1,0,0:0:0:0:
256,192,103695,1,0,0:0:0:0:
256,192,103900,1,0,0:0:0:0:
256,192,104003,1,0,0:0:0:0:
256,192,104208,1,8,0:0:0:0:
256,192,104311,1,4,0:0:0:0:
256,192,105234,1,4,0:0:0:0:
256,192,106157,1,0,0:0:0:0:
256,192,106772,1,8,0:0:0:0:
256,192,107080,1,0,0:0:0:0:
256,192,107695,1,8,0:0:0:0:
256,192,108003,1,0,0:0:0:0:
256,192,108516,1,0,0:0:0:0:
256,192,108618,1,0,0:0:0:0:
256,192,108823,1,8,0:0:0:0:
256,192,108926,1,8,0:0:0:0:
256,192,109849,1,0,0:0:0:0:
256,192,110465,1,0,0:0:0:0:
256,192,110772,1,8,0:0:0:0:
256,192,111080,1,8,0:0:0:0:
256,192,111388,1,0,0:0:0:0:
256,192,111695,1,8,0:0:0:0:
256,192,112311,1,0,0:0:0:0:
256,192,112516,1,0,0:0:0:0:
256,192,112618,1,8,0:0:0:0:
256,192,113541,1,0,0:0:0:0:
256,192,113849,1,8,0:0:0:0:
256,192,114157,1,8,0:0:0:0:
256,192,114465,1,0,0:0:0:0:
256,192,114772,1,8,0:0:0:0:
256,192,115080,1,8,0:0:0:0:
256,192,115388,1,0,0:0:0:0:
256,192,115593,1,0,0:0:0:0:
256,192,115695,1,8,0:0:0:0:
256,192,116003,1,8,0:0:0:0:
256,192,116311,1,8,0:0:0:0:
256,192,117234,1,0,0:0:0:0:
256,192,117541,1,0,0:0:0:0:
256,192,117747,1,0,0:0:0:0:
256,192,117849,1,8,0:0:0:0:
256,192,118157,1,0,0:0:0:0:
256,192,118465,1,8,0:0:0:0:
256,192,118772,1,0,0:0:0:0:
256,192,118977,1,0,0:0:0:0:
256,192,119080,1,0,0:0:0:0:
256,192,119388,1,8,0:0:0:0:
256,192,119695,1,8,0:0:0:0:
255,187,119900,1,8,0:0:0:0:
256,192,120003,1,8,0:0:0:0:
256,192,120926,1,0,0:0:0:0:
256,192,121388,1,8,0:0:0:0:
256,192,121849,1,0,0:0:0:0:
256,192,122311,1,8,0:0:0:0:
256,192,122465,1,8,0:0:0:0:
256,192,122772,1,0,0:0:0:0:
256,192,123234,1,8,0:0:0:0:
256,192,123388,1,8,0:0:0:0:
256,192,123541,1,8,0:0:0:0:
256,192,123695,1,0,0:0:0:0:
256,192,124618,1,8,0:0:0:0:
256,192,125080,1,0,0:0:0:0:
256,192,125234,1,0,0:0:0:0:
256,192,125541,1,8,0:0:0:0:
256,192,126003,1,0,0:0:0:0:
256,192,126157,1,0,0:0:0:0:
256,192,126465,1,8,0:0:0:0:
256,192,126926,1,8,0:0:0:0:
256,192,127080,1,8,0:0:0:0:
256,192,127234,1,0,0:0:0:0:
256,192,127388,1,0,0:0:0:0:
256,192,128311,1,0,0:0:0:0:
256,192,128618,1,0,0:0:0:0:
256,192,128772,1,0,0:0:0:0:
256,192,128926,1,8,0:0:0:0:
256,192,129234,1,0,0:0:0:0:
256,192,129541,1,0,0:0:0:0:
256,192,129695,1,8,0:0:0:0:
256,192,129849,1,8,0:0:0:0:
256,192,130157,1,8,0:0:0:0:
256,192,130311,1,0,0:0:0:0:
256,192,130465,1,8,0:0:0:0:
256,192,130618,1,0,0:0:0:0:
256,192,130772,1,8,0:0:0:0:
256,192,131080,1,8,0:0:0:0:
256,192,131695,1,8,0:0:0:0:
256,192,132003,1,8,0:0:0:0:
256,192,132311,1,0,0:0:0:0:
256,192,132465,1,8,0:0:0:0:
256,192,132618,1,0,0:0:0:0:
256,192,132926,1,8,0:0:0:0:
256,192,133234,1,0,0:0:0:0:
256,192,133388,1,0,0:0:0:0:
256,192,133541,1,8,0:0:0:0:
256,192,133849,12,0,135388,0:0:0:0:
256,192,135695,5,0,0:0:0:0:
256,192,135925,1,8,0:0:0:0:
256,192,136041,1,0,0:0:0:0:
256,192,136271,1,8,0:0:0:0:
256,192,136387,1,8,0:0:0:0:
256,192,136618,1,8,0:0:0:0:
256,192,136733,1,0,0:0:0:0:
256,192,136848,1,8,0:0:0:0:
256,192,137079,1,0,0:0:0:0:
256,192,137195,1,8,0:0:0:0:
256,192,137310,1,0,0:0:0:0:
256,192,137541,1,0,0:0:0:0:
256,192,137656,1,0,0:0:0:0:
256,192,137771,1,8,0:0:0:0:
256,192,137887,1,0,0:0:0:0:
256,192,138118,1,8,0:0:0:0:
256,192,138233,1,0,0:0:0:0:
256,192,138464,1,4,0:0:0:0:
256,192,138925,1,8,0:0:0:0:
256,192,139387,1,0,0:0:0:0:
256,192,139618,1,8,0:0:0:0:
256,192,139733,1,0,0:0:0:0:
256,192,139964,1,8,0:0:0:0:
256,192,140079,1,0,0:0:0:0:
256,192,140310,1,0,0:0:0:0:
256,192,140771,1,8,0:0:0:0:
256,192,140887,1,0,0:0:0:0:
256,192,141002,1,8,0:0:0:0:
256,192,141118,1,0,0:0:0:0:
256,192,141233,1,0,0:0:0:0:
256,192,141464,1,8,0:0:0:0:
256,192,141695,1,0,0:0:0:0:
256,192,141925,1,0,0:0:0:0:
256,192,142156,1,0,0:0:0:0:
256,192,142387,1,8,0:0:0:0:
256,192,142848,1,8,0:0:0:0:
256,192,143079,1,0,0:0:0:0:
256,192,143310,1,8,0:0:0:0:
256,192,143425,1,0,0:0:0:0:
256,192,143656,1,8,0:0:0:0:
256,192,143771,1,8,0:0:0:0:
256,192,144002,1,0,0:0:0:0:
256,192,144233,1,8,0:0:0:0:
256,192,144348,1,8,0:0:0:0:
256,192,144464,1,0,0:0:0:0:
256,192,144925,1,0,0:0:0:0:
256,192,145156,1,8,0:0:0:0:
256,192,145271,1,8,0:0:0:0:
256,192,145502,1,0,0:0:0:0:
256,192,145618,1,8,0:0:0:0:
256,192,145848,1,8,0:0:0:0:
256,192,145964,1,0,0:0:0:0:
256,192,146079,1,8,0:0:0:0:
256,192,146310,1,0,0:0:0:0:
256,192,146541,1,0,0:0:0:0:
256,192,146771,1,4,0:0:0:0:
256,192,147002,1,8,0:0:0:0:
256,192,147118,1,4,0:0:0:0:
256,192,147348,1,8,0:0:0:0:
256,192,147464,1,0,0:0:0:0:
256,192,147579,1,0,0:0:0:0:
256,192,147695,1,8,0:0:0:0:
256,192,147925,1,8,0:0:0:0:
256,192,148387,1,0,0:0:0:0:
256,192,148618,1,8,0:0:0:0:
256,192,148848,1,8,0:0:0:0:
256,192,148964,1,0,0:0:0:0:
256,192,149195,1,8,0:0:0:0:
256,192,149310,1,0,0:0:0:0:
256,192,149541,1,0,0:0:0:0:
256,192,150002,1,8,0:0:0:0:
256,192,150464,1,0,0:0:0:0:
256,192,150579,1,0,0:0:0:0:
256,192,150695,1,8,0:0:0:0:
256,192,150810,1,0,0:0:0:0:
256,192,151041,1,8,0:0:0:0:
256,192,151156,1,0,0:0:0:0:
256,192,151387,1,0,0:0:0:0:
256,192,151618,1,8,0:0:0:0:
256,192,151733,1,0,0:0:0:0:
256,192,151848,1,8,0:0:0:0:
256,192,152079,1,8,0:0:0:0:
256,192,152310,1,0,0:0:0:0:
256,192,152541,1,8,0:0:0:0:
256,192,152656,1,0,0:0:0:0:
256,192,152771,1,0,0:0:0:0:
256,192,153002,1,0,0:0:0:0:
256,192,153233,1,0,0:0:0:0:
256,192,153464,1,8,0:0:0:0:
256,192,153925,1,8,0:0:0:0:
256,192,154156,1,0,0:0:0:0:
256,192,154271,1,0,0:0:0:0:
256,192,154387,1,8,0:0:0:0:
256,192,154502,1,0,0:0:0:0:
256,192,154733,1,8,0:0:0:0:
256,192,154848,1,0,0:0:0:0:
256,192,155079,1,0,0:0:0:0:
256,192,155195,1,0,0:0:0:0:
256,192,155310,1,8,0:0:0:0:
256,192,155541,1,0,0:0:0:0:
256,192,155656,1,8,0:0:0:0:
256,192,155887,1,8,0:0:0:0:
256,192,156002,1,0,0:0:0:0:
256,192,156233,1,0,0:0:0:0:
256,192,156348,1,0,0:0:0:0:
256,192,156579,1,0,0:0:0:0:
256,192,156695,1,8,0:0:0:0:
256,192,156925,1,8,0:0:0:0:
256,192,157041,1,0,0:0:0:0:
256,192,157156,1,8,0:0:0:0:
256,192,157618,1,8,0:0:0:0:
256,192,157848,1,0,0:0:0:0:
256,192,157964,1,0,0:0:0:0:
256,192,158079,1,8,0:0:0:0:
256,192,158195,1,0,0:0:0:0:
256,192,158425,1,8,0:0:0:0:
256,192,158541,1,0,0:0:0:0:
256,192,158656,1,8,0:0:0:0:
256,192,158771,1,0,0:0:0:0:
256,192,159002,1,8,0:0:0:0:
256,192,159118,1,8,0:0:0:0:
256,192,159233,1,0,0:0:0:0:
256,192,159348,1,0,0:0:0:0:
256,192,159464,1,0,0:0:0:0:
256,192,159695,1,0,0:0:0:0:
256,192,159925,1,8,0:0:0:0:
256,192,160041,1,0,0:0:0:0:
256,192,160271,1,8,0:0:0:0:
256,192,160387,1,0,0:0:0:0:
256,192,160618,1,8,0:0:0:0:
256,192,160733,1,0,0:0:0:0:
256,192,160848,1,8,0:0:0:0:
256,192,161079,1,0,0:0:0:0:
256,192,161541,1,0,0:0:0:0:
256,192,161656,1,0,0:0:0:0:
256,192,161771,1,8,0:0:0:0:
256,192,161887,1,0,0:0:0:0:
256,192,162118,1,8,0:0:0:0:
256,192,162233,1,0,0:0:0:0:
256,192,162464,1,0,0:0:0:0:
256,192,162925,1,8,0:0:0:0:
256,192,163041,1,8,0:0:0:0:
256,192,163156,1,8,0:0:0:0:
256,192,163271,1,8,0:0:0:0:
256,192,163387,1,0,0:0:0:0:
256,192,163618,1,8,0:0:0:0:
256,192,163733,1,8,0:0:0:0:
256,192,163848,1,0,0:0:0:0:
256,192,164079,1,8,0:0:0:0:
256,192,164195,1,8,0:0:0:0:
256,192,164310,1,0,0:0:0:0:
256,192,164541,1,8,0:0:0:0:
256,192,164656,1,0,0:0:0:0:
256,192,164771,1,0,0:0:0:0:
256,192,165233,12,0,172537,0:0:0:0:
