osu file format v14

[General]
AudioFilename: audio.mp3
AudioLeadIn: 0
PreviewTime: 18351
Countdown: 0
SampleSet: Normal
StackLeniency: 0.4
Mode: 1
LetterboxInBreaks: 0
EpilepsyWarning: 1
WidescreenStoryboard: 0

[Editor]
Bookmarks: 1835,23988,38757,46141,56295,71064,85833,107977,122756,137526,152294
DistanceSpacing: 1.5
BeatDivisor: 1
GridSize: 32
TimelineZoom: 2.400007

[Metadata]
Title:"Alice in Wonderland" : crazy apple could not live in real life
TitleUnicode:"Alice in Wonderland" : crazy apple could not live in real life
Artist:kyou1110 vs. Takuya Namba
ArtistUnicode:kyou1110 vs. Takuya Namba
Creator:-Kazu-
Version:Inner Oni
Source:
Tags:Touche T_o_u_c_h_e Vulkin brostep dubstep wobble dust.c loves honey, World's endo pisum sativum L. dustcloth breakcore electronic instrumental
BeatmapID:2003199
BeatmapSetID:742005

[Difficulty]
HPDrainRate:5.5
CircleSize:5
OverallDifficulty:6
ApproachRate:5
SliderMultiplier:1.4
SliderTickRate:1

[Events]
//Background and Video events
0,0,"1.jpg",0,144
//Break Periods
//Storyboard Layer 0 (Background)
//Storyboard Layer 1 (Fail)
//Storyboard Layer 2 (Pass)
//Storyboard Layer 3 (Foreground)
//Storyboard Layer 4 (Overlay)
//Storyboard Sound Samples

[TimingPoints]
5,461.538461538462,4,1,0,5,1,0
5,-200,4,1,0,5,0,0
7274,-166.666666666667,4,1,0,10,0,0
12351,-163.934426229508,4,1,0,15,0,0
12581,-161.290322580645,4,1,0,15,0,0
12697,-158.730158730159,4,1,0,15,0,0
12812,-156.25,4,1,0,15,0,0
12928,-153.846153846154,4,1,0,15,0,0
14774,-142.857142857143,4,1,0,20,0,0
15005,-141.700462226908,4,1,0,20,0,0
15120,-141.129117618418,4,1,0,21,0,0
15235,-140.562164319981,4,1,0,21,0,0
15351,-139.999944000022,4,1,0,22,0,0
15466,-139.442203298366,4,1,0,22,0,0
15581,-138.888888888889,4,1,0,23,0,0
15812,-137.795329840681,4,1,0,23,0,0
15928,-137.254982699009,4,1,0,23,0,0
16043,-136.718669891404,4,1,0,24,0,0
16158,-136.186717437075,4,1,0,24,0,0
16274,-135.6588884382,4,1,0,25,0,0
16389,-135.135135135135,4,1,0,25,0,0
16620,-134.099668237421,4,1,0,26,0,0
16851,-133.079772007735,4,1,0,26,0,0
16966,-132.575707357687,4,1,0,27,0,0
17081,-132.075446778218,4,1,0,27,0,0
17197,-131.578947368421,4,1,0,27,0,0
17312,-131.086166870069,4,1,0,28,0,0
17428,-130.597063655621,4,1,0,28,0,0
17658,-129.629557613209,4,1,0,29,0,0
17774,-129.15124385563,4,1,0,29,0,0
17889,-128.676446934477,4,1,0,30,0,0
18005,-128.205128205128,4,1,0,30,0,0
18120,-127.737249587089,4,1,0,30,0,0
18235,-127.272773553736,4,1,0,31,0,0
18351,-125,4,1,0,30,0,0
18466,-126.353722191125,4,1,0,31,0,0
18697,-125.448006192114,4,1,0,32,0,0
18812,-125,4,1,0,32,0,0
18928,-124.555182305193,4,1,0,33,0,0
19043,-124.113519189191,4,1,0,33,0,0
19158,-123.674977212885,4,1,0,33,0,0
19274,-123.239371528501,4,1,0,34,0,0
19505,-122.377600982937,4,1,0,34,0,0
19620,-121.951219512195,4,1,0,35,0,0
19735,-121.527798876354,4,1,0,35,0,0
19851,-121.107308341629,4,1,0,36,0,0
19966,-120.68971759813,4,1,0,36,0,0
20081,-120.274852092001,4,1,0,37,0,0
20312,-119.45390453005,4,1,0,37,0,0
20543,-118.644087905778,4,1,0,37,0,0
20658,-118.243283190298,4,1,0,38,0,0
20774,-117.845177362884,4,1,0,38,0,0
20889,-117.449605310601,4,1,0,39,0,0
21005,-117.056817037854,4,1,0,39,0,0
21120,-116.666647222225,4,1,0,40,0,0
21235,-116.279069767442,4,1,0,40,0,0
21351,-113.636363636364,4,1,0,15,0,0
21581,-111.111111111111,4,1,0,15,0,0
21697,-108.695652173913,4,1,0,15,0,0
21812,-106.382978723404,4,1,0,15,0,0
21928,-104.166666666667,4,1,0,15,0,0
22043,-102.040816326531,4,1,0,15,0,0
22101,-102.040816326531,4,1,0,60,0,0
22158,230.769230769231,4,1,0,60,1,1
36811,-100,4,1,0,30,0,1
36927,-100,4,1,0,30,0,0
51724,-200,4,1,0,5,0,0
52619,-100,4,1,0,5,0,0
53542,-83.3333333333333,4,1,0,5,0,0
54465,307.692307692308,6,1,0,25,1,0
54465,-166.666666666667,6,1,0,25,0,0
69224,-133.333333333333,6,1,0,55,0,0
83993,-133.333333333333,6,1,0,65,0,0
106147,-133.333333333333,6,1,0,75,0,0
133839,-100,6,1,0,5,0,0
135695,230.769230769231,4,1,0,80,1,1
149541,-100,4,1,0,80,0,0
150464,-100,4,1,0,80,0,1
165233,461.538461538462,4,1,0,40,1,0
165233,-25,4,1,0,40,0,0
165349,535.714285714286,4,1,0,40,1,8
165482,638.297872340426,4,1,0,40,1,8
165641,789.473684210526,4,1,0,40,1,8
165838,1034.48275862069,4,1,0,40,1,8
166096,1500,4,1,0,40,1,0
166096,-20,4,1,0,40,0,0
166471,2727.27272727273,4,1,0,40,1,8
167152,3750,4,1,0,40,1,0
167152,-10,4,1,0,40,0,0
171839,1875,4,1,0,40,1,8
172537,230.769230769231,4,1,0,40,1,0

[HitObjects]
256,192,5,5,0,0:0:0:0:
256,192,928,1,0,0:0:0:0:
256,192,1851,1,8,0:0:0:0:
256,192,2774,1,0,0:0:0:0:
256,192,3697,1,0,0:0:0:0:
256,192,4620,1,0,0:0:0:0:
256,192,5543,1,8,0:0:0:0:
256,192,6466,1,0,0:0:0:0:
256,192,7389,1,0,0:0:0:0:
256,192,8312,1,0,0:0:0:0:
256,192,8774,1,0,0:0:0:0:
256,192,9005,1,8,0:0:0:0:
256,192,9235,1,8,0:0:0:0:
256,192,10158,1,0,0:0:0:0:
256,192,10620,1,8,0:0:0:0:
256,192,10851,1,0,0:0:0:0:
256,192,11081,1,0,0:0:0:0:
256,192,12005,1,0,0:0:0:0:
256,192,12466,1,8,0:0:0:0:
256,192,12581,1,8,0:0:0:0:
256,192,12697,1,0,0:0:0:0:
256,192,12812,1,8,0:0:0:0:
256,192,12928,1,8,0:0:0:0:
256,192,13851,1,0,0:0:0:0:
256,192,14312,1,8,0:0:0:0:
256,192,14428,1,8,0:0:0:0:
256,192,14543,1,0,0:0:0:0:
256,192,14774,1,4,0:0:0:0:
256,192,15005,1,8,0:0:0:0:
256,192,15120,1,8,0:0:0:0:
256,192,15235,1,0,0:0:0:0:
256,192,15351,1,0,0:0:0:0:
256,192,15466,1,8,0:0:0:0:
256,192,15581,1,8,0:0:0:0:
256,192,15697,1,0,0:0:0:0:
256,192,15928,1,8,0:0:0:0:
256,192,16043,1,8,0:0:0:0:
256,192,16158,1,0,0:0:0:0:
256,192,16274,1,0,0:0:0:0:
256,192,16389,1,8,0:0:0:0:
256,192,16620,1,0,0:0:0:0:
256,192,16851,1,8,0:0:0:0:
256,192,16966,1,8,0:0:0:0:
256,192,17081,1,0,0:0:0:0:
256,192,17197,1,0,0:0:0:0:
256,192,17312,1,8,0:0:0:0:
256,192,17428,1,0,0:0:0:0:
256,192,17543,1,8,0:0:0:0:
256,192,17774,1,0,0:0:0:0:
256,192,17889,1,8,0:0:0:0:
256,192,18005,1,0,0:0:0:0:
256,192,18120,1,0,0:0:0:0:
256,192,18235,1,8,0:0:0:0:
256,192,18466,1,4,0:0:0:0:
256,192,18697,1,8,0:0:0:0:
256,192,18812,1,8,0:0:0:0:
256,192,18928,1,0,0:0:0:0:
256,192,19043,1,0,0:0:0:0:
256,192,19158,1,8,0:0:0:0:
256,192,19274,1,0,0:0:0:0:
256,192,19389,1,0,0:0:0:0:
256,192,19620,1,8,0:0:0:0:
256,192,19735,1,8,0:0:0:0:
256,192,19851,1,0,0:0:0:0:
256,192,19966,1,0,0:0:0:0:
256,192,20081,1,8,0:0:0:0:
256,192,20312,1,0,0:0:0:0:
256,192,20543,1,8,0:0:0:0:
256,192,20658,1,8,0:0:0:0:
256,192,20774,1,0,0:0:0:0:
256,192,20889,1,0,0:0:0:0:
256,192,21005,1,8,0:0:0:0:
256,192,21120,1,0,0:0:0:0:
256,192,21235,1,8,0:0:0:0:
256,192,21466,1,8,0:0:0:0:
256,192,21581,1,8,0:0:0:0:
256,192,21697,1,8,0:0:0:0:
256,192,21812,1,8,0:0:0:0:
256,192,21928,1,8,0:0:0:0:
256,192,22043,1,8,0:0:0:0:
256,192,22158,1,0,0:0:0:0:
256,192,22273,1,8,0:0:0:0:
256,192,22388,1,0,0:0:0:0:
256,192,22446,1,0,0:0:0:0:
256,192,22504,1,0,0:0:0:0:
256,192,22619,1,0,0:0:0:0:
256,192,22734,1,8,0:0:0:0:
256,192,22965,1,8,0:0:0:0:
256,192,23081,1,0,0:0:0:0:
256,192,23196,1,8,0:0:0:0:
256,192,23311,1,0,0:0:0:0:
256,192,23369,1,0,0:0:0:0:
256,192,23427,1,8,0:0:0:0:
256,192,23542,1,8,0:0:0:0:
256,192,23658,1,8,0:0:0:0:
256,192,23888,1,0,0:0:0:0:
256,192,23946,1,0,0:0:0:0:
256,192,24004,1,8,0:0:0:0:
256,192,24119,1,8,0:0:0:0:
256,192,24350,1,0,0:0:0:0:
256,192,24465,1,8,0:0:0:0:
256,192,24581,1,0,0:0:0:0:
256,192,24696,1,8,0:0:0:0:
256,192,24754,1,8,0:0:0:0:
256,192,24811,1,8,0:0:0:0:
256,192,24927,1,0,0:0:0:0:
256,192,25042,1,8,0:0:0:0:
256,192,25158,1,0,0:0:0:0:
256,192,25215,1,0,0:0:0:0:
256,192,25273,1,8,0:0:0:0:
256,192,25388,1,0,0:0:0:0:
256,192,25446,1,0,0:0:0:0:
256,192,25504,1,0,0:0:0:0:
256,192,25561,1,0,0:0:0:0:
256,192,25619,1,8,0:0:0:0:
261,190,25734,1,8,0:0:0:0:
261,190,25850,1,0,0:0:0:0:
256,192,26081,1,8,0:0:0:0:
256,192,26138,1,8,0:0:0:0:
256,192,26196,1,8,0:0:0:0:
256,192,26311,1,0,0:0:0:0:
256,192,26427,1,0,0:0:0:0:
256,192,26542,1,8,0:0:0:0:
256,192,26600,1,8,0:0:0:0:
256,192,26658,1,8,0:0:0:0:
261,190,26715,1,8,0:0:0:0:
261,190,26773,1,0,0:0:0:0:
261,190,26888,1,0,0:0:0:0:
256,192,27004,1,8,0:0:0:0:
256,192,27119,1,0,0:0:0:0:
256,192,27234,1,8,0:0:0:0:
256,192,27292,1,8,0:0:0:0:
256,192,27350,1,0,0:0:0:0:
256,192,27465,1,8,0:0:0:0:
256,192,27523,1,0,0:0:0:0:
256,192,27581,1,0,0:0:0:0:
256,192,27638,1,0,0:0:0:0:
256,192,27696,1,8,0:0:0:0:
261,190,27811,1,8,0:0:0:0:
256,192,28042,1,0,0:0:0:0:
256,192,28158,1,8,0:0:0:0:
256,192,28388,1,0,0:0:0:0:
256,192,28446,1,0,0:0:0:0:
256,192,28504,1,0,0:0:0:0:
256,192,28619,1,0,0:0:0:0:
256,192,28734,1,8,0:0:0:0:
261,190,28850,1,8,0:0:0:0:
256,192,28965,1,0,0:0:0:0:
256,192,29196,1,0,0:0:0:0:
256,192,29311,1,8,0:0:0:0:
256,192,29369,1,8,0:0:0:0:
256,192,29427,1,8,0:0:0:0:
256,192,29542,1,0,0:0:0:0:
256,192,29658,1,0,0:0:0:0:
256,192,29773,1,8,0:0:0:0:
256,192,29831,1,8,0:0:0:0:
256,192,29888,1,0,0:0:0:0:
256,192,30004,1,8,0:0:0:0:
256,192,30061,1,8,0:0:0:0:
256,192,30119,1,0,0:0:0:0:
256,192,30234,1,0,0:0:0:0:
256,192,30350,1,0,0:0:0:0:
256,192,30465,1,8,0:0:0:0:
256,192,30581,1,0,0:0:0:0:
256,192,30609,1,0,0:0:0:0:
256,192,30927,1,8,0:0:0:0:
256,192,30984,1,8,0:0:0:0:
256,192,31042,1,0,0:0:0:0:
256,192,31100,1,0,0:0:0:0:
256,192,31158,1,8,0:0:0:0:
256,192,31215,1,8,0:0:0:0:
256,192,31273,1,8,0:0:0:0:
256,192,31331,1,8,0:0:0:0:
256,192,31388,1,0,0:0:0:0:
256,192,31504,1,0,0:0:0:0:
256,192,31619,1,8,0:0:0:0:
256,192,31734,1,8,0:0:0:0:
256,192,31850,1,0,0:0:0:0:
256,192,31965,1,8,0:0:0:0:
256,192,32023,1,8,0:0:0:0:
256,192,32081,1,8,0:0:0:0:
256,192,32138,1,0,0:0:0:0:
256,192,32196,1,8,0:0:0:0:
256,192,32542,1,8,0:0:0:0:
256,192,32658,1,8,0:0:0:0:
256,192,32773,1,8,0:0:0:0:
256,192,32888,1,8,0:0:0:0:
256,192,33004,1,8,0:0:0:0:
256,192,33119,1,8,0:0:0:0:
256,192,33234,1,0,0:0:0:0:
256,192,33292,1,0,0:0:0:0:
256,192,33350,1,8,0:0:0:0:
256,192,33465,1,0,0:0:0:0:
256,192,33696,1,8,0:0:0:0:
256,192,33811,1,0,0:0:0:0:
256,192,33869,1,0,0:0:0:0:
256,192,33927,1,0,0:0:0:0:
256,192,34042,1,8,0:0:0:0:
256,192,34158,1,0,0:0:0:0:
256,192,34215,1,0,0:0:0:0:
256,192,34273,1,8,0:0:0:0:
256,192,34388,1,0,0:0:0:0:
256,192,34619,1,8,0:0:0:0:
256,192,34734,1,0,0:0:0:0:
256,192,34792,1,0,0:0:0:0:
256,192,34850,1,0,0:0:0:0:
256,192,34965,1,8,0:0:0:0:
256,192,35081,1,0,0:0:0:0:
256,192,35196,1,8,0:0:0:0:
256,192,35311,1,0,0:0:0:0:
256,192,35369,1,0,0:0:0:0:
256,192,35427,1,0,0:0:0:0:
256,192,35542,1,0,0:0:0:0:
256,192,35658,1,8,0:0:0:0:
256,192,35773,1,0,0:0:0:0:
256,192,35888,1,8,0:0:0:0:
256,192,36004,1,0,0:0:0:0:
256,192,36061,1,0,0:0:0:0:
256,192,36119,1,0,0:0:0:0:
256,192,36234,1,8,0:0:0:0:
256,192,36350,1,0,0:0:0:0:
256,192,36465,1,12,0:0:0:0:
256,192,36927,1,8,0:0:0:0:
256,192,37042,1,0,0:0:0:0:
256,192,37158,1,8,0:0:0:0:
256,192,37273,1,0,0:0:0:0:
256,192,37504,1,0,0:0:0:0:
256,192,37619,1,8,0:0:0:0:
256,192,37734,1,0,0:0:0:0:
256,192,37965,1,0,0:0:0:0:
256,192,38081,1,8,0:0:0:0:
256,192,38196,1,0,0:0:0:0:
256,192,38311,1,0,0:0:0:0:
256,192,38427,1,0,0:0:0:0:
256,192,38542,1,8,0:0:0:0:
256,192,38658,1,0,0:0:0:0:
256,192,38888,1,0,0:0:0:0:
256,192,39004,1,8,0:0:0:0:
256,192,39119,1,0,0:0:0:0:
256,192,39350,1,0,0:0:0:0:
256,192,39465,1,8,0:0:0:0:
256,192,39581,1,0,0:0:0:0:
256,192,39811,1,0,0:0:0:0:
256,192,39927,1,8,0:0:0:0:
256,192,40042,1,0,0:0:0:0:
256,192,40158,1,0,0:0:0:0:
256,192,40273,1,0,0:0:0:0:
256,192,40388,1,8,0:0:0:0:
256,192,40504,1,0,0:0:0:0:
256,192,40619,1,8,0:0:0:0:
256,192,40734,1,0,0:0:0:0:
256,192,40850,1,0,0:0:0:0:
256,192,41081,1,8,0:0:0:0:
256,192,41196,1,0,0:0:0:0:
256,192,41311,1,0,0:0:0:0:
256,192,41542,1,8,0:0:0:0:
256,192,41658,1,0,0:0:0:0:
256,192,41773,1,0,0:0:0:0:
256,192,41888,1,0,0:0:0:0:
256,192,42004,1,8,0:0:0:0:
256,192,42119,1,0,0:0:0:0:
256,192,42234,1,0,0:0:0:0:
256,192,42465,1,8,0:0:0:0:
256,192,42581,1,0,0:0:0:0:
256,192,42696,1,0,0:0:0:0:
256,192,42811,1,8,0:0:0:0:
256,192,42927,1,8,0:0:0:0:
256,192,43042,1,8,0:0:0:0:
256,192,43158,1,0,0:0:0:0:
256,192,43273,1,0,0:0:0:0:
256,192,43388,1,0,0:0:0:0:
256,192,43619,1,8,0:0:0:0:
256,192,43734,1,0,0:0:0:0:
256,192,43850,1,0,0:0:0:0:
256,192,43965,1,8,0:0:0:0:
256,192,44081,1,8,0:0:0:0:
256,192,44196,1,0,0:0:0:0:
256,192,44311,1,0,0:0:0:0:
256,192,44427,1,0,0:0:0:0:
256,192,44542,1,8,0:0:0:0:
256,192,44658,1,0,0:0:0:0:
256,192,44888,1,0,0:0:0:0:
256,192,45004,1,8,0:0:0:0:
256,192,45119,1,8,0:0:0:0:
256,192,45234,1,0,0:0:0:0:
256,192,45350,1,8,0:0:0:0:
256,192,45465,1,0,0:0:0:0:
256,192,45581,1,0,0:0:0:0:
256,192,45811,1,0,0:0:0:0:
256,192,45927,1,8,0:0:0:0:
256,192,46042,1,8,0:0:0:0:
256,192,46158,1,8,0:0:0:0:
256,192,46273,1,0,0:0:0:0:
256,192,46388,1,0,0:0:0:0:
256,192,46504,1,8,0:0:0:0:
256,192,46734,1,0,0:0:0:0:
256,192,46850,1,8,0:0:0:0:
256,192,46965,1,8,0:0:0:0:
256,192,47081,1,0,0:0:0:0:
256,192,47196,1,8,0:0:0:0:
256,192,47311,1,0,0:0:0:0:
256,192,47427,1,0,0:0:0:0:
256,192,47542,1,8,0:0:0:0:
256,192,47658,1,0,0:0:0:0:
256,192,47773,1,8,0:0:0:0:
256,192,47888,1,8,0:0:0:0:
256,192,48004,1,0,0:0:0:0:
256,192,48465,1,8,0:0:0:0:
256,192,48696,1,8,0:0:0:0:
256,192,48927,1,8,0:0:0:0:
256,192,48984,1,8,0:0:0:0:
256,192,49619,1,8,0:0:0:0:
256,192,49850,1,8,0:0:0:0:
256,192,49908,1,8,0:0:0:0:
256,192,50311,1,8,0:0:0:0:
256,192,50427,1,0,0:0:0:0:
256,192,50542,1,8,0:0:0:0:
256,192,50600,1,0,0:0:0:0:
256,192,50658,1,8,0:0:0:0:
256,192,50715,1,0,0:0:0:0:
256,192,50773,1,0,0:0:0:0:
256,192,51465,1,8,0:0:0:0:
256,192,51696,1,0,0:0:0:0:
256,192,54465,1,0,0:0:0:0:
256,192,54772,1,8,0:0:0:0:
256,192,54849,1,8,0:0:0:0:
256,192,54926,1,8,0:0:0:0:
256,192,55003,1,8,0:0:0:0:
256,192,55080,1,0,0:0:0:0:
256,192,55388,1,0,0:0:0:0:
256,192,55465,1,0,0:0:0:0:
256,192,55541,1,0,0:0:0:0:
256,192,55618,1,0,0:0:0:0:
256,192,55695,1,8,0:0:0:0:
256,192,56003,1,0,0:0:0:0:
256,192,56080,1,8,0:0:0:0:
256,192,56157,1,0,0:0:0:0:
256,192,56234,1,8,0:0:0:0:
256,192,56311,1,0,0:0:0:0:
256,192,56388,1,0,0:0:0:0:
256,192,56465,1,0,0:0:0:0:
256,192,56618,1,8,0:0:0:0:
256,192,56695,1,0,0:0:0:0:
256,192,56772,1,8,0:0:0:0:
256,192,56849,1,8,0:0:0:0:
256,192,56926,1,0,0:0:0:0:
256,192,57234,1,8,0:0:0:0:
256,192,57541,1,0,0:0:0:0:
256,192,57849,1,8,0:0:0:0:
256,192,57926,1,8,0:0:0:0:
256,192,58003,1,8,0:0:0:0:
256,192,58080,1,8,0:0:0:0:
256,192,58157,1,0,0:0:0:0:
256,192,58465,1,8,0:0:0:0:
256,192,58618,1,8,0:0:0:0:
256,192,58695,1,8,0:0:0:0:
256,192,58772,1,0,0:0:0:0:
256,192,59080,1,0,0:0:0:0:
256,192,59157,1,0,0:0:0:0:
256,192,59234,1,0,0:0:0:0:
256,192,59311,1,0,0:0:0:0:
256,192,59388,1,8,0:0:0:0:
256,192,59695,1,0,0:0:0:0:
256,192,59772,1,8,0:0:0:0:
256,192,59849,1,0,0:0:0:0:
256,192,59926,1,8,0:0:0:0:
256,192,60003,1,0,0:0:0:0:
256,192,60080,1,0,0:0:0:0:
256,192,60157,1,0,0:0:0:0:
256,192,60311,1,8,0:0:0:0:
256,192,60388,1,8,0:0:0:0:
256,192,60465,1,8,0:0:0:0:
256,192,60541,1,8,0:0:0:0:
256,192,60618,1,0,0:0:0:0:
256,192,60926,1,0,0:0:0:0:
256,192,61234,1,8,0:0:0:0:
256,192,61541,1,8,0:0:0:0:
256,192,61849,1,0,0:0:0:0:
256,192,62156,1,8,0:0:0:0:
256,192,62233,1,8,0:0:0:0:
256,192,62310,1,8,0:0:0:0:
256,192,62387,1,8,0:0:0:0:
256,192,62464,1,0,0:0:0:0:
256,192,62772,1,0,0:0:0:0:
256,192,62849,1,0,0:0:0:0:
256,192,62925,1,0,0:0:0:0:
256,192,63002,1,0,0:0:0:0:
256,192,63079,1,8,0:0:0:0:
256,192,63387,1,0,0:0:0:0:
256,192,63464,1,8,0:0:0:0:
256,192,63541,1,0,0:0:0:0:
256,192,63618,1,8,0:0:0:0:
256,192,63695,1,0,0:0:0:0:
256,192,63772,1,0,0:0:0:0:
256,192,63849,1,0,0:0:0:0:
256,192,64002,1,8,0:0:0:0:
256,192,64079,1,0,0:0:0:0:
256,192,64156,1,8,0:0:0:0:
256,192,64233,1,8,0:0:0:0:
256,192,64310,1,0,0:0:0:0:
256,192,64618,1,8,0:0:0:0:
256,192,64925,1,0,0:0:0:0:
256,192,65233,1,8,0:0:0:0:
256,192,65310,1,8,0:0:0:0:
256,192,65387,1,8,0:0:0:0:
256,192,65464,1,8,0:0:0:0:
256,192,65541,1,0,0:0:0:0:
256,192,65849,1,8,0:0:0:0:
256,192,66002,1,8,0:0:0:0:
256,192,66079,1,8,0:0:0:0:
256,192,66156,1,0,0:0:0:0:
256,192,66464,1,0,0:0:0:0:
256,192,66541,1,0,0:0:0:0:
256,192,66618,1,0,0:0:0:0:
256,192,66695,1,0,0:0:0:0:
256,192,66772,1,8,0:0:0:0:
256,192,67079,1,0,0:0:0:0:
256,192,67156,1,8,0:0:0:0:
256,192,67233,1,0,0:0:0:0:
256,192,67310,1,8,0:0:0:0:
256,192,67387,1,0,0:0:0:0:
256,192,67464,1,0,0:0:0:0:
256,192,67541,1,0,0:0:0:0:
256,192,67695,1,8,0:0:0:0:
256,192,67772,1,8,0:0:0:0:
256,192,67849,1,8,0:0:0:0:
256,192,67925,1,8,0:0:0:0:
256,192,68002,1,0,0:0:0:0:
256,192,68157,1,0,0:0:0:0:
256,192,68311,1,8,0:0:0:0:
256,192,68618,1,8,0:0:0:0:
256,192,68925,1,8,0:0:0:0:
256,192,69234,1,0,0:0:0:0:
256,192,69439,1,0,0:0:0:0:
256,192,69541,1,0,0:0:0:0:
256,192,69747,1,0,0:0:0:0:
256,192,69849,1,8,0:0:0:0:
256,192,70157,1,8,0:0:0:0:
256,192,70259,1,8,0:0:0:0:
256,192,70362,1,8,0:0:0:0:
256,192,70465,1,0,0:0:0:0:
256,192,70670,1,8,0:0:0:0:
256,192,70772,1,0,0:0:0:0:
256,192,71080,1,0,0:0:0:0:
256,192,71388,1,0,0:0:0:0:
256,192,71695,1,0,0:0:0:0:
256,192,72003,1,8,0:0:0:0:
256,192,72618,1,0,0:0:0:0:
256,192,72823,1,0,0:0:0:0:
256,192,72926,1,8,0:0:0:0:
256,192,73234,1,0,0:0:0:0:
256,192,73439,1,0,0:0:0:0:
256,192,73541,1,0,0:0:0:0:
256,192,73747,1,0,0:0:0:0:
256,192,73849,1,8,0:0:0:0:
256,192,74157,1,8,0:0:0:0:
256,192,74465,1,0,0:0:0:0:
256,192,74772,1,0,0:0:0:0:
256,192,74875,1,0,0:0:0:0:
256,192,74977,1,8,0:0:0:0:
256,192,75080,1,0,0:0:0:0:
256,192,75182,1,8,0:0:0:0:
256,192,75285,1,8,0:0:0:0:
256,192,75388,1,0,0:0:0:0:
256,192,75695,1,8,0:0:0:0:
256,192,75900,1,0,0:0:0:0:
256,192,76003,1,8,0:0:0:0:
256,192,76311,1,8,0:0:0:0:
256,192,76388,1,8,0:0:0:0:
256,192,76465,1,8,0:0:0:0:
256,192,76541,1,8,0:0:0:0:
256,192,76618,1,0,0:0:0:0:
256,192,76823,1,0,0:0:0:0:
256,192,76925,1,0,0:0:0:0:
256,192,77131,1,0,0:0:0:0:
256,192,77233,1,8,0:0:0:0:
256,192,77541,1,8,0:0:0:0:
256,192,77643,1,8,0:0:0:0:
256,192,77746,1,8,0:0:0:0:
256,192,77849,1,0,0:0:0:0:
256,192,78054,1,8,0:0:0:0:
256,192,78156,1,0,0:0:0:0:
256,192,78464,1,0,0:0:0:0:
256,192,78772,1,0,0:0:0:0:
256,192,79079,1,0,0:0:0:0:
256,192,79387,1,8,0:0:0:0:
256,192,80002,1,0,0:0:0:0:
256,192,80207,1,0,0:0:0:0:
256,192,80310,1,8,0:0:0:0:
256,192,80618,1,0,0:0:0:0:
256,192,80823,1,0,0:0:0:0:
256,192,80925,1,0,0:0:0:0:
256,192,81131,1,0,0:0:0:0:
256,192,81233,1,8,0:0:0:0:
256,192,81541,1,8,0:0:0:0:
256,192,81849,1,0,0:0:0:0:
256,192,82156,1,0,0:0:0:0:
256,192,82259,1,0,0:0:0:0:
256,192,82361,1,8,0:0:0:0:
256,192,82464,1,0,0:0:0:0:
256,192,82566,1,8,0:0:0:0:
256,192,82669,1,8,0:0:0:0:
256,192,82772,1,0,0:0:0:0:
256,192,83079,1,8,0:0:0:0:
256,192,83284,1,0,0:0:0:0:
256,192,83387,1,8,0:0:0:0:
256,192,83695,1,8,0:0:0:0:
256,192,83772,1,8,0:0:0:0:
256,192,83849,1,8,0:0:0:0:
256,192,83925,1,8,0:0:0:0:
256,192,84003,1,4,0:0:0:0:
256,192,84080,12,0,84772,0:0:0:0:
256,192,84926,5,8,0:0:0:0:
256,192,85131,1,0,0:0:0:0:
256,192,85234,1,8,0:0:0:0:
256,192,85439,1,8,0:0:0:0:
256,192,85541,1,8,0:0:0:0:
256,192,85747,1,8,0:0:0:0:
256,192,85849,1,4,0:0:0:0:
256,192,85926,12,0,86618,0:0:0:0:
256,192,86772,5,8,0:0:0:0:
256,192,87285,1,0,0:0:0:0:
256,192,87388,1,8,0:0:0:0:
256,192,87695,1,4,0:0:0:0:
256,192,87772,12,0,88465,0:0:0:0:
256,192,88618,5,0,0:0:0:0:
256,192,88721,1,0,0:0:0:0:
256,192,88823,1,8,0:0:0:0:
256,192,88926,1,0,0:0:0:0:
256,192,89029,1,0,0:0:0:0:
256,192,89131,1,8,0:0:0:0:
256,192,89234,1,0,0:0:0:0:
256,192,89336,1,8,0:0:0:0:
256,192,89439,1,8,0:0:0:0:
256,192,89541,1,4,0:0:0:0:
256,192,89618,12,0,89849,0:0:0:0:
256,192,90055,5,0,0:0:0:0:
256,192,90157,1,8,0:0:0:0:
256,192,90362,1,8,0:0:0:0:
256,192,90465,1,4,0:0:0:0:
256,192,90541,12,0,90772,0:0:0:0:
256,192,90977,5,0,0:0:0:0:
256,192,91080,1,8,0:0:0:0:
256,192,91285,1,8,0:0:0:0:
256,192,91388,1,4,0:0:0:0:
256,192,91465,12,0,92157,0:0:0:0:
256,192,92311,5,8,0:0:0:0:
256,192,92516,1,0,0:0:0:0:
256,192,92619,1,8,0:0:0:0:
256,192,92824,1,8,0:0:0:0:
256,192,92926,1,8,0:0:0:0:
256,192,93132,1,8,0:0:0:0:
256,192,93234,1,4,0:0:0:0:
256,192,93311,12,0,94003,0:0:0:0:
256,192,94157,5,8,0:0:0:0:
256,192,94670,1,0,0:0:0:0:
256,192,94773,1,8,0:0:0:0:
256,192,95080,1,4,0:0:0:0:
256,192,95157,12,0,95850,0:0:0:0:
256,192,96003,5,0,0:0:0:0:
256,192,96106,1,0,0:0:0:0:
256,192,96208,1,8,0:0:0:0:
256,192,96311,1,0,0:0:0:0:
256,192,96414,1,0,0:0:0:0:
256,192,96516,1,8,0:0:0:0:
256,192,96619,1,0,0:0:0:0:
256,192,96721,1,8,0:0:0:0:
256,192,96824,1,8,0:0:0:0:
256,192,96926,1,4,0:0:0:0:
256,192,97003,12,0,97234,0:0:0:0:
256,192,97440,5,0,0:0:0:0:
256,192,97542,1,8,0:0:0:0:
256,192,97747,1,8,0:0:0:0:
256,192,97850,1,4,0:0:0:0:
256,192,97926,12,0,98157,0:0:0:0:
256,192,98362,5,0,0:0:0:0:
256,192,98465,1,8,0:0:0:0:
256,192,98670,1,8,0:0:0:0:
256,192,98772,1,4,0:0:0:0:
256,192,98849,12,0,99541,0:0:0:0:
256,192,99695,5,8,0:0:0:0:
256,192,99900,1,0,0:0:0:0:
256,192,100003,1,8,0:0:0:0:
256,192,100208,1,8,0:0:0:0:
256,192,100310,1,8,0:0:0:0:
256,192,100516,1,8,0:0:0:0:
256,192,100618,1,4,0:0:0:0:
256,192,100695,12,0,101387,0:0:0:0:
256,192,101541,5,8,0:0:0:0:
256,192,102054,1,0,0:0:0:0:
256,192,102157,1,8,0:0:0:0:
256,192,102464,1,4,0:0:0:0:
256,192,102541,12,0,103234,0:0:0:0:
256,192,103387,5,0,0:0:0:0:
256,192,103490,1,0,0:0:0:0:
256,192,103592,1,8,0:0:0:0:
256,192,103695,1,0,0:0:0:0:
256,192,103798,1,0,0:0:0:0:
256,192,103900,1,8,0:0:0:0:
256,192,104003,1,0,0:0:0:0:
256,192,104105,1,8,0:0:0:0:
256,192,104208,1,8,0:0:0:0:
256,192,104310,1,4,0:0:0:0:
256,192,104387,12,0,104618,0:0:0:0:
256,192,104824,5,0,0:0:0:0:
256,192,104926,1,8,0:0:0:0:
256,192,105131,1,8,0:0:0:0:
256,192,105234,1,4,0:0:0:0:
256,192,105310,12,0,105541,0:0:0:0:
256,192,105746,5,0,0:0:0:0:
256,192,105849,1,8,0:0:0:0:
256,192,106054,1,8,0:0:0:0:
256,192,106157,1,0,0:0:0:0:
256,192,106465,1,8,0:0:0:0:
256,192,106670,1,8,0:0:0:0:
256,192,106772,1,8,0:0:0:0:
256,192,107080,1,0,0:0:0:0:
256,192,107388,1,8,0:0:0:0:
256,192,107593,1,8,0:0:0:0:
256,192,107695,1,8,0:0:0:0:
256,192,108003,1,0,0:0:0:0:
256,192,108516,1,8,0:0:0:0:
256,192,108618,1,8,0:0:0:0:
256,192,108823,1,8,0:0:0:0:
256,192,108926,1,0,0:0:0:0:
256,192,109849,1,8,0:0:0:0:
256,192,110157,1,0,0:0:0:0:
256,192,110465,1,0,0:0:0:0:
256,192,110772,1,8,0:0:0:0:
256,192,110977,1,0,0:0:0:0:
256,192,111080,1,0,0:0:0:0:
256,192,111388,1,0,0:0:0:0:
256,192,111695,1,8,0:0:0:0:
256,192,112208,1,0,0:0:0:0:
256,192,112311,1,8,0:0:0:0:
256,192,112516,1,8,0:0:0:0:
256,192,112618,1,0,0:0:0:0:
256,192,113541,1,0,0:0:0:0:
256,192,113849,1,8,0:0:0:0:
256,192,114157,1,8,0:0:0:0:
256,192,114465,1,0,0:0:0:0:
256,192,114772,1,8,0:0:0:0:
256,192,114977,1,8,0:0:0:0:
256,192,115080,1,8,0:0:0:0:
256,192,115388,1,0,0:0:0:0:
256,192,115695,1,0,0:0:0:0:
256,192,116003,1,8,0:0:0:0:
256,192,116311,1,8,0:0:0:0:
256,192,116926,1,8,0:0:0:0:
256,192,117131,1,8,0:0:0:0:
256,192,117234,1,0,0:0:0:0:
256,192,117541,1,0,0:0:0:0:
256,192,117747,1,0,0:0:0:0:
256,192,117849,1,8,0:0:0:0:
256,192,118054,1,0,0:0:0:0:
256,192,118157,1,8,0:0:0:0:
256,192,118465,1,0,0:0:0:0:
256,192,118772,1,0,0:0:0:0:
256,192,118926,1,8,0:0:0:0:
256,192,119080,1,0,0:0:0:0:
256,192,119388,1,0,0:0:0:0:
256,192,119695,1,0,0:0:0:0:
256,192,119900,1,8,0:0:0:0:
256,192,120003,1,8,0:0:0:0:
256,192,120926,5,0,0:0:0:0:
256,192,121426,1,8,0:0:0:0:
256,192,121849,1,0,0:0:0:0:
256,192,122349,1,8,0:0:0:0:
256,192,122772,1,0,0:0:0:0:
256,192,123234,1,8,0:0:0:0:
256,192,123388,1,8,0:0:0:0:
256,192,123541,1,8,0:0:0:0:
256,192,123695,1,0,0:0:0:0:
256,192,124003,1,0,0:0:0:0:
256,192,124208,1,0,0:0:0:0:
256,192,124311,1,0,0:0:0:0:
256,192,124516,1,0,0:0:0:0:
256,192,124618,1,8,0:0:0:0:
256,192,125118,1,0,0:0:0:0:
256,192,125541,1,8,0:0:0:0:
256,192,126041,1,0,0:0:0:0:
256,192,126464,1,8,0:0:0:0:
256,192,126926,1,8,0:0:0:0:
256,192,127080,1,8,0:0:0:0:
256,192,127234,1,8,0:0:0:0:
256,192,127388,1,0,0:0:0:0:
256,192,127695,1,8,0:0:0:0:
256,192,127900,1,0,0:0:0:0:
256,192,128003,1,8,0:0:0:0:
256,192,128311,1,0,0:0:0:0:
256,192,128618,1,0,0:0:0:0:
256,192,128772,1,0,0:0:0:0:
256,192,128926,1,8,0:0:0:0:
256,192,129234,1,0,0:0:0:0:
256,192,129541,1,0,0:0:0:0:
256,192,129695,1,8,0:0:0:0:
256,192,129849,1,8,0:0:0:0:
256,192,130157,1,0,0:0:0:0:
256,192,130310,1,8,0:0:0:0:
256,192,130465,1,0,0:0:0:0:
256,192,130618,1,8,0:0:0:0:
256,192,130772,1,0,0:0:0:0:
256,192,130926,1,8,0:0:0:0:
256,192,131080,1,8,0:0:0:0:
256,192,131388,1,0,0:0:0:0:
256,192,131695,1,0,0:0:0:0:
256,192,131900,1,8,0:0:0:0:
256,192,132003,1,0,0:0:0:0:
256,192,132311,1,8,0:0:0:0:
256,192,132464,1,8,0:0:0:0:
256,192,132618,1,0,0:0:0:0:
256,192,132772,1,0,0:0:0:0:
256,192,132926,1,8,0:0:0:0:
256,192,133234,1,8,0:0:0:0:
256,192,133387,1,0,0:0:0:0:
256,192,133541,1,8,0:0:0:0:
256,192,133849,12,0,135541,0:0:0:0:
256,192,135695,5,0,0:0:0:0:
256,192,135752,1,0,0:0:0:0:
256,192,135810,1,0,0:0:0:0:
256,192,135925,1,8,0:0:0:0:
256,192,136041,1,0,0:0:0:0:
256,192,136098,1,0,0:0:0:0:
256,192,136156,1,0,0:0:0:0:
256,192,136271,1,8,0:0:0:0:
256,192,136387,1,0,0:0:0:0:
256,192,136445,1,0,0:0:0:0:
256,192,136502,1,8,0:0:0:0:
256,192,136618,1,8,0:0:0:0:
256,192,136675,1,0,0:0:0:0:
256,192,136733,1,0,0:0:0:0:
256,192,136791,1,0,0:0:0:0:
256,192,136848,1,8,0:0:0:0:
256,192,136964,1,8,0:0:0:0:
256,192,137079,1,0,0:0:0:0:
256,192,137137,1,0,0:0:0:0:
256,192,137195,1,8,0:0:0:0:
256,192,137310,1,0,0:0:0:0:
256,192,137425,1,8,0:0:0:0:
256,192,137541,1,0,0:0:0:0:
256,192,137598,1,0,0:0:0:0:
256,192,137656,1,0,0:0:0:0:
256,192,137771,1,8,0:0:0:0:
256,192,137887,1,0,0:0:0:0:
256,192,137945,1,0,0:0:0:0:
256,192,138002,1,0,0:0:0:0:
256,192,138118,1,8,0:0:0:0:
256,192,138233,1,8,0:0:0:0:
256,192,138464,1,4,0:0:0:0:
256,192,138695,1,8,0:0:0:0:
256,192,138810,1,0,0:0:0:0:
256,192,138925,1,8,0:0:0:0:
256,192,139002,1,0,0:0:0:0:
256,192,139079,1,0,0:0:0:0:
256,192,139156,1,8,0:0:0:0:
256,192,139387,1,0,0:0:0:0:
256,192,139445,1,0,0:0:0:0:
256,192,139502,1,8,0:0:0:0:
256,192,139618,1,8,0:0:0:0:
256,192,139733,1,0,0:0:0:0:
256,192,139791,1,0,0:0:0:0:
256,192,139848,1,8,0:0:0:0:
256,192,139964,1,8,0:0:0:0:
256,192,140021,1,0,0:0:0:0:
256,192,140079,1,0,0:0:0:0:
256,192,140310,1,0,0:0:0:0:
256,192,140368,1,8,0:0:0:0:
256,192,140425,1,0,0:0:0:0:
256,192,140541,1,0,0:0:0:0:
256,192,140656,1,0,0:0:0:0:
256,192,140771,1,8,0:0:0:0:
256,192,140829,1,0,0:0:0:0:
256,192,140887,1,0,0:0:0:0:
256,192,141002,1,8,0:0:0:0:
256,192,141060,1,0,0:0:0:0:
256,192,141118,1,0,0:0:0:0:
256,192,141233,1,0,0:0:0:0:
256,192,141464,1,8,0:0:0:0:
256,192,141579,1,8,0:0:0:0:
256,192,141695,1,0,0:0:0:0:
256,192,141925,1,0,0:0:0:0:
256,192,142156,1,0,0:0:0:0:
256,192,142271,1,0,0:0:0:0:
256,192,142387,1,8,0:0:0:0:
256,192,142618,1,0,0:0:0:0:
256,192,142675,1,0,0:0:0:0:
256,192,142733,1,0,0:0:0:0:
256,192,142848,1,8,0:0:0:0:
256,192,143079,1,0,0:0:0:0:
256,192,143195,1,8,0:0:0:0:
256,192,143252,1,8,0:0:0:0:
256,192,143310,1,0,0:0:0:0:
256,192,143425,1,0,0:0:0:0:
256,192,143541,1,8,0:0:0:0:
256,192,143598,1,8,0:0:0:0:
256,192,143656,1,0,0:0:0:0:
256,192,143771,1,8,0:0:0:0:
256,192,143887,1,0,0:0:0:0:
256,192,144002,1,0,0:0:0:0:
256,192,144233,1,8,0:0:0:0:
256,192,144348,1,0,0:0:0:0:
256,192,144464,1,0,0:0:0:0:
256,192,144521,1,0,0:0:0:0:
256,192,144579,1,0,0:0:0:0:
256,192,144637,1,0,0:0:0:0:
256,192,144695,1,8,0:0:0:0:
256,192,144752,1,0,0:0:0:0:
256,192,144810,1,8,0:0:0:0:
256,192,144925,1,8,0:0:0:0:
256,192,145156,1,8,0:0:0:0:
256,192,145271,1,0,0:0:0:0:
256,192,145502,1,8,0:0:0:0:
256,192,145618,1,8,0:0:0:0:
256,192,145848,1,8,0:0:0:0:
256,192,145964,1,0,0:0:0:0:
256,192,146079,1,8,0:0:0:0:
256,192,146310,1,0,0:0:0:0:
256,192,146425,1,8,0:0:0:0:
256,192,146541,1,0,0:0:0:0:
256,192,146656,1,8,0:0:0:0:
256,192,146771,1,4,0:0:0:0:
256,192,146887,1,0,0:0:0:0:
256,192,146945,1,0,0:0:0:0:
256,192,147002,1,8,0:0:0:0:
256,192,147118,1,4,0:0:0:0:
256,192,147233,1,0,0:0:0:0:
256,192,147348,1,8,0:0:0:0:
256,192,147464,1,0,0:0:0:0:
256,192,147521,1,0,0:0:0:0:
256,192,147579,1,8,0:0:0:0:
256,192,147637,1,0,0:0:0:0:
256,192,147695,1,8,0:0:0:0:
256,192,147752,1,8,0:0:0:0:
256,192,147810,1,0,0:0:0:0:
256,192,147925,1,8,0:0:0:0:
256,192,148156,1,0,0:0:0:0:
256,192,148214,1,0,0:0:0:0:
256,192,148271,1,8,0:0:0:0:
256,192,148387,1,0,0:0:0:0:
256,192,148445,1,0,0:0:0:0:
256,192,148502,1,8,0:0:0:0:
256,192,148618,1,0,0:0:0:0:
256,192,148675,1,0,0:0:0:0:
256,192,148733,1,0,0:0:0:0:
256,192,148791,1,0,0:0:0:0:
256,192,148848,1,8,0:0:0:0:
256,192,148964,1,0,0:0:0:0:
256,192,149079,1,0,0:0:0:0:
256,192,149137,1,8,0:0:0:0:
256,192,149195,1,8,0:0:0:0:
256,192,149310,1,12,0:0:0:0:
256,192,149541,1,0,0:0:0:0:
256,192,149771,1,8,0:0:0:0:
256,192,150002,1,8,0:0:0:0:
256,192,150233,1,0,0:0:0:0:
256,192,150464,1,0,0:0:0:0:
256,192,150521,1,0,0:0:0:0:
256,192,150579,1,8,0:0:0:0:
256,192,150695,1,8,0:0:0:0:
256,192,150810,1,0,0:0:0:0:
256,192,150868,1,8,0:0:0:0:
256,192,150925,1,8,0:0:0:0:
256,192,151041,1,8,0:0:0:0:
256,192,151156,1,0,0:0:0:0:
256,192,151387,1,8,0:0:0:0:
256,192,151502,1,0,0:0:0:0:
256,192,151618,1,8,0:0:0:0:
256,192,151733,1,0,0:0:0:0:
256,192,151848,1,8,0:0:0:0:
256,192,151925,1,0,0:0:0:0:
256,192,152002,1,0,0:0:0:0:
256,192,152079,1,8,0:0:0:0:
256,192,152310,1,0,0:0:0:0:
256,192,152368,1,0,0:0:0:0:
256,192,152425,1,0,0:0:0:0:
256,192,152541,1,8,0:0:0:0:
256,192,152656,1,0,0:0:0:0:
256,192,152714,1,0,0:0:0:0:
256,192,152771,1,8,0:0:0:0:
256,192,152887,1,0,0:0:0:0:
256,192,153002,1,8,0:0:0:0:
256,192,153060,1,0,0:0:0:0:
256,192,153118,1,0,0:0:0:0:
256,192,153175,1,0,0:0:0:0:
256,192,153233,1,8,0:0:0:0:
256,192,153291,1,8,0:0:0:0:
256,192,153348,1,0,0:0:0:0:
256,192,153464,1,8,0:0:0:0:
256,192,153695,1,0,0:0:0:0:
256,192,153752,1,0,0:0:0:0:
256,192,153810,1,0,0:0:0:0:
256,192,153925,1,8,0:0:0:0:
256,192,154156,1,0,0:0:0:0:
256,192,154214,1,0,0:0:0:0:
256,192,154271,1,8,0:0:0:0:
256,192,154387,1,8,0:0:0:0:
256,192,154502,1,0,0:0:0:0:
256,192,154560,1,0,0:0:0:0:
256,192,154618,1,0,0:0:0:0:
256,192,154733,1,8,0:0:0:0:
256,192,154848,1,0,0:0:0:0:
256,192,155079,1,0,0:0:0:0:
256,192,155137,1,0,0:0:0:0:
256,192,155195,1,0,0:0:0:0:
256,192,155252,1,0,0:0:0:0:
256,192,155310,1,8,0:0:0:0:
256,192,155425,1,0,0:0:0:0:
256,192,155541,1,8,0:0:0:0:
256,192,155598,1,0,0:0:0:0:
256,192,155656,1,8,0:0:0:0:
256,192,155771,1,0,0:0:0:0:
256,192,155887,1,8,0:0:0:0:
256,192,155925,1,8,0:0:0:0:
256,192,155964,1,8,0:0:0:0:
256,192,156002,1,0,0:0:0:0:
256,192,156233,1,8,0:0:0:0:
256,192,156348,1,0,0:0:0:0:
256,192,156579,1,8,0:0:0:0:
256,192,156695,1,0,0:0:0:0:
256,192,156925,1,8,0:0:0:0:
256,192,156983,1,8,0:0:0:0:
256,192,157041,1,0,0:0:0:0:
256,192,157156,1,8,0:0:0:0:
256,192,157387,1,0,0:0:0:0:
256,192,157445,1,8,0:0:0:0:
256,192,157502,1,0,0:0:0:0:
256,192,157618,1,8,0:0:0:0:
256,192,157848,1,0,0:0:0:0:
256,192,157906,1,8,0:0:0:0:
256,192,157964,1,0,0:0:0:0:
256,192,158021,1,0,0:0:0:0:
256,192,158079,1,8,0:0:0:0:
256,192,158195,1,8,0:0:0:0:
256,192,158252,1,8,0:0:0:0:
256,192,158310,1,0,0:0:0:0:
256,192,158368,1,0,0:0:0:0:
256,192,158425,1,8,0:0:0:0:
256,192,158541,1,0,0:0:0:0:
256,192,158771,1,0,0:0:0:0:
256,192,158887,1,0,0:0:0:0:
256,192,159002,1,0,0:0:0:0:
256,192,159060,1,0,0:0:0:0:
256,192,159118,1,8,0:0:0:0:
256,192,159175,1,8,0:0:0:0:
256,192,159233,1,0,0:0:0:0:
256,192,159348,1,0,0:0:0:0:
256,192,159464,1,0,0:0:0:0:
256,192,159579,1,0,0:0:0:0:
256,192,159695,1,0,0:0:0:0:
256,192,159810,1,8,0:0:0:0:
256,192,159868,1,8,0:0:0:0:
256,192,159925,1,0,0:0:0:0:
256,192,160041,1,0,0:0:0:0:
256,192,160156,1,8,0:0:0:0:
256,192,160214,1,8,0:0:0:0:
256,192,160271,1,0,0:0:0:0:
256,192,160387,1,8,0:0:0:0:
256,192,160502,1,0,0:0:0:0:
256,192,160618,1,8,0:0:0:0:
256,192,160733,1,0,0:0:0:0:
256,192,160848,1,8,0:0:0:0:
256,192,160906,1,8,0:0:0:0:
256,192,160964,1,8,0:0:0:0:
256,192,161079,1,0,0:0:0:0:
256,192,161195,1,0,0:0:0:0:
256,192,161310,1,0,0:0:0:0:
256,192,161541,1,0,0:0:0:0:
256,192,161598,1,0,0:0:0:0:
256,192,161656,1,8,0:0:0:0:
256,192,161771,1,8,0:0:0:0:
256,192,161887,1,0,0:0:0:0:
256,192,161945,1,0,0:0:0:0:
256,192,162002,1,8,0:0:0:0:
256,192,162118,1,8,0:0:0:0:
256,192,162233,1,0,0:0:0:0:
256,192,162464,1,8,0:0:0:0:
256,192,162521,1,8,0:0:0:0:
256,192,162579,1,0,0:0:0:0:
256,192,162695,1,8,0:0:0:0:
256,192,162810,1,8,0:0:0:0:
256,192,162868,1,0,0:0:0:0:
256,192,162925,1,8,0:0:0:0:
256,192,162983,1,0,0:0:0:0:
256,192,163041,1,8,0:0:0:0:
256,192,163156,1,8,0:0:0:0:
256,192,163271,1,8,0:0:0:0:
256,192,163329,1,8,0:0:0:0:
256,192,163387,1,0,0:0:0:0:
256,192,163445,1,0,0:0:0:0:
256,192,163502,1,0,0:0:0:0:
256,192,163560,1,0,0:0:0:0:
256,192,163618,1,8,0:0:0:0:
256,192,163733,1,8,0:0:0:0:
256,192,163848,1,0,0:0:0:0:
256,192,163906,1,0,0:0:0:0:
256,192,163964,1,0,0:0:0:0:
256,192,164021,1,0,0:0:0:0:
256,192,164079,1,8,0:0:0:0:
256,192,164195,1,8,0:0:0:0:
256,192,164310,1,0,0:0:0:0:
256,192,164368,1,0,0:0:0:0:
256,192,164425,1,0,0:0:0:0:
256,192,164483,1,0,0:0:0:0:
256,192,164541,1,8,0:0:0:0:
256,192,164656,1,0,0:0:0:0:
256,192,164771,1,0,0:0:0:0:
256,192,165233,12,0,172537,0:0:0:0:
